#TITLE:resonance;
#SUBTITLE:;
#ARTIST:NAOKI-EX;
#TITLETRANSLIT:;
#SUBTITLETRANSLIT:;
#ARTISTTRANSLIT:;
#GENRE:;
#CREDIT:;
#BANNER:resonance.png;
#BACKGROUND:resonance-bg.png;
#LYRICSPATH:;
#CDTITLE:;
#MUSIC:resonance.ogg;
#OFFSET:0.000000;
#SAMPLESTART:13.080000;
#SAMPLELENGTH:15.000000;
#SELECTABLE:YES;
#DISPLAYBPM:165.000000;
#BPMS:0.000000=165.138000
,4.000000=165.011002
;
#STOPS:
;
#BGCHANGES:;
#KEYSOUNDS:;
#ATTACKS:;

//---------------dance-single - ----------------
#NOTES:
     dance-single:
     :
     Beginner:
     2:
     0.128995,0.166740,0.092348,0.000000,0.000000,88.000000,79.000000,9.000000,0.000000,0.000000,0.000000,0.128995,0.166740,0.092348,0.000000,0.000000,88.000000,79.000000,9.000000,0.000000,0.000000,0.000000:
0000
0000
0000
0000
,
0000
0000
0000
0000
,
0000
0000
0000
0000
,
0000
0000
0000
0000
,
0000
0000
0000
0000
,
0001
0000
1000
0000
,
0010
0000
0100
0000
,
1000
0000
0010
0000
,
0001
0000
0000
0000
,
1000
0000
1000
0000
,
0001
0000
0100
0000
,
0010
0000
0000
0000
,
1000
0000
0000
0000
,
0001
0000
0001
0000
,
1000
0000
0010
0000
,
0100
0000
0000
0000
,
0001
0000
0000
0000
,
0000
0000
0000
0000
,
1000
0000
1001
0000
,
0001
0000
0000
0000
,
0010
0000
0000
0000
,
0000
0000
0000
0000
,
1000
0000
1001
0000
,
0001
0000
0000
0000
,
0100
0000
0000
0000
,
0001
0000
1000
0000
,
1000
0000
0000
0000
,
0100
0000
0010
0000
,
0001
0000
0000
0000
,
1000
0000
0001
0000
,
0001
0000
0000
0000
,
0010
0000
0100
0000
,
1000
0000
0000
0000
,
0000
1001
0000
0000
,
0000
1001
0000
0000
,
0010
0000
0010
0000
,
0100
0000
0000
0000
,
0000
1001
0000
0000
,
0000
1001
0000
0000
,
0000
0000
0000
0000
,
0000
0000
0000
0000
,
1000
0000
1000
0000
,
0001
0000
0100
0000
,
0010
0000
0000
0000
,
1000
0000
0000
0000
,
0001
0000
0001
0000
,
1000
0000
0010
0000
,
0100
0000
0000
0000
,
0001
0000
0000
0000
,
0001
0000
0001
0000
,
1000
0000
0000
0000
,
0100
0000
0001
0000
,
0001
0000
0000
0000
,
1000
0000
1000
0000
,
0001
0000
0000
0000
,
0010
0000
1000
0000
,
1000
0000
0000
0000
,
0000
0000
0000
0000
,
0001
0000
1001
0000
,
1000
0000
0000
0000
,
0100
0000
0000
0000
,
0000
0000
0000
0000
,
0001
0000
1001
0000
,
1000
0000
0000
0000
,
0010
0000
0000
0000
,
1001
0000
0000
0000
,
;

//---------------dance-single - ----------------
#NOTES:
     dance-single:
     :
     Easy:
     4:
     0.193492,0.266784,0.112870,0.041044,0.000000,132.000000,121.000000,11.000000,4.000000,0.000000,0.000000,0.193492,0.266784,0.112870,0.041044,0.000000,132.000000,121.000000,11.000000,4.000000,0.000000,0.000000:
0000
0000
0000
0000
,
0000
0000
0000
0000
,
0000
0000
0000
0000
,
0000
0000
0000
0000
,
0000
0000
0000
0000
,
1000
0000
1001
0000
,
0100
0000
0010
0000
,
0001
0000
0110
0000
,
1000
0000
0000
0000
,
1000
0001
1000
0001
,
1000
0000
0100
0000
,
0010
0000
0001
0000
,
0100
0000
0000
0000
,
1000
0001
1000
0001
,
1000
0000
0010
0000
,
0100
0000
0001
0000
,
0010
0000
0000
0000
,
2000
0000
0000
3000
,
0001
0000
1000
0001
,
0100
0000
0001
0000
,
0001
0000
0000
0000
,
2000
0000
0000
3000
,
0001
0000
1000
0001
,
0010
0000
0001
0000
,
1001
0000
0000
0000
,
0100
0000
1000
0000
,
0001
1000
0100
0000
,
1000
0000
1001
0000
,
0100
0000
0000
0000
,
0010
0000
0001
0000
,
1000
0001
0010
0000
,
0001
0000
1001
0000
,
0010
0000
0000
0000
,
0000
0110
0000
0001
,
0000
1001
0000
1000
,
0001
0000
1000
0000
,
1000
0100
0100
0000
,
0000
1001
0000
1000
,
0000
0110
0000
0001
,
0000
0000
0000
0000
,
0000
0000
0000
0000
,
1000
0001
1000
0001
,
1000
0000
0100
0000
,
0010
0000
0001
0000
,
0100
0000
0000
0000
,
1000
0001
1000
0001
,
1000
0000
0010
0000
,
0100
0000
0001
0000
,
0010
0000
0000
0000
,
1000
0000
1000
0001
,
1000
1000
0100
0000
,
0010
0010
0001
0000
,
0100
0000
0000
0000
,
0001
0000
0001
1000
,
0001
0001
0010
0000
,
0100
0100
1000
0000
,
0010
0000
0000
0000
,
0002
0000
0000
0003
,
1000
0000
0001
1000
,
0010
0000
1000
0000
,
1000
0000
0000
0000
,
0002
0000
0000
0003
,
1000
0000
0001
1000
,
0100
0000
1000
0000
,
1001
0000
0000
0000
,
0110
0000
0000
0000
;

//---------------dance-single - ----------------
#NOTES:
     dance-single:
     :
     Medium:
     8:
     0.392847,0.433525,0.215480,0.205219,0.000000,268.000000,247.000000,21.000000,20.000000,0.000000,0.000000,0.392847,0.433525,0.215480,0.205219,0.000000,268.000000,247.000000,21.000000,20.000000,0.000000,0.000000:
0000
0000
0000
0000
,
0000
0000
0000
0000
,
0000
0000
0000
0000
,
0000
0000
0000
0000
,
0000
0000
0000
0000
,
0100
0100
1010
0000
,
0100
0000
1001
0000
,
0100
0100
0110
0000
,
0100
0000
0000
0000
,
2000
3002
0023
0130
,
1000
0000
0001
0000
1000
0001
0100
0000
,
0010
1000
0100
0000
1000
0000
0100
0000
,
1000
0000
0100
0000
0001
1000
0100
0010
,
0002
2003
3020
0130
,
0001
0000
1000
0000
0001
1000
0100
0000
,
0010
0001
0100
0000
0001
0000
0100
0000
,
0001
0000
0100
0000
0001
1000
0001
1000
,
0200
0000
0010
0310
,
0001
0011
0010
0100
,
1000
0010
1000
0000
0001
0100
0010
0000
,
1000
0000
0100
1001
,
0020
0000
0100
0130
,
1000
1100
0100
0010
,
0001
0100
0001
0000
1000
0010
0100
0000
,
0001
0000
0010
1001
,
0010
0000
1000
0100
,
0010
0001
1000
0100
,
1000
0001
0000
1001
,
0100
0010
0100
0110
,
0100
0000
0001
0010
,
0100
1000
0001
0010
,
0001
1000
0100
1001
,
0010
0100
0010
0100
,
0001
0101
0001
1000
,
1000
1100
1000
0001
,
0010
0100
0001
0100
,
1000
0100
0010
0000
,
1000
1001
1000
0010
,
0001
1001
0001
0100
,
0010
0010
0000
0100
0100
0000
1001
1001
,
0000
0000
0000
0000
,
0002
2003
3200
0310
,
0001
0000
1000
0000
0001
1000
0010
0000
,
0100
0001
0010
0000
0001
0000
0010
0000
,
0001
0000
0100
0000
1000
0001
0100
0010
,
2000
3002
0203
0310
,
1000
0000
0001
0000
1000
0001
0010
0000
,
0100
1000
0010
0000
1000
0000
0010
0000
,
1000
0000
0010
0000
1000
0001
1000
0001
,
2000
3000
0020
0130
,
0001
1000
0001
0100
,
0001
0100
1000
0000
0100
0000
1000
0000
,
0001
0100
1000
0100
,
0002
1003
0200
0310
,
1000
0001
1000
0100
,
0010
1000
0100
0000
0010
0000
0001
0000
,
1000
0000
0100
0000
0001
1000
0001
1000
,
0020
0000
0100
0130
,
1000
1100
0100
0010
,
0001
0100
0001
0000
1000
0010
0100
0000
,
0001
0000
0010
1001
,
0200
0000
0010
0310
,
0001
0011
0010
0100
,
1000
0010
1000
0000
0001
0100
0010
0000
,
1000
0000
0100
1001
,
0110
0000
0000
0000
,
;

//---------------dance-single - ----------------
#NOTES:
     dance-single:
     :
     Hard:
     11:
     0.539432,0.566917,0.287306,0.205219,0.102609,368.000000,340.000000,28.000000,20.000000,0.000000,0.000000,0.539432,0.566917,0.287306,0.205219,0.102609,368.000000,340.000000,28.000000,20.000000,0.000000,0.000000:
// measure 0
0000
0000
0000
0000
,  // measure 1
0000
0000
0000
0000
,  // measure 2
0000
0000
0000
0000
,  // measure 3
0000
0000
0000
0000
,  // measure 4
0000
0000
0000
0000
,  // measure 5
1000
0010
1010
0000
,  // measure 6
0110
0000
1001
0000
,  // measure 7
0001
0010
0110
0000
,  // measure 8
0100
0000
0000
0000
,  // measure 9
0020
0000
0000
0000
0032
0000
0000
0000
0023
0000
0000
0000
0130
0000
0000
0001
,  // measure 10
1000
0000
0000
0100
1000
0000
0100
0000
0010
0000
0001
0000
0100
0000
0001
0000
,  // measure 11
0010
1000
0100
0000
0001
0000
0100
0000
,  // measure 12
1000
0100
0010
0010
0001
0010
0100
1000
,  // measure 13
0020
0000
0000
0000
2030
0000
0000
0000
3020
0000
0000
0000
0130
0000
0000
1000
,  // measure 14
0001
0000
0000
0100
0001
0000
0100
0000
0010
0000
1000
0000
0100
0000
1000
0000
,  // measure 15
0010
0001
0100
0000
1000
0000
0100
0000
,  // measure 16
0001
0010
0100
0100
1000
0001
1000
0001
,  // measure 17
2000
0000
0000
0000
3100
0010
0001
0010
,  // measure 18
1000
0110
0001
1100
,  // measure 19
0011
0000
0000
1000
0100
0000
0010
0000
0001
0000
0010
0000
1000
0000
0010
0000
,  // measure 20
0000
0100
0100
1000
0000
0100
0100
0001
,  // measure 21
2000
0000
0000
0000
3010
0100
0001
0100
,  // measure 22
1000
0110
0001
1010
,  // measure 23
0101
0000
0000
1000
0010
0000
0100
0000
0001
0000
0100
0000
1000
0000
0100
0000
,  // measure 24
0000
0010
0010
1000
0000
0010
0010
0100
,  // measure 25
1000
0000
0100
0000
0001
0010
0100
0000
,  // measure 26
0001
0000
0100
0000
1000
0010
0100
0000
,  // measure 27
1000
0010
0001
0000
0010
0000
0011
0000
,  // measure 28
1000
0001
0100
0110
,  // measure 29
0010
0000
1000
0000
0100
0001
1000
0000
,  // measure 30
0100
0000
0001
0000
0010
0001
1000
0000
,  // measure 31
0010
1000
0100
0000
1000
0000
1100
0000
,  // measure 32
0001
0000
1000
0000
0010
0100
0110
0000
,  // measure 33
0001
0000
0000
1000
0000
0000
0010
0000
0100
0000
0001
0000
0100
0000
0000
0000
,  // measure 34
1000
0000
0000
0010
0000
0000
1000
0000
1000
0000
0100
0000
0010
0000
0000
0000
,  // measure 35
0001
0010
0001
1000
0001
0100
0010
0100
,  // measure 36
0001
1000
0100
0010
0001
0000
0100
0000
,  // measure 37
1000
0000
0000
0001
0000
0000
0100
0000
0010
0000
1000
0000
1010
0000
0000
0000
,  // measure 38
0001
0000
0000
0100
0000
0000
0001
0000
0001
0000
0010
0000
1100
0000
0000
0000
,  // measure 39
0011
0001
0000
1000
1100
0000
0001
1000
,  // measure 40
0000
0000
0000
0000
,  // measure 41
0200
0000
0000
0000
2300
0000
0000
0000
3200
0000
0000
0000
0310
0000
0000
1000
,  // measure 42
0001
0000
0000
0010
0001
0000
0010
0000
0100
0000
1000
0000
0010
0000
1000
0000
,  // measure 43
0100
0001
0010
0000
1000
0000
0010
0000
,  // measure 44
0001
0010
0100
0100
1000
0100
0010
0001
,  // measure 45
0200
0000
0000
0000
0302
0000
0000
0000
0203
0000
0000
0000
0310
0000
0000
0001
,  // measure 46
1000
0000
0000
0010
1000
0000
0010
0000
0100
0000
0001
0000
0010
0000
0001
0000
,  // measure 47
0100
1000
0010
0000
0001
0000
0010
0000
,  // measure 48
1000
0100
0010
0100
0001
1000
0001
1000
,  // measure 49
0020
0000
0000
0000
1030
0000
0000
0000
0201
0000
0000
0000
0310
0000
0000
0001
,  // measure 50
1000
0000
0000
0100
1000
0000
0000
0000
0010
0000
0001
0000
0100
0000
0001
0000
,  // measure 51
0010
1000
0100
0000
0001
0010
0100
0000
,  // measure 52
0001
0100
0010
0010
1000
0010
1000
0001
,  // measure 53
0210
0000
0000
0000
1300
0000
0000
0000
0021
0000
0000
0000
0130
0000
0000
1000
,  // measure 54
0001
0000
0000
0010
0001
0000
0000
0000
0100
0000
1000
0000
0010
0000
0000
0000
,  // measure 55
1000
0010
0001
0000
0100
1000
0001
0000
,  // measure 56
1000
0010
0100
0100
0001
1000
0001
1000
,  // measure 57
0002
0000
0000
0000
0103
0010
1000
0010
,  // measure 58
0001
0110
1000
0101
,  // measure 59
1010
0000
0000
0001
0100
0000
0010
0000
1000
0000
0010
0000
0001
0000
0010
0000
,  // measure 60
0000
0100
0100
0001
0000
0100
0100
1000
,  // measure 61
0002
0000
0000
0000
0013
0100
1000
0100
,  // measure 62
0001
0110
1000
0011
,  // measure 63
1100
0000
0000
0001
0010
0000
0100
0000
1000
0000
0100
0000
0001
0000
0100
0000
,  // measure 64
0000
0010
0010
0001
0000
0010
0010
0100
,  // measure 65
1001
0000
0000
0000
;

//---------------dance-double - ----------------
#NOTES:
     dance-double:
     :
     Easy:
     4:
     0.196424,0.266784,0.061566,0.051305,0.000000,134.000000,128.000000,6.000000,5.000000,0.000000,0.000000,0.196424,0.266784,0.061566,0.051305,0.000000,134.000000,128.000000,6.000000,5.000000,0.000000,0.000000:
00000000
00000000
00000000
00000000
,
00000000
00000000
00000000
00000000
,
00000000
00000000
00000000
00000000
,
00000000
00000000
00000000
00000000
,
00000000
00000000
00000000
00000000
,
00000001
00000000
00000100
00000000
,
00001000
00000000
00010000
00000000
,
00000010
00000000
00010000
00000000
,
00011000
00000000
00000000
00000000
,
00010000
01000000
00010000
01000000
,
10000000
00000000
00010000
00000000
,
00100000
00000000
00001000
00000000
,
00010000
00000000
00000000
00000000
,
00001000
00000100
00001000
00000100
,
00000001
00000000
00001000
00000000
,
00000010
00000000
00010000
00000000
,
00001000
00000000
00000000
00000000
,
00020000
00000000
00000000
00030000
,
00001000
00000010
00000001
00000000
,
00000100
00000000
00001000
00000000
,
00010000
00000000
00000000
00000000
,
00002000
00000000
00000000
00003000
,
00010000
00100000
10000000
00000000
,
01000000
00000000
00010000
00000000
,
00001000
00000000
00000000
00000000
,
00000100
00000000
00000001
00000000
,
00001000
00000001
00000100
00000000
,
00000010
00000001
00000100
00000000
,
00001000
00000000
00010000
00000000
,
01000000
00000000
10000000
00000000
,
00010000
10000000
01000000
00000000
,
00100000
10000000
01000000
00000000
,
00020000
00000000
00000000
00030000
,
00011000
00000000
00000010
00000000
,
00001001
00000000
00000100
00000000
,
00000010
00000001
00000001
00000000
,
00000100
00001000
00001000
00000000
,
00011000
00000000
00100000
00000000
,
10010000
00000000
01000000
00000000
,
00100000
00000000
00000000
00000000
,
00000000
00000000
00000000
00000000
,
00001000
00000100
00001000
00000100
,
00000001
00000000
00001000
00000000
,
00000010
00000000
00010000
00000000
,
00001000
00000000
00000000
00000000
,
00010000
01000000
00010000
01000000
,
10000000
00000000
00010000
00000000
,
00100000
00000000
00001000
00000000
,
00010000
00000000
00000000
00000000
,
00001000
00001000
00000100
00000000
,
00000001
00000001
00000010
00000000
,
00000010
00000010
00001000
00001000
,
00010000
00000000
00000000
00000000
,
00010000
00010000
01000000
00000000
,
10000000
10000000
00100000
00000000
,
00100000
00100000
00010000
00010000
,
00001000
00000000
00000000
00000000
,
00020000
00000000
00000000
00030000
,
00001000
00000010
00000001
00000000
,
00000100
00000000
00001000
00000000
,
00010000
00000000
00000000
00000000
,
00002000
00000000
00000000
00003000
,
00010000
00100000
10000000
00000000
,
01000000
00000000
00010000
00000000
,
00001000
00000000
00000000
00000000
,
00000110
00000000
00000000
00000000
,
;

//---------------dance-double - ----------------
#NOTES:
     dance-double:
     :
     Medium:
     8:
     0.372325,0.433525,0.153914,0.184697,0.000000,254.000000,239.000000,15.000000,18.000000,0.000000,0.000000,0.372325,0.433525,0.153914,0.184697,0.000000,254.000000,239.000000,15.000000,18.000000,0.000000,0.000000:
00000000
00000000
00000000
00000000
,
00000000
00000000
00000000
00000000
,
00000000
00000000
00000000
00000000
,
00000000
00000000
00000000
00000000
,
00000000
00000000
00000000
00000000
,
00100000
10000000
01000000
00000000
,
00010000
00000000
00001000
00000000
,
00000010
00000001
00000100
00000000
,
00002002
00000000
00000000
00003003
,
00000002
00000010
00001000
00000103
,
00001000
00000000
00010000
00000000
00100000
10000000
01000000
00000000
,
00100000
00010000
01000000
00000000
00100000
00000000
01000000
00000000
,
10010000
00000000
00000000
00000000
01000000
00010000
01000000
00000000
,
20000000
00100000
00010000
31000000
,
00010000
00000000
00001000
00000000
00000010
00000001
00000100
00000000
,
00000010
00001000
00000100
00000000
00000010
00000000
00000100
00000000
,
00001001
00000000
00000000
00000000
00000100
00001000
00000100
00000000
,
00000002
00000000
00000100
00000103
,
00001000
00010000
00100000
10000000
,
00010000
00100000
00010000
00000000
10000000
00100000
10000000
00000000
,
01010000
00000000
01000000
01000000
,
20000000
00000000
01000000
31000000
,
00010000
00001000
00000010
00000001
,
00001000
00000010
00001000
00000000
00000001
00000010
00000001
00000000
,
00001100
00000000
00000100
00000100
,
00010000
00000010
00001000
00010000
,
00100000
10000000
00010000
01000000
,
10000000
00010000
01000000
00100000
,
01000000
01000000
00100000
00100000
,
00001000
00100000
00010000
00001000
,
00000010
00000001
00001000
00000100
,
00000001
00001000
00000100
00000010
,
00000220
00000000
00000000
00000330
,
00000010
00010000
00001000
00011000
,
00010000
01000000
10000000
10010000
,
00100000
01000000
10000000
01000000
,
00010000
00000000
00100000
01000000
,
00100000
00001000
00010000
00011000
,
00001000
00000100
00000001
00001001
,
00000010
00000010
00000000
00000100
00000100
00000000
00000001
00000001
,
00000000
00000000
00000000
00000000
,
00000002
00000010
00001000
00000103
,
00001000
00000000
00010000
00000000
00100000
10000000
01000000
00000000
,
00100000
00010000
01000000
00000000
00100000
00000000
01000000
00000000
,
10010000
00000000
00000000
00000000
01000000
00010000
01000000
00000000
,
20000000
00100000
00010000
31000000
,
00010000
00000000
00001000
00000000
00000010
00000001
00000100
00000000
,
00000010
00001000
00000100
00000000
00000010
00000000
00000100
00000000
,
00001001
00000000
00000000
00000000
00000100
00001000
00000100
00000000
,
00020000
00000010
00032000
00000010
,
00013000
00000000
01000000
00000000
10000000
00100000
01000000
00000000
,
10000000
01000000
00010000
00000000
00100000
00000000
01000000
00000000
,
00200000
00000000
00010000
01300000
,
00002000
00100000
00023000
00100000
,
00031000
00000000
00000100
00000000
00000001
00000010
00000100
00000000
,
00000001
00000100
00001000
00000000
00000010
00000000
00000100
00000000
,
00000020
00000000
00001000
00000130
,
00000002
00000000
00000100
00000103
,
00001000
00010000
00100000
10000000
,
00010000
00100000
00010000
00000000
10000000
00100000
10000000
00000000
,
01010000
00000000
01000000
01000000
,
20000000
00000000
01000000
31000000
,
00010000
00001000
00000010
00000001
,
00001000
00000010
00001000
00000000
00000001
00000010
00000001
00000000
,
00001100
00000010
00000001
00000100
,
00000110
00000000
00000000
00000000
,
;

//---------------dance-double - ----------------
#NOTES:
     dance-double:
     :
     Hard:
     11:
     0.489593,0.533569,0.184697,0.153914,0.082087,334.000000,316.000000,18.000000,15.000000,0.000000,0.000000,0.489593,0.533569,0.184697,0.153914,0.082087,334.000000,316.000000,18.000000,15.000000,0.000000,0.000000:
00000000
00000000
00000000
00000000
,
00000000
00000000
00000000
00000000
,
00000000
00000000
00000000
00000000
,
00000000
00000000
00000000
00000000
,
00000000
00000000
00000000
00000000
,
00000001
00000010
00000001
00000000
,
00001000
00000010
00001000
00000000
,
00000100
00001000
00010000
00001000
,
00022000
00000000
00000000
00033000
,
10020000
00000000
00000000
00000000
00100000
00000000
00000000
00000000
10000000
00000000
00000000
00000000
01030000
00000000
00000000
00100000
,
01000000
00000000
00000000
00010000
00100000
00000000
01000000
00000000
00010000
00000000
00001000
00000000
00000100
00000000
00000000
00000000
,
00000010
00001000
00000100
00000000
00000010
00000001
00000100
00000000
,
00000010
00010000
00000100
00000010
00001000
00010000
00000100
00000000
,
00002001
00000000
00000000
00000000
00000010
00000000
00000000
00000000
00000001
00000000
00000000
00000000
00003100
00000000
00000000
00000010
,
00000100
00000000
00000000
00001000
00000010
00000000
00000100
00000000
00001000
00000000
00010000
00000000
01000000
00000000
00000000
00000000
,
00100000
00010000
01000000
00000000
00100000
10000000
01000000
00000000
,
00100000
00001000
01000000
00100000
00010000
00001000
01000000
00000000
,
00200000
10000000
00010000
10300000
,
00010000
01010000
00001000
00011000
,
00000010
00000100
00001000
00000000
00000010
00000100
00000001
00000000
,
00001000
00000100
00000100
00000001
00000000
00000100
00000100
00000000
,
00000020
00000001
00001000
00000031
,
00001000
00001100
00010000
00011000
,
00100000
01000000
00010000
00000000
00100000
01000000
10000000
00000000
,
00010000
01000000
01000000
10000000
00000000
01000000
01000000
00000000
,
00010000
00000000
00100000
00000000
10000000
01000000
00010000
00000000
,
00001000
00000000
00000100
00000000
00000001
00000010
00000100
00000000
,
00001000
00000000
00000010
00000000
00010000
00001000
00000100
00000000
,
00000010
00001000
00000100
00000110
,
00001000
00000000
00000010
00000000
00000001
00000100
00001000
00000000
,
00010000
00000000
01000000
00000000
10000000
00100000
01000000
00000000
,
00010000
00000000
00100000
00000000
00001000
00010000
01000000
00000000
,
00200000
00000000
00000000
00000000
01000000
01000000
01300000
00000000
,
10000000
00000000
00000000
00010000
00000000
00000000
00100000
00000000
00001000
00000000
00010000
00000000
00000100
00000000
00000000
00000000
,
00000010
00000000
00000000
00000100
00000000
00000000
00010000
00000000
00001000
00000000
00000100
00000000
00000001
00000000
00000000
00000000
,
00000010
00000001
00000100
00000010
00001000
00000100
00010000
00000000
,
00011000
00000000
00010000
01000000
,
00100000
00000000
00000000
00010000
00000000
00000000
01000000
00000000
00100000
00000000
00010000
00000000
00001000
00000000
00000000
00000000
,
00010000
00000000
00000000
00001000
00000000
00000000
00000010
00000000
00000001
00000000
00001000
00000000
00000010
00000000
00000000
00000000
,
00000100
00000001
00000000
00001000
00000100
00000000
00000010
00000100
,
00000000
00000000
00000000
00000000
,
00002001
00000000
00000000
00000000
00000010
00000000
00000000
00000000
00000001
00000000
00000000
00000000
00003100
00000000
00000000
00000010
,
00000100
00000000
00000000
00001000
00000010
00000000
00000100
00000000
00001000
00000000
00010000
00000000
01000000
00000000
00000000
00000000
,
00100000
00010000
01000000
00000000
00100000
10000000
01000000
00000000
,
00100000
00001000
01000000
00100000
00010000
00001000
01000000
00000000
,
10020000
00000000
00000000
00000000
00100000
00000000
00000000
00000000
10000000
00000000
00000000
00000000
01030000
00000000
00000000
00100000
,
01000000
00000000
00000000
00010000
00100000
00000000
01000000
00000000
00010000
00000000
00001000
00000000
00000100
00000000
00000000
00000000
,
00000010
00001000
00000100
00000000
00000010
00000001
00000100
00000000
,
00000010
00010000
00000100
00000010
00001000
00010000
00000100
00000000
,
00000120
00000000
00000000
00000000
00000001
00000000
00000000
00000000
00001030
00000000
00000000
00000000
00010000
00000000
00000000
00010000
,
01000000
00000000
00000000
01000000
10000000
00000000
00100000
00000000
01000000
00000000
00010000
00000000
10000000
00000000
00000000
00000000
,
01000000
00001000
00010000
00000010
00010000
00001000
01000000
00000000
,
00200000
00000000
00000000
00000000
01000000
01000000
01300000
00000000
,
01200000
00000000
00000000
00000000
10000000
00000000
00000000
00000000
00310000
00000000
00000000
00000000
00001000
00000000
00000000
00001000
,
00000100
00000000
00000000
00000100
00000001
00000000
00000010
00000000
00000100
00000000
00001000
00000000
00000001
00000000
00000000
00000000
,
00000100
00010000
00001000
00100000
00001000
00010000
00000100
00000000
,
00000020
00000000
00000000
00000000
00000100
00000100
00000130
00000000
,
00000020
00000001
00001000
00000031
,
00001000
00001100
00010000
00011000
,
00100000
01000000
00010000
00000000
00100000
01000000
10000000
00000000
,
00010000
01000000
01000000
10000000
00000000
01000000
01000000
00000000
,
00200000
10000000
00010000
10300000
,
00010000
01010000
00001000
00011000
,
00000010
00000100
00001000
00000000
00000010
00000100
00000001
00000000
,
00001000
00000100
00000100
00000001
00000000
00000100
00000100
00000000
,
00001001
00000000
00000000
00000000
,
;

//---------------dance-single - ----------------
#NOTES:
     dance-single:
     :
     Challenge:
     14:
     0.734390,0.739300,0.164175,0.143653,0.415568,501.000000,485.000000,16.000000,14.000000,0.000000,0.000000,0.734390,0.739300,0.164175,0.143653,0.415568,501.000000,485.000000,16.000000,14.000000,0.000000,0.000000:
// measure 0
0000
0000
0000
0000
,  // measure 1
0000
0000
0000
0000
,  // measure 2
0000
0000
0000
0000
,  // measure 3
0000
0000
0000
0000
,  // measure 4
0000
0000
0000
0000
,  // measure 5
0001
0010
1000
0010
0001
0100
0010
2000
,  // measure 6
0000
3001
1000
0001
0100
0010
1000
0010
,  // measure 7
0100
0001
0010
0100
1000
0001
0100
1000
,  // measure 8
0100
0001
0010
0100
1000
0000
0001
1000
,  // measure 9
1001
0000
0000
0001
0010
0000
0000
0010
1000
0000
0000
1000
0010
0000
0000
0010
,  // measure 10
0001
0000
0100
0000
0001
0000
1000
0000
0010
0000
0100
0000
0001
0000
0010
0001
,  // measure 11
0010
0100
1000
0010
0001
0010
1000
0000
,  // measure 12
0100
0010
0001
0100
1000
0100
0001
0010
,  // measure 13
0100
0000
0000
0100
1000
0000
0000
1000
0001
0000
0000
0001
0100
0000
0010
0100
,  // measure 14
0010
0000
0000
0000
1000
0000
0001
0000
0010
0000
0001
0100
0001
0000
1000
0000
,  // measure 15
0010
0100
0010
1000
0001
0010
0001
0100
,  // measure 16
0010
0000
0010
0000
1000
0000
1000
0000
0001
0010
0001
0000
0100
0000
0010
0000
,  // measure 17
1000
0000
0000
0000
1000
0001
1000
0000
0001
0000
0010
0000
1000
0000
0010
0000
,  // measure 18
0001
0000
0000
0000
0101
0000
0000
0000
1000
0010
1000
0000
0001
0000
0100
0000
,  // measure 19
0001
0000
0000
0000
0011
0000
0000
0000
0010
0100
0010
0000
0100
0000
1000
0000
,  // measure 20
0001
0100
0000
0100
0010
0000
1000
0000
0001
1000
0000
1000
0100
0000
0010
0000
,  // measure 21
0002
0000
0000
0000
1003
0010
1000
0000
0001
0100
0001
0000
1000
0001
1000
0000
,  // measure 22
0010
0000
0000
0010
0100
0000
0001
0000
1000
0001
1000
0000
0100
0000
0001
0000
,  // measure 23
0100
0000
0000
0100
1000
0000
0010
0000
0100
0001
0100
0000
0001
0000
0010
0000
,  // measure 24
2000
0000
0000
0000
3010
0001
0010
0000
0001
0100
0001
0100
0001
0000
1000
0000
,  // measure 25
0010
0100
0010
0000
2000
0000
0000
0000
3001
0000
0010
0000
1000
0000
0010
0000
,  // measure 26
0001
0100
0010
1000
0001
0010
0001
0100
,  // measure 27
0010
0100
0001
1000
0001
0010
0002
0000
,  // measure 28
0103
0010
0100
0000
0001
0000
1000
0000
0001
0000
0010
0000
0001
0000
0000
0000
,  // measure 29
1000
0100
1000
0000
0010
0000
0100
0000
0001
0000
0010
0000
0001
0000
0000
0000
,  // measure 30
1000
0010
0001
0020
0000
1030
0100
0001
,  // measure 31
0100
1000
0010
0200
0000
0301
0010
0001
,  // measure 32
1000
0000
0010
0000
1000
0000
0100
0000
0010
0001
0010
0001
0010
0001
0010
0000
,  // measure 33
0001
0000
0000
1001
0000
0000
1000
0000
0010
0000
0001
0000
0010
0000
0000
0000
,  // measure 34
1000
0000
0000
1100
0000
0000
0100
0000
0001
0000
0100
0000
1000
0000
0001
0000
,  // measure 35
0010
0001
0100
0020
0000
0130
0001
0010
,  // measure 36
1000
0010
0001
0100
0010
1000
0010
0000
,  // measure 37
0100
0000
0000
0001
0000
0000
1000
0000
0001
0000
1000
0000
0010
0000
0000
0000
,  // measure 38
0100
0000
0000
0100
0000
0000
0001
0000
1000
0000
0001
0000
0101
0000
0000
0000
,  // measure 39
0110
0110
0000
1010
1010
0000
1100
1100
,  // measure 40
0000
0000
0001
0010
0001
0000
0000
0000
0100
0000
0010
0000
0010
0000
0100
0000
,  // measure 41
1001
0000
0000
1000
0010
0000
0000
0010
0100
0000
0000
0100
0001
0000
0000
0001
,  // measure 42
0010
0000
0000
0010
1000
0000
0010
0000
0001
0000
0100
0000
0010
0000
1000
0100
,  // measure 43
1000
0001
0100
0010
0100
0001
1000
0001
,  // measure 44
0010
1000
0010
0001
0100
0010
1000
0100
,  // measure 45
0010
0000
0000
0010
0001
0000
0000
0001
0100
0000
0000
0100
1000
0000
0000
1000
,  // measure 46
0001
0000
0000
0001
0010
0000
1000
0000
0010
0000
0001
0000
0100
0000
0000
0100
,  // measure 47
0010
1000
0010
0100
0001
0010
0100
0000
,  // measure 48
1000
0000
0001
0000
0010
0000
0001
0000
0100
0010
0100
0000
0001
0000
1000
0000
,  // measure 49
1002
0000
0000
0000
1003
0000
0010
0000
0120
0000
0000
0000
1030
0000
0000
1000
,  // measure 50
0001
0000
0000
0001
0100
0000
0010
0000
1000
0000
0010
0000
0100
0000
0000
0000
,  // measure 51
0001
1000
0010
1000
0100
1000
0020
0000
,  // measure 52
0130
0001
0100
0000
0001
0000
0010
0000
0100
0000
1000
0000
0001
0000
0010
0000
,  // measure 53
0001
0000
0000
0001
1000
0000
0000
1000
0100
0000
0000
0100
0010
0000
0000
0010
,  // measure 54
0001
1000
0100
1000
0010
0100
0001
0000
,  // measure 55
0010
0001
0010
0000
1000
0000
0010
0000
0001
0000
0100
0000
0010
0000
0000
0000
,  // measure 56
1000
0000
0100
0000
0010
0000
0001
0000
1000
0100
1000
0000
0001
0010
0001
0000
,  // measure 57
0200
0000
0000
0000
0310
0000
1000
0000
0001
1000
0001
0000
0100
0000
0010
0000
,  // measure 58
0100
0001
0000
0001
1000
0000
0010
0000
1000
0100
1000
0000
0010
0100
0010
0000
,  // measure 59
1000
0000
0000
1000
0001
0000
0010
0000
0001
0100
0001
0000
0100
0001
0100
0000
,  // measure 60
0010
1000
0000
0001
1000
0000
0010
0000
0100
0001
0000
1000
0001
0000
0100
0000
,  // measure 61
0010
0000
1000
0000
0010
0000
0100
0000
0001
1000
0000
0001
1000
0000
0100
0000
,  // measure 62
0010
0001
0000
0010
0001
0000
0100
0000
0010
0000
1000
0000
0010
0000
0100
0000
,  // measure 63
0001
1000
0000
0000
1000
0000
0010
0000
0100
0001
0100
0000
0001
0000
0010
0000
,  // measure 64
0100
0000
0100
0000
1000
0000
1000
0000
0001
0000
0001
0000
0010
0100
0010
0000
,  // measure 65
2002
0000
3003
0000
;
