#TITLE:Poseidon (kors k mix);
#SUBTITLE:;
#ARTIST:NAOKI underground;
#TITLETRANSLIT:;
#SUBTITLETRANSLIT:;
#ARTISTTRANSLIT:;
#GENRE:;
#CREDIT:;
#BANNER:Poseidon (kors k mix).png;
#BACKGROUND:Poseidon (kors k mix)-bg.png;
#LYRICSPATH:;
#CDTITLE:;
#MUSIC:Poseidon (kors k mix).ogg;
#OFFSET:0.000000;
#SAMPLESTART:66.309998;
#SAMPLELENGTH:15.000000;
#SELECTABLE:YES;
#DISPLAYBPM:152.000000;
#BPMS:0.000000=152.542007
,4.000000=151.957001
,70.000000=152.000000
,127.000000=155.171997
,128.000000=150.000000
,128.500000=152.026993
,131.000000=75.629997
,132.000000=152.009003
;
#STOPS:70.000000=0.393000,
127.000000=0.200000,
127.500000=0.200000,
128.000000=0.200000,
128.500000=0.193000
;
#BGCHANGES:0.000=Poseidon (kors k mix).avi=1.000=0=0=0=StretchNoLoop====,
99999=-nosongbg-=1.000=0=0=0 // don't automatically add -songbackground-
;
#KEYSOUNDS:;
#ATTACKS:;

//---------------dance-single - ----------------
#NOTES:
     dance-single:
     :
     Beginner:
     2:
     0.119741,0.185797,0.018626,0.000000,0.000000,90.000000,88.000000,2.000000,0.000000,0.000000,0.000000,0.119741,0.185797,0.018626,0.000000,0.000000,90.000000,88.000000,2.000000,0.000000,0.000000,0.000000:
0000
0000
0000
0000
,
0000
0000
0000
0000
,
0000
0000
0000
0000
,
0000
0000
0000
0000
,
0000
0000
0000
0000
,
0000
0000
0000
0000
,
0100
0000
0000
0000
,
0100
0000
0000
0000
,
0010
0000
0000
0000
,
0010
0000
0000
0000
,
1000
0000
1000
0000
,
1000
0000
0000
0000
,
0001
0000
0001
0000
,
0001
0000
0000
0000
,
0100
0000
0100
0000
,
0100
0000
0000
0000
,
0010
0000
0010
0000
,
0010
0000
0000
0001
,
0000
0001
0000
0001
,
0000
0000
0000
1000
,
0000
1000
0000
1000
,
0000
0000
0000
0010
,
0000
0000
0000
0100
,
0000
0000
0000
0010
,
0000
0010
0000
0010
,
0010
0010
0000
0001
,
0000
0001
0000
1000
,
0000
1000
0000
0010
,
0000
0010
0000
0010
,
0000
0000
0000
0001
,
0000
0001
0000
1000
,
0000
1000
0000
1001
,
0000
0000
0000
0000
,
0001
0000
0001
0000
,
1000
0000
1000
0000
,
0001
0000
0001
0000
,
1000
0000
1000
0000
,
0010
0000
0010
0000
,
0100
0000
0100
0000
,
0010
0000
0010
0000
,
1001
0000
0000
0000
,
0100
0000
0001
0000
,
0100
0000
0000
0000
,
0100
0000
1000
0000
,
0100
0000
0000
0000
,
0010
0000
0001
0000
,
0010
0000
0000
0000
,
0010
0000
1000
0000
,
0010
0000
0000
0000
,
0100
0000
0100
0000
,
0001
0000
0001
0000
,
1000
0000
1000
0000
,
0100
0100
0100
0000
,
0001
0000
0001
0000
,
0010
0000
0010
0000
,
1000
0000
1000
0000
,
0010
0010
0010
0010
,
0010
0000
0000
0000
,
;

//---------------dance-single - ----------------
#NOTES:
     dance-single:
     :
     Easy:
     5:
     0.235490,0.265425,0.176950,0.130384,0.000000,177.000000,158.000000,19.000000,14.000000,0.000000,0.000000,0.235490,0.265425,0.176950,0.130384,0.000000,177.000000,158.000000,19.000000,14.000000,0.000000,0.000000:
0000
0000
0000
0000
,
0000
0000
0000
0000
,
0000
0000
0000
0000
,
0000
0000
0000
0000
,
0000
0000
0000
0000
,
0000
0000
0000
0000
,
1001
0001
0010
1000
,
0001
0010
1000
0000
,
0001
1000
0100
0001
,
1000
0100
0001
0000
,
1001
1000
0100
0001
,
1000
0010
0001
0000
,
1000
0001
0100
1000
,
0001
0010
1000
0000
,
1000
1000
0001
0010
,
1000
1000
0100
0001
,
0010
0010
1000
0001
,
1001
0000
1001
0200
,
0000
0000
0300
0002
,
0000
0000
0003
2000
,
0000
0000
3000
0020
,
0000
0200
0330
0002
,
0000
0100
0003
2000
,
0000
0010
3000
0200
,
0000
0320
0000
0230
,
0000
0000
0300
1000
,
1000
1000
1000
0001
,
0001
0001
0001
0010
,
0010
0010
0010
0100
,
0100
0220
0330
1000
,
1000
0001
0001
0010
,
0010
0100
0100
0010
,
0000
0010
0000
0100
,
0010
0010
1001
0000
,
0100
0100
1001
0000
,
0001
0100
1000
0100
,
0001
1000
0001
0000
,
0010
0010
1001
0000
,
0100
0100
1001
0000
,
1000
0100
0001
0100
,
0010
0010
0000
0000
,
1001
0000
1001
0000
,
0001
0010
0100
1000
,
1001
0000
1001
0000
,
0010
0010
0100
0100
,
0110
0000
0110
0000
,
1000
0001
1000
0001
,
0110
0000
0110
0000
,
0020
0000
0100
0130
,
0001
1000
0001
1000
,
0010
0100
0010
0100
,
0001
1000
0010
0100
,
1000
0100
0001
0100
,
0001
0100
0001
0010
,
1000
0100
1000
0010
,
0200
0000
0000
0300
,
0010
0010
0010
0110
,
1001
0000
0000
0000
,
;

//---------------dance-single - ----------------
#NOTES:
     dance-single:
     :
     Medium:
     9:
     0.400466,0.451222,0.437718,0.149010,0.032596,301.000000,254.000000,47.000000,16.000000,0.000000,0.000000,0.400466,0.451222,0.437718,0.149010,0.032596,301.000000,254.000000,47.000000,16.000000,0.000000,0.000000:
0000
0000
0000
0000
,
0000
0000
0000
0000
,
0000
0000
0000
0000
,
0000
0000
0000
0000
,
0000
0000
0000
0000
,
0000
0000
0000
0000
,
0010
0100
0010
0000
0001
0000
1000
0000
,
0100
0010
0100
0000
0001
0000
1000
0000
,
0001
0100
1000
0000
1000
0100
0001
0000
,
0100
0011
1100
0020
,
0130
0001
1000
0000
0001
0000
0010
0000
,
0100
1000
0010
0000
0100
0000
1000
0000
,
0001
0010
0100
0000
1000
0000
0010
0000
,
0100
0010
1000
0000
0110
0000
0001
1000
,
0100
0010
0100
0000
0001
0000
1100
0000
,
0010
0001
0100
0000
1000
0000
0101
0000
,
0001
0010
1000
0000
1000
0100
0001
0000
,
1001
0110
1001
0010
,
0010
0010
0010
0010
,
0010
0100
0100
0001
,
0001
0001
0001
1000
,
1000
0000
0000
0000
0002
0000
0000
0000
0000
0000
0000
0000
0103
0000
0000
0100
,
0000
0000
0000
0000
0100
0000
0000
0100
0000
0000
0000
0000
0010
0000
0000
0010
,
0000
0000
0000
0000
0010
0000
0000
0010
0000
0000
0000
0000
1000
0000
0000
1000
,
0000
0000
0000
0000
0001
0000
0000
0001
0000
0000
0000
0000
1000
0000
0000
0001
,
0000
1000
2002
0000
3003
0000
1001
0000
,
1001
1100
0010
1001
,
1001
0101
0010
1001
,
0100
1001
0010
1100
,
0101
1002
0103
1010
,
1001
1100
1001
0011
,
1001
0000
0101
0000
0011
0000
0100
0100
,
0100
0100
0001
1000
0001
0000
2002
3003
,
0100
0000
1000
0000
0010
0001
0100
0000
,
0010
0000
0001
0000
0100
1000
0010
0000
,
0100
0000
0001
0000
0010
1000
0100
0000
,
0001
0010
1000
0000
1000
0100
0001
0000
,
1100
0000
0101
0000
0001
0100
0001
0000
,
0010
0000
1100
0000
0010
1000
0100
0000
,
0001
0100
0010
1000
0010
0000
1001
0000
,
2010
0000
3001
0001
0000
0100
0010
0010
,
0200
0000
0301
1000
0200
0000
1300
0001
,
0200
0000
0310
1000
0200
0000
0310
0001
,
0010
1100
0001
1000
,
0001
0100
0010
0000
0001
0010
1000
0000
,
1001
0000
0100
0010
0002
0000
0013
0100
,
0002
0000
0103
0010
2000
0000
3010
0100
,
1000
0000
0011
0000
1000
0100
0001
0000
,
0100
0010
0001
0100
1000
0000
1001
0000
,
1100
0101
1100
0101
,
0010
0000
1000
0000
0001
0100
1000
0000
,
0010
1100
0100
0011
,
1000
0001
1000
0001
0100
0010
0100
0000
,
1000
1001
0100
0110
,
0001
0100
0010
0000
1000
0100
0010
0000
,
1002
0100
1000
1003
,
0001
0010
0100
1000
0001
0010
0100
1000
,
0010
0000
0000
0000
,
;

//---------------dance-single - ----------------
#NOTES:
     dance-single:
     :
     Hard:
     14:
     0.577416,0.637020,0.381839,0.195576,0.349243,434.000000,393.000000,41.000000,21.000000,0.000000,0.000000,0.577416,0.637020,0.381839,0.195576,0.349243,434.000000,393.000000,41.000000,21.000000,0.000000,0.000000:
// measure 0
0000
0000
0000
0000
,  // measure 1
0000
0000
0000
0000
,  // measure 2
0000
0000
0000
0000
,  // measure 3
0000
0000
0000
0000
,  // measure 4
0000
0000
0000
0000
,  // measure 5
0000
0000
0000
0000
,  // measure 6
0001
0000
1000
0000
0001
0000
1000
0100
0000
0001
0100
0000
1000
0000
0001
0000
,  // measure 7
0100
0000
1000
0000
0100
0000
0001
0010
0000
1000
0010
0000
0001
0000
1000
0000
,  // measure 8
0001
0000
0010
0000
0100
0000
0010
0001
0000
1000
0100
0000
1000
0000
0001
0000
,  // measure 9
0100
0000
0010
0000
1000
0000
0001
0100
0000
0010
1000
0000
0020
0000
0230
0000
,  // measure 10
0301
0000
1000
0000
0100
0000
0010
0001
0000
0010
0100
0000
0010
0000
0100
0000
,  // measure 11
1000
0000
0001
0000
0010
0000
0100
1000
0000
0001
0100
0000
0010
0000
0100
0000
,  // measure 12
0001
0000
0010
0000
0100
0000
1000
0010
0000
0100
0010
0000
0100
0000
0010
0000
,  // measure 13
1000
0001
1000
0000
0100
0000
0010
0000
0001
0000
1000
0000
1100
0000
0000
0000
,  // measure 14
0011
0000
0001
0000
0100
0000
0010
1000
0000
0100
0010
0000
0001
0000
1000
0000
,  // measure 15
0100
0000
1000
0000
0010
0000
0100
0001
0000
0010
0100
0000
1000
0000
0001
0000
,  // measure 16
0100
0000
0001
0000
0010
0000
0100
1000
0000
0010
0100
0000
0001
0000
1000
0000
,  // measure 17
1001
0000
0000
0001
1000
0100
0010
0000
0220
0330
0000
0000
0001
0000
0000
0000
,  // measure 18
0001
0100
0100
0001
,  // measure 19
0001
0010
0010
0100
,  // measure 20
0100
1000
1000
0001
,  // measure 21
1000
0000
0000
0000
2002
0000
0000
0000
3003
0000
0000
0000
1010
0000
0000
0010
,  // measure 22
0000
0000
0010
0000
0100
0000
0000
0000
0100
0000
0000
0000
1000
0000
0000
0010
,  // measure 23
0000
0000
0001
0000
0010
0000
0000
0000
0100
0000
0000
0000
1001
0000
0000
0010
,  // measure 24
1000
0000
0010
0000
0100
0000
0000
0000
0101
0000
0000
0000
1010
0000
0000
0010
,  // measure 25
1000
0000
0001
0000
1001
0000
0000
0000
0110
0000
0000
0000
1001
0000
0000
0001
,  // measure 26
1000
0000
0001
0000
1010
0000
0000
0010
1000
0000
0010
0000
1001
0000
0000
0001
,  // measure 27
1000
0000
0001
0000
1100
0000
0000
0100
1000
0000
0100
0000
1001
0000
0000
0001
,  // measure 28
1000
0000
0001
0000
0101
0000
0000
0001
0100
0000
0001
0000
0011
0000
0000
0001
,  // measure 29
0010
0000
0001
0000
1002
0000
0000
0000
1003
0000
0000
0000
1001
0000
0000
1000
,  // measure 30
0001
0000
1000
0000
0011
0000
0000
0010
0001
0000
0010
0000
1001
0000
0000
1000
,  // measure 31
0001
0000
1000
0000
0101
0000
0000
0100
0001
0000
0100
0000
1001
0000
1001
0000
,  // measure 32
1100
0000
0101
0000
0001
0000
0010
0000
0100
0000
1000
0000
2001
0000
0010
0010
,  // measure 33
3100
0000
0010
0000
0001
0100
0001
0000
0010
0000
0100
0000
1000
0000
0000
0000
,  // measure 34
0010
1000
0010
0000
0100
0000
0001
0000
0100
0010
0100
0000
0002
0000
0000
0000
,  // measure 35
1003
0000
0100
0000
1000
0001
0000
0010
0100
0000
0010
0000
0001
1000
0000
0010
,  // measure 36
0100
0000
0001
0000
1000
0100
1000
0000
0010
0000
0100
0000
0100
0000
0000
0000
,  // measure 37
0001
0000
1000
0000
0010
0100
0010
0000
1000
0000
0100
0000
0010
0000
0000
0000
,  // measure 38
0001
1000
0001
0000
0010
0000
0010
0000
1000
0001
1000
0000
0020
0000
0000
0000
,  // measure 39
0130
0000
0001
0000
1000
0001
0000
0010
0001
0000
1000
0000
1001
0000
0000
0000
,  // measure 40
1010
0010
0011
0010
0000
1000
0100
0001
,  // measure 41
1000
0000
0000
0010
0200
0000
0001
0000
0301
0000
0000
1000
0200
0000
0010
0000
,  // measure 42
0310
0000
0000
0001
0200
0000
1000
0000
1300
0000
0100
0000
0001
0000
1000
0000
,  // measure 43
0100
0000
0000
1000
0020
0000
0100
0000
0130
0000
0000
0001
0020
0000
0100
0000
,  // measure 44
0130
0000
0000
0010
0100
0000
0010
0000
0001
0000
0100
0000
0100
0000
0000
0000
,  // measure 45
1001
0000
0000
0010
0002
0000
1000
0000
1003
0000
0000
0010
0200
0000
0001
0000
,  // measure 46
0301
0010
0100
0010
0001
1000
1001
0000
,  // measure 47
1010
0000
0000
0100
2000
0000
0001
0000
3001
0000
0000
0100
0020
0000
1000
0000
,  // measure 48
1030
0000
1100
0000
0001
1000
0110
0000
,  // measure 49
0001
0000
0010
0100
1000
0000
0001
0000
0010
0000
0001
0000
1100
0000
0000
0000
,  // measure 50
0010
0000
1000
0001
0100
0000
0010
0000
1000
0000
0010
0000
0101
0000
0000
0000
,  // measure 51
1000
0000
0001
0010
0100
0000
0000
0000
0001
0000
1000
0100
0010
0000
0000
0000
,  // measure 52
0100
0000
0010
0001
1000
0000
0100
0000
1000
0000
0001
0000
0110
0000
0000
0000
,  // measure 53
1010
0000
0000
0010
0100
0000
0010
0100
0001
0000
0000
1000
0100
0000
1000
0100
,  // measure 54
0010
0000
0000
0001
0100
0000
0001
0100
0010
0000
0000
0010
0100
0000
0010
0000
,  // measure 55
2000
0001
0001
3001
0020
0100
0100
0130
,  // measure 56
1000
0000
1000
0000
0100
0000
0100
0000
0010
0000
0010
0001
1000
0000
0001
0000
,  // measure 57
1001
0000
0000
0000
;

//---------------dance-double - ----------------
#NOTES:
     dance-double:
     :
     Easy:
     4:
     0.167637,0.265425,0.093132,0.111758,0.000000,126.000000,116.000000,10.000000,12.000000,0.000000,0.000000,0.167637,0.265425,0.093132,0.111758,0.000000,126.000000,116.000000,10.000000,12.000000,0.000000,0.000000:
00000000
00000000
00000000
00000000
,
00000000
00000000
00000000
00000000
,
00000000
00000000
00000000
00000000
,
00000000
00000000
00000000
00000000
,
00000000
00000000
00000000
00000000
,
00000000
00000000
00000000
00000000
,
01000000
00000000
00010000
00000000
,
00100000
00000000
00001000
00000000
,
00000010
00000000
00000100
00000000
,
00010000
00000000
00011000
00000000
,
00100000
00000000
01000000
00000000
,
00010000
00000000
00100000
00000000
,
00001000
00000000
00000100
00000000
,
00000010
00000000
00001000
00000000
,
00000100
00000000
00010000
00000000
,
00100000
00000000
01000000
00000000
,
00001000
00000000
00010000
00000000
,
00011000
00000000
00011000
00020000
,
00000000
00030000
00000000
02000000
,
00000000
03000000
00000000
20000000
,
00000000
30000000
00000000
00020000
,
00000000
00030000
00000000
00000020
,
00000000
00000030
00000000
00000002
,
00000000
00000003
00000000
00002000
,
00000000
00003000
00000000
00200000
,
00000000
00300000
00000000
01000000
,
00000000
01000000
00000000
10000000
,
00000000
10000000
00000000
00100000
,
00000000
00100000
00000000
00001000
,
00000000
00001000
00000000
00000010
,
00000000
00000010
00000000
00000001
,
00000000
00000001
00000000
00000100
,
00001000
00010000
00000000
00011000
,
00001000
00000000
00010000
00000000
,
00100000
00000000
01000000
00000000
,
00010000
00010000
00010000
00000000
,
10000000
01000000
00010000
00000000
,
00001000
00000000
00001000
00000000
,
00000100
00000000
00000100
00000000
,
00000010
00000010
00000010
00000000
,
00002002
00000000
00003003
00000000
,
00000100
00000100
00000001
00000000
,
00000010
00000010
00000100
00000000
,
00010000
00010000
00001000
00000000
,
01000000
01000000
10000000
00000000
,
00010000
00010000
10000000
00000000
,
00100000
00100000
00001000
00000000
,
00010000
00010000
00000100
00000000
,
00000010
00000010
00001001
00000000
,
00000010
00001001
00000000
00000100
,
00010000
00001000
00000000
00100000
,
01000000
01100000
00000000
10000000
,
00010000
01000000
00000000
00001000
,
00010000
00010000
00001000
00001000
,
00000010
00000010
00000100
00000100
,
00022000
00000000
00000000
00033000
,
00001000
00010000
00100000
01000000
,
10010000
00000000
00000000
00000000
,
;

//---------------dance-double - ----------------
#NOTES:
     dance-double:
     :
     Medium:
     9:
     0.372526,0.477765,0.419092,0.139697,0.000000,280.000000,235.000000,45.000000,15.000000,0.000000,0.000000,0.372526,0.477765,0.419092,0.139697,0.000000,280.000000,235.000000,45.000000,15.000000,0.000000,0.000000:
00000000
00000000
00000000
00000000
,
00000000
00000000
00000000
00000000
,
00000000
00000000
00000000
00000000
,
00000000
00000000
00000000
00000000
,
00000000
00000000
00000000
00000000
,
00000000
00000000
00000000
00000000
,
00001000
00000000
00010000
00000000
00001000
00100000
00000000
00010000
,
01000000
00000000
00100000
00000000
10000000
01000000
00000000
10000000
,
00010000
00000000
01000000
00000000
00010000
00100000
00000000
00001000
,
00010000
00001000
00010000
00021000
,
00030100
00000010
00000001
00001100
,
00000001
00000000
00001000
00000000
00000010
00000100
00000010
00000000
,
00001000
00000001
00000100
00001000
,
00010000
00000000
00001000
00000000
00100000
00010000
00100000
00000000
,
01100000
01000000
10000000
00010000
,
00100000
00000000
00001000
00000000
00010000
00000100
00010000
00000000
,
00000020
00000100
00001000
00000130
,
00001001
00000110
00010000
00000001
,
00000001
00000001
00000001
00000100
,
00000100
00000100
00000100
00010000
,
00010000
00010000
00010000
00100000
,
00100000
02200000
03300000
10000000
,
10000000
01000000
00010000
00001000
,
00001000
00000010
00000001
00000100
,
00000100
00001000
00010000
00101000
,
00011000
00020200
00030300
00000110
,
00000110
00000011
00000011
00001100
,
00001100
00011000
00011000
00110000
,
00110000
11000000
11000000
10100000
,
01010000
00022000
00033000
00010010
,
00000110
00000011
00000101
00001010
,
00001100
00000000
00011000
00000000
00110000
00000000
10010000
01000000
,
00100000
00010000
10000000
00000000
00100000
00000000
00021000
00000000
,
00030100
00000000
00000100
00000000
00000010
00000100
00001000
00000000
,
00000001
00000000
00001000
00000000
00000100
00010000
00001000
00000000
,
00100000
00010000
00000000
00010000
10000000
00010000
00000000
10000000
,
01000000
00110000
00001000
00010000
,
00000010
00000000
00000010
00000000
00000100
00000010
00001000
00000000
,
00000001
00000000
00001000
00000000
00000010
00010000
00001000
00000000
,
01000000
00010000
00000000
00010000
10000000
00010000
10010000
00000000
,
10000000
01000000
00100000
00010000
00000000
01000000
00010000
00001000
,
00010000
00000000
00000100
00000000
00000010
00000001
00000100
00000000
,
00001000
00000000
00100000
00000000
00010000
01000000
10000000
00000000
,
01000000
00000000
00010000
00000000
00100000
01000000
00010000
00000000
,
00001000
00010000
00001000
00010000
00000100
00000000
00000000
00000000
,
00001000
00000000
00000001
00000000
00000100
00010000
00001000
00000000
,
00100000
00000000
01000000
00000000
10000000
01000000
00010000
00000000
,
00001000
00000000
00100000
00000000
00010000
10000000
01000000
00000000
,
11000000
00110000
00011000
00000000
,
00000100
00000012
00001000
00000103
,
00001000
00020100
00001000
00130000
,
10000000
02100000
10000000
03010000
,
00001000
00010200
00001000
00000310
,
00000001
00000100
00000001
00000000
00001200
00000000
00010300
00000000
,
00001000
00100000
00010000
00000000
12000000
00000000
03100000
00000000
,
00010000
10000000
00010000
00000000
00010000
00001000
00010000
00000000
,
10000000
01000000
00100000
00010000
10000000
01000000
00100000
00010000
,
00001000
00000000
00000000
00000000
,
;

//---------------dance-double - ----------------
#NOTES:
     dance-double:
     :
     Hard:
     13:
     0.536172,0.637020,0.279395,0.111758,0.288708,403.000000,373.000000,30.000000,12.000000,0.000000,0.000000,0.536172,0.637020,0.279395,0.111758,0.288708,403.000000,373.000000,30.000000,12.000000,0.000000,0.000000:
00000000
00000000
00000000
00000000
,
00000000
00000000
00000000
00000000
,
00000000
00000000
00000000
00000000
,
00000000
00000000
00000000
00000000
,
00000000
00000000
00000000
00000000
,
00000000
00000000
00000000
00000000
,
00000010
00000000
00001000
00000000
00000001
00000000
00000100
00000010
00000000
00001000
00000100
00000000
00010000
00000000
00001000
00000000
,
00100000
00000000
00010000
00000000
10000000
00000000
00100000
01000000
00000000
00010000
10000000
00000000
00100000
00000000
00000000
00000000
,
00100000
00000000
10000000
00000000
00010000
00000000
00100000
00010000
00000000
10000000
01000000
00000000
00010000
00000000
00001000
00000000
,
00100000
00000000
00001000
00000000
00010000
00000000
00000100
00001000
00000000
00000010
00000100
00000000
00000002
00000000
00002003
00000000
,
00003001
00000000
00001000
00000000
00000010
00000000
00010000
00001000
00000000
01000000
00010000
00000000
10000000
00000000
00100000
00000000
,
10000000
00000000
01000000
00000000
00100000
00000000
00001000
00010000
00000000
00000100
00001000
00000000
00000001
00000000
00000000
00000000
,
00000010
00000000
00000100
00000000
00010000
00000000
00001000
00010000
00000000
00000010
00000100
00000000
00000001
00000000
00000001
00000000
,
00000010
00000001
00000010
00000000
00000100
00000000
00001000
00000100
00000000
00010000
00001000
00000000
00100000
00000000
00000000
00000000
,
00001000
00000000
00010000
00000000
01000000
00000000
00100000
00010000
00000000
10000000
01000000
00000000
00010000
00000000
00001000
00000000
,
00000010
00000000
00000001
00000000
00001000
00000000
00000001
00000100
00000000
00000010
00001000
00000000
00000100
00000000
00000000
00000000
,
00010000
00000000
00001000
00000000
00100000
00000000
00001000
01000000
00000000
00010000
00100000
00000000
00001000
00000000
00010000
00000000
,
00011000
00000000
00000000
00000100
00001000
00000100
00000010
00000000
00001001
00000000
00000000
00000000
00000010
00000000
00000000
00000000
,
00000010
00000100
00000100
00010000
,
00010000
00001000
00001000
00000001
,
00000001
00000010
00000010
00001000
,
00001000
00022000
00033000
00100000
,
00100000
10000000
10000000
00010000
,
00010000
01000000
01000000
00001000
,
00001000
00010000
00010000
00010100
,
00011000
00000000
00000000
00000000
01001000
00000000
00000000
00000000
00000000
00000000
00000000
00000000
10100000
00000000
00000000
00100000
,
10000000
00000000
00100000
00000000
01000000
00000000
00000000
00010000
01000000
00000000
00010000
00000000
01001000
00000000
00000000
00001000
,
00010000
00000000
00001000
00000000
00010000
00000000
00000000
00000100
00010000
00000000
00000100
00000000
00001100
00000000
00000000
00000001
,
00001000
00000000
00000001
00000000
00001000
00000000
00000000
00000010
00000100
00000000
00000010
00000000
00000110
00000000
00000000
00000001
,
00000100
00000000
00000001
00000000
00002002
00000000
00000000
00000000
00003003
00000000
00000000
00000000
00000011
00000000
00000000
00000010
,
00000001
00000000
00000100
00000000
00000101
00000000
00000000
00000100
00000010
00000000
00001000
00000000
00001010
00000000
00000000
00010000
,
00000010
00000000
00010000
00000000
00011000
00000000
00000000
00010000
00001000
00000000
00010000
00000000
00101000
00000000
00010010
00000000
,
00101000
00000000
00010010
00000000
00001000
00000000
00010000
00000000
00100000
00000000
10000000
00000000
02000000
00000000
00100000
00100000
,
13000000
01000000
00100000
00100000
10000000
01000000
00100000
00000000
,
00001000
00010000
00001000
00001000
00000010
00000100
00000001
00000000
,
00001000
00000000
00000001
00000000
00000010
00000100
00000000
00001000
00000010
00000000
00010000
00000000
00001000
00000000
00000000
00000000
,
00010000
00001000
00100000
00010000
01000000
01000000
00100000
00000000
,
00010000
10000000
01000000
01000000
00010000
00100000
00001000
00000000
,
00010000
00000100
00000100
00000001
00000010
00000100
00001000
00000000
,
00000001
00000000
00000100
00000000
00000010
00001000
00000000
00000100
00010000
00000000
00001000
00000000
00011000
00000000
00000000
00000000
,
01100000
00001000
00010000
10000000
00000000
00010000
00001000
00010000
,
00011000
00000000
00000000
00010000
00001000
00000000
00000010
00000000
00000001
00000000
00000000
00000001
00001000
00000000
00000010
00000000
,
00000100
00000000
00000000
00000100
00000010
00000000
00010000
00000000
00001000
00000000
00000000
00000000
00101000
00000000
00000000
00000000
,
01010000
00000000
00000000
00010000
01000000
00000000
00100000
00000000
10000000
00000000
00000000
10000000
01000000
00000000
00010000
00000000
,
00001000
00000000
00000000
00001000
00010000
00000000
00000100
00000000
00000010
00000000
00000100
00000000
00000100
00000000
00000000
00000000
,
00000011
00000000
00000000
00000010
00000100
00000000
00010000
00000000
00001000
00000000
00000000
00001000
01000000
00000000
00010000
00000000
,
01010000
00000000
00000000
01000000
00100000
00000000
10000000
00000000
00010000
00000000
00000000
00010000
00001000
00000000
00000010
00000000
,
00000100
00000000
00000000
00000100
00000001
00000000
00000010
00000000
00001000
00000000
00000000
00001000
00010000
00000000
00000100
00000000
,
00000010
00000000
00000000
00000010
00000001
00000000
00000100
00000000
00000010
00000000
00010000
00000000
00011000
00000000
00000000
00000000
,
00100000
00000000
00001000
00010000
00001000
00000000
02000000
00000000
00010000
00000000
03010000
00000000
10000000
00000000
00100000
00000000
,
01000000
00000000
00010000
01000000
00010000
00000000
00100000
00000000
02000000
00000000
10000000
00000000
13000000
00000000
00000000
00000000
,
00100000
00000000
00001000
00010000
00001000
00000000
00000010
00000000
00000200
00000000
00001000
00000000
00001300
00000000
00000010
00000000
,
00000100
00000000
00000001
00001000
00000001
00000000
00000100
00000000
00000020
00000000
00010000
00000000
00010030
00000000
00000000
00000000
,
00001001
00000000
00000001
00000010
00000001
00000000
00000100
00000000
00000010
00000000
00010000
00000100
00010000
00000000
00001000
00000000
,
00100000
00000000
00010000
10000000
00010000
00000000
01000000
00000000
00100000
00000000
10000000
00010000
10000000
00000000
01000000
00000000
,
00020000
00000100
00030010
01001000
,
10000000
01000000
00100000
00001000
00010000
00000100
00000010
00000001
,
00001001
00000000
00000000
00000000
,
;

//---------------dance-single - ----------------
#NOTES:
     dance-single:
     :
     Challenge:
     15:
     0.714452,0.796275,0.465658,0.186263,0.610012,537.000000,487.000000,50.000000,20.000000,0.000000,0.000000,0.714452,0.796275,0.465658,0.186263,0.610012,537.000000,487.000000,50.000000,20.000000,0.000000,0.000000:
// measure 0
0000
0000
0000
0000
,  // measure 1
0000
0000
0000
0000
,  // measure 2
0000
0000
0000
0000
,  // measure 3
0000
0000
0000
0000
,  // measure 4
0000
0000
0000
0000
,  // measure 5
0000
0000
0000
0000
,  // measure 6
1000
0000
0100
0010
0100
0000
1000
0100
0000
0001
0100
0000
1000
0001
1000
0000
,  // measure 7
0100
0000
0010
0000
0100
0000
0001
0100
0000
1000
0100
0000
0001
0000
0100
0000
,  // measure 8
1000
0000
0010
0001
0010
0000
1000
0001
0000
0100
0001
0000
1000
0001
1000
0000
,  // measure 9
0100
0000
0010
0001
0010
0100
1000
0100
0000
0010
1000
0000
0020
0000
0230
0000
,  // measure 10
1300
0000
0001
0100
0001
0010
0001
0100
0000
0100
1000
0000
0100
0001
0010
0000
,  // measure 11
0100
1000
0001
1000
0001
0000
0100
0010
0000
0100
0001
0000
0010
0000
0100
0000
,  // measure 12
1000
0000
0010
0100
0010
1000
0010
0100
0000
0100
0010
0000
0100
0010
1000
0000
,  // measure 13
0001
1000
0010
0000
0100
0010
1000
0001
1000
0000
0100
0000
1010
0000
0110
0000
,  // measure 14
0101
0000
0010
1000
0010
0100
0010
1000
0000
0100
0010
0000
0001
1000
0001
0000
,  // measure 15
1000
0000
0010
1000
0010
0000
0100
0001
0000
0010
0100
0000
1000
0000
0001
0000
,  // measure 16
0100
0001
0010
0100
0010
0000
0001
1000
0000
0001
1000
0000
0010
0000
0100
0000
,  // measure 17
1001
0000
0000
0001
1000
0100
0010
0000
0220
0330
0000
0000
1000
0000
0100
0000
,  // measure 18
0001
0000
0100
0000
1000
0001
0000
0001
0100
0000
0001
0000
1000
0010
1000
0000
,  // measure 19
0001
0000
0100
0000
0010
1000
0000
0010
1000
0000
0001
0000
0010
0100
0000
0010
,  // measure 20
1000
0000
0010
0000
0001
1000
0000
1000
0010
0000
0100
0000
0001
0000
1000
0000
,  // measure 21
0001
0000
0100
0000
2002
0000
0000
0000
3003
0000
0000
0000
1010
0000
0000
0110
,  // measure 22
0000
0000
0010
0000
0100
0001
0000
0100
0001
0000
0110
0000
1000
0010
0000
1000
,  // measure 23
0010
0000
0101
0000
0010
0100
0000
0010
0100
0000
0001
0000
1001
0000
0000
0010
,  // measure 24
1000
0000
0010
0000
0100
0001
0000
0000
0101
0000
0000
0000
1010
0000
0000
0010
,  // measure 25
1000
0000
0001
0000
1001
0000
0000
0000
0110
0000
0000
0000
1001
0000
0000
1000
,  // measure 26
0100
0000
0010
0000
0011
0000
0000
0010
1000
0000
0001
0000
0101
0000
0000
0001
,  // measure 27
0100
0000
1000
0000
1100
0000
0000
0100
0001
0000
0100
0000
1001
0000
0000
1000
,  // measure 28
0010
0000
0001
0000
0101
0000
0000
0100
0010
1000
0100
0000
0011
0000
0000
0001
,  // measure 29
0010
0000
0001
0000
1001
0000
0000
0000
1000
0001
1000
0000
1001
0000
0000
1000
,  // measure 30
0001
0000
1000
0000
0011
0000
0001
0100
0001
1000
0010
0000
1001
0000
0000
1000
,  // measure 31
0001
0000
1000
0000
0101
0000
0000
0100
0001
0100
0010
0000
1001
0000
1001
0000
,  // measure 32
1100
0000
0101
0000
1001
0000
1010
0000
0110
0000
0101
0000
2001
0000
0010
0010
,  // measure 33
3100
0000
0010
1000
0010
0100
0001
0000
0010
0000
0100
1000
0001
1000
0000
0000
,  // measure 34
0010
0100
0010
0000
1000
0000
0010
1000
0001
0010
0001
1000
0020
0000
0000
0000
,  // measure 35
0130
0001
0100
0000
1000
0100
0000
0010
0100
0000
0010
0000
0001
0100
0000
0100
,  // measure 36
0010
0000
1000
0000
0001
1000
0001
0000
1000
0000
0100
0010
0001
1000
0000
0000
,  // measure 37
0100
0000
0010
0100
1000
0001
1000
0000
0001
0000
0010
0000
0100
1000
0000
0000
,  // measure 38
0001
1000
0010
0000
0100
0000
0010
0000
1000
0100
0001
0100
2000
0000
0000
0000
,  // measure 39
3001
0000
0100
0000
1000
0100
0000
0001
0010
0000
1000
0000
0011
0000
0000
0000
,  // measure 40
1010
0100
0011
0100
0000
1001
0100
0001
,  // measure 41
1010
0000
0100
0010
2000
0000
0001
0000
3001
0000
0100
0010
2000
0000
0001
0000
,  // measure 42
3001
0000
0100
0001
0020
0000
0100
0000
0130
0000
1000
0001
0100
0000
0001
0000
,  // measure 43
0100
0000
0010
1000
0020
0000
0100
0000
0130
0000
0010
0001
0020
0000
0100
0000
,  // measure 44
0130
0000
1000
0010
0100
0000
0010
0000
0001
0000
0100
0000
0100
0000
0000
0000
,  // measure 45
1001
0000
0001
0010
0002
0000
1000
0000
1003
0000
0100
0010
0200
0000
0001
0000
,  // measure 46
0301
0100
1000
0010
0100
0001
1001
0000
,  // measure 47
1010
0000
0100
0010
2000
0000
0001
0000
3001
0000
0010
0100
0020
0000
0001
0000
,  // measure 48
0031
0000
0100
0010
1000
0000
0010
0000
0100
0000
0001
0000
0110
0000
1000
0000
,  // measure 49
0001
0000
0010
0100
1000
0000
0001
0000
0010
0000
0001
0000
1100
0000
0001
0000
,  // measure 50
0010
0000
0001
0100
0010
0000
1000
0001
0100
0000
0010
0000
0101
0000
0010
0000
,  // measure 51
1000
0000
0001
0010
0100
0000
1000
0000
0001
0000
0100
0010
1000
0000
0001
0000
,  // measure 52
0100
0000
0010
1000
0001
0000
0100
0000
0010
0000
1000
0000
0110
0000
0010
0000
,  // measure 53
1010
0000
1000
0010
0100
0000
0010
0100
0001
0000
0010
0100
1000
0000
0100
0010
,  // measure 54
0001
0000
1000
0001
0100
0000
0001
0100
0010
0000
1000
0010
0100
0000
0010
0000
,  // measure 55
2000
0001
0001
3001
0020
0100
0100
0130
,  // measure 56
1000
0000
1000
0000
0100
0000
0100
0000
0010
0000
0010
0001
1000
0001
0010
0000
,  // measure 57
1001
0000
0000
0000
;
