#TITLE:Koko Soko;
#SUBTITLE:;
#ARTIST:SMiLE.dk;
#TITLETRANSLIT:;
#SUBTITLETRANSLIT:;
#ARTISTTRANSLIT:;
#GENRE:;
#CREDIT:;
#BANNER:Koko Soko.png;
#BACKGROUND:Koko Soko-bg.png;
#LYRICSPATH:;
#CDTITLE:./CDTITLES/DanceDanceRevolution X.png;
#MUSIC:Koko Soko.ogg;
#OFFSET:0.000000;
#SAMPLESTART:37.709999;
#SAMPLELENGTH:15.000000;
#SELECTABLE:YES;
#DISPLAYBPM:140.000000;
#BPMS:0.000000=140.078003
,4.000000=139.994003
;
#STOPS:
;
#BGCHANGES:;
#KEYSOUNDS:;
#ATTACKS:;

//---------------dance-single - ----------------
#NOTES:
     dance-single:
     :
     Beginner:
     2:
     0.113198,0.136879,0.000000,0.000000,0.000000,72.000000,0.000000,0.000000,0.000000,0.000000,0.000000,0.113198,0.136879,0.000000,0.000000,0.000000,72.000000,0.000000,0.000000,0.000000,0.000000,0.000000:
0000
0000
0000
0000
,
0000
0000
0000
0000
,
0000
0000
0000
0000
,
0000
0000
0000
0000
,
0000
0000
0000
0000
,
0000
0000
0000
0000
,
1000
0000
0000
0000
,
0001
0000
0000
0000
,
1000
0000
0000
0000
,
0000
0000
0000
0000
,
0001
0000
0000
0000
,
1000
0000
0000
0000
,
0001
0000
0000
0000
,
0000
0000
0000
0000
,
0001
0000
0000
0000
,
0001
0000
0001
0000
,
1000
0000
0000
0000
,
1000
0000
1000
0000
,
0001
0000
0001
0000
,
1000
0000
1000
0000
,
0001
0000
0001
0000
,
0100
0000
0000
0000
,
0100
0000
0100
0000
,
0010
0000
0000
0000
,
0100
0000
0100
0000
,
0010
0010
0010
0000
,
0010
0000
0010
0000
,
0100
0000
0000
0000
,
0010
0000
0010
0000
,
0100
0000
0000
0000
,
0001
0000
1000
0000
,
0001
0000
1000
0000
,
0001
0000
1000
0000
,
0001
0001
0001
0000
,
1000
0000
0100
0000
,
0001
0000
0100
0000
,
1000
0000
0100
0000
,
0001
0001
0001
0000
,
1000
0000
0000
0000
,
0010
0000
0010
0000
,
0001
0000
0000
0000
,
0010
0000
0010
0000
,
1000
0000
1000
0000
,
0001
0000
0001
0000
,
1000
0000
0100
0000
,
0001
0000
0100
0000
,
1000
0000
0000
0000
,
0001
0000
0000
0000
,
0100
0000
0000
0000
,
0010
0010
0010
0010
,
0000
0000
0000
0000
;

//---------------dance-single - ----------------
#NOTES:
     dance-single:
     :
     Easy:
     5:
     0.202813,0.219006,0.044021,0.022011,0.000000,123.000000,4.000000,2.000000,0.000000,0.000000,0.000000,0.202813,0.219006,0.044021,0.022011,0.000000,123.000000,4.000000,2.000000,0.000000,0.000000,0.000000:
0000
0000
0000
0000
,
0000
0000
0000
0000
,
0000
0000
0000
0000
,
0000
0000
0000
0000
,
0000
0000
0000
0000
,
0000
0000
0000
0000
,
1000
0100
0001
0000
,
0001
0000
0001
0000
,
1000
0100
0001
0000
,
0100
0000
0010
0000
,
0001
0100
1000
0000
,
1000
0000
1000
0000
,
0001
0100
1000
0000
,
0020
0000
0000
0030
,
0100
0000
0010
0000
,
1000
0001
0100
0000
,
0010
0000
0100
0000
,
0001
1000
0100
0000
,
0001
0000
1000
0000
,
0010
0100
0010
0000
,
1000
0000
0001
0000
,
0010
0100
0010
0000
,
0001
0001
1000
1000
,
0001
1000
0100
0000
,
0100
0000
0010
0000
,
1000
0001
1001
0000
,
1000
1000
0001
0001
,
1000
0001
0100
0000
,
0100
0000
0010
0000
,
0001
1000
1001
0000
,
1000
0100
1000
0100
,
1000
0100
0001
0000
,
0001
0100
0001
0100
,
0001
0100
1000
0000
,
0001
0010
1000
0100
,
0001
0010
1000
0000
,
0100
1000
0010
0001
,
0100
1000
0001
0000
,
0001
0100
1000
0000
,
1000
0000
1000
0000
,
0001
0100
1000
0000
,
0100
0000
0010
0000
,
1000
0100
0001
0000
,
0001
0000
0001
0000
,
1000
0100
0001
0000
,
0200
0000
0000
0300
,
1000
1000
0001
0001
,
1000
0001
1001
0000
,
0100
0000
0010
0000
,
0100
0010
0100
1001
,
0000
0000
0000
0000
;

//---------------dance-single - ----------------
#NOTES:
     dance-single:
     :
     Medium:
     7:
     0.330160,0.328509,0.154075,0.055027,0.000000,191.000000,14.000000,5.000000,0.000000,0.000000,0.000000,0.330160,0.328509,0.154075,0.055027,0.000000,191.000000,14.000000,5.000000,0.000000,0.000000,0.000000:
// measure 0
0000
0000
0000
0000
,  // measure 1
0000
0000
0000
0000
,  // measure 2
0000
0000
0000
0000
,  // measure 3
0000
0000
0000
0000
,  // measure 4
0000
0000
0000
0000
,  // measure 5
0000
0000
0000
0000
,  // measure 6
0001
0000
1000
0000
0010
0000
0001
0010
,  // measure 7
0000
1000
0100
0000
1001
0000
0000
0000
,  // measure 8
1000
0000
0001
0000
0100
0000
0010
0100
,  // measure 9
0000
0100
0010
0100
0000
1000
1000
0000
,  // measure 10
1000
0000
0001
0000
0010
0000
1000
0100
,  // measure 11
0000
0010
0001
0000
1001
0000
0000
0000
,  // measure 12
0001
0000
1000
0000
0010
0000
0100
0100
,  // measure 13
0000
0010
0100
0020
0000
0000
0030
0000
,  // measure 14
1000
0001
0100
1000
,  // measure 15
0001
0100
1000
0000
1001
0000
0000
0000
,  // measure 16
0001
1000
0010
0001
,  // measure 17
1000
0100
0001
0000
1001
0000
0000
0000
,  // measure 18
2000
0010
0100
3001
,  // measure 19
1000
0000
0100
0010
0001
0000
0000
0000
,  // measure 20
0002
0010
0100
1003
,  // measure 21
0001
0000
0100
0010
1000
0000
0000
0000
,  // measure 22
0100
0000
0001
0000
0010
0010
0010
0000
,  // measure 23
1000
0100
0001
0000
,  // measure 24
0100
0000
1000
0000
0010
0010
0010
0000
,  // measure 25
0001
0000
0100
1000
0001
0000
1001
0000
,  // measure 26
0100
0000
1000
0000
0010
0010
0010
0000
,  // measure 27
0001
0100
1000
0000
,  // measure 28
0100
0000
0001
0000
0010
0010
0010
0000
,  // measure 29
1000
0000
0100
0001
1000
0000
1001
0000
,  // measure 30
1000
0000
0100
0000
0001
0000
0010
1000
,  // measure 31
0100
0001
0010
0110
,  // measure 32
0001
0000
0100
0000
1000
0000
0010
0001
,  // measure 33
0100
1000
0001
1001
,  // measure 34
0001
0000
0010
0000
1000
0000
0100
0001
,  // measure 35
0010
1000
0100
0110
,  // measure 36
1000
0000
0010
0000
0001
0000
0100
1000
,  // measure 37
0010
0001
2000
3000
,  // measure 38
1000
0000
0001
0000
0100
0000
1000
0100
,  // measure 39
0000
0001
0010
0000
1001
0000
0000
0000
,  // measure 40
0001
0000
1000
0000
0010
0000
0100
0010
,  // measure 41
0000
0010
0100
0010
0000
0001
0001
0000
,  // measure 42
0001
0000
1000
0000
0100
0000
0001
0010
,  // measure 43
0000
0100
1000
0000
1001
0000
0000
0000
,  // measure 44
1000
0000
0001
0000
0100
0000
0010
0010
,  // measure 45
0000
0100
0010
0200
0000
0000
0300
0000
,  // measure 46
0100
0000
1001
0000
0010
0010
0010
0000
,  // measure 47
0010
0000
1000
0100
0001
0000
0010
0000
,  // measure 48
0100
0000
1001
0000
0010
0010
0010
0000
,  // measure 49
0100
0000
0001
0010
1000
0000
1001
0000
;

//---------------dance-single - ----------------
#NOTES:
     dance-single:
     :
     Hard:
     10:
     0.451219,0.410637,0.154075,0.055027,0.132064,268.000000,14.000000,5.000000,0.000000,0.000000,0.000000,0.451219,0.410637,0.154075,0.055027,0.132064,268.000000,14.000000,5.000000,0.000000,0.000000,0.000000:
// measure 0
0000
0000
0000
0000
,  // measure 1
0000
0000
0000
0000
,  // measure 2
0000
0000
0000
0000
,  // measure 3
0000
0000
0000
0000
,  // measure 4
0000
0000
0000
0000
,  // measure 5
0000
0000
0000
0000
,  // measure 6
1000
1000
0001
0100
1000
0010
0001
1000
,  // measure 7
0000
1000
0100
0010
0001
0000
0000
0000
,  // measure 8
1000
1000
0001
0100
1000
0010
0001
1000
,  // measure 9
0000
0100
0010
0001
0000
0001
1001
0000
,  // measure 10
0001
0001
1000
0100
0001
0010
1000
0001
,  // measure 11
0000
0001
0100
0010
1000
0000
0000
0000
,  // measure 12
0001
0001
1000
0100
0001
0010
1000
0001
,  // measure 13
0000
0100
0010
2000
0000
0000
3000
0000
,  // measure 14
0001
0000
0010
0001
2000
0000
0100
0000
,  // measure 15
3001
0100
0010
0100
0001
0000
0000
0000
,  // measure 16
1000
0000
0010
1000
0002
0000
0100
0000
,  // measure 17
1003
0100
0010
0100
1000
0000
0000
0000
,  // measure 18
0001
1000
0100
0000
1000
0001
0100
0000
,  // measure 19
0001
1000
0100
0001
1000
0000
0000
0000
,  // measure 20
0010
1000
0100
0000
0010
0001
0100
0000
,  // measure 21
0010
0001
0100
1000
0010
0000
0000
0000
,  // measure 22
0100
0100
0001
0001
1000
0010
0010
0000
,  // measure 23
0101
1010
1100
0000
,  // measure 24
0100
0100
1000
1000
0001
0010
0010
0100
,  // measure 25
1000
0010
0001
0010
1000
0000
1001
0000
,  // measure 26
0100
0100
1000
1000
0001
0010
0010
0000
,  // measure 27
1100
0011
0101
0000
,  // measure 28
0100
0100
0001
0001
1000
0010
0010
0100
,  // measure 29
0001
0010
1000
0010
0001
0000
1001
0000
,  // measure 30
1000
0000
0000
1000
0001
0000
0000
0001
0100
0000
0000
0100
0010
0000
0000
0010
,  // measure 31
1000
0000
0000
1000
0001
0000
0000
0001
0010
0000
0100
0000
1000
0000
0000
0000
,  // measure 32
0001
0000
0000
0001
0100
0000
0000
0100
0010
0000
0000
0010
1000
0000
0000
1000
,  // measure 33
0100
0000
0000
0100
0010
0000
0000
0010
0001
0000
0100
0000
0100
0000
0000
0000
,  // measure 34
0001
0000
0000
0001
1000
0000
0000
1000
0010
0000
0000
0010
0100
0000
0000
0100
,  // measure 35
0001
0000
0000
0001
1000
0000
0000
1000
0100
0000
0010
0000
0001
0000
0000
0000
,  // measure 36
1000
0000
0000
1000
0010
0000
0000
0010
0100
0000
0000
0100
0001
0000
0000
0001
,  // measure 37
0010
0000
0000
0010
0100
0000
0000
0100
2000
0000
0000
0000
3001
0000
0000
0000
,  // measure 38
0001
0001
1000
0100
0001
0010
1000
0001
,  // measure 39
0000
0001
0100
0010
1000
0000
0000
0000
,  // measure 40
0001
0001
1000
0100
0001
0010
1000
0001
,  // measure 41
0000
0100
0010
1000
0000
1000
1001
0000
,  // measure 42
1000
1000
0001
0100
1000
0010
0001
1000
,  // measure 43
0000
1000
0100
0010
0001
0000
0000
0000
,  // measure 44
1000
1000
0001
0100
1000
0010
0001
1000
,  // measure 45
0000
0100
0010
0002
0000
0000
0003
0000
,  // measure 46
0100
0100
0001
0001
0010
0010
0010
0000
,  // measure 47
1001
0110
1001
0000
,  // measure 48
0100
0100
1000
1000
0010
0010
0010
0000
,  // measure 49
0001
0100
1000
0010
0001
0000
1001
0000
;

//---------------dance-double - ----------------
#NOTES:
     dance-double:
     :
     Easy:
     6:
     0.212246,0.219006,0.022011,0.022011,0.000000,131.000000,2.000000,2.000000,0.000000,0.000000,0.000000,0.212246,0.219006,0.022011,0.022011,0.000000,131.000000,2.000000,2.000000,0.000000,0.000000,0.000000:
00000000
00000000
00000000
00000000
,
00000000
00000000
00000000
00000000
,
00000000
00000000
00000000
00000000
,
00000000
00000000
00000000
00000000
,
00000000
00000000
00000000
00000000
,
00000000
00000000
00000000
00000000
,
00010000
10000000
01000000
00000000
,
00001000
00010000
00001000
00000000
,
00000010
00001000
00010000
00000000
,
00001000
00000000
00001000
00000000
,
00100000
01000000
10000000
00000000
,
00001000
00010000
00001000
00000000
,
00000010
00000100
00001000
00000000
,
00010000
00000000
00010000
00000000
,
00001000
00000000
00000100
00000000
,
00000001
00000100
00001000
00000000
,
00010000
00000000
01000000
00000000
,
10000000
01000000
00010000
00000000
,
00010000
00001000
00000100
00000001
,
00000010
00000100
00001000
00000000
,
00001000
00010000
01000000
10000000
,
00100000
01000000
00010000
00000000
,
01000000
00010000
00100000
00000000
,
00001000
00000100
00000001
00000000
,
00000100
00000001
00000010
00000000
,
00001000
00010000
01000000
00000000
,
01000000
10000000
00100000
00000000
,
00001000
00000100
00000001
00000000
,
00000100
00001000
00000010
00000000
,
00001000
00010000
01000000
00000000
,
10000000
01000000
00100000
00010000
,
00001000
00000100
00000010
00000000
,
00000001
00000100
00000010
00001000
,
00010000
01000000
00100000
00000000
,
10000000
00100000
01000000
00010000
,
00001000
00000010
00000100
00000000
,
00000001
00000010
00000100
00001000
,
00010000
00100000
01000000
00000000
,
00010000
10000000
00100000
00000000
,
00001000
00010000
00001000
00000000
,
00000100
00001000
00010000
00000000
,
00001000
00000000
00001000
00000000
,
01000000
00100000
10000000
00000000
,
00001000
00010000
00001000
00000000
,
00000100
00000010
00001000
00000000
,
00010000
00000000
00010000
00000000
,
01000000
10000000
00100000
00000000
,
00020000
00000000
00002000
00033000
,
00000100
00001000
00000010
00000000
,
00001001
00000000
00010000
00011000
,
00000000
00000000
00000000
00000000
;

//---------------dance-double - ----------------
#NOTES:
     dance-double:
     :
     Medium:
     8:
     0.309722,0.301134,0.022011,0.099048,0.000000,186.000000,2.000000,9.000000,0.000000,0.000000,0.000000,0.309722,0.301134,0.022011,0.099048,0.000000,186.000000,2.000000,9.000000,0.000000,0.000000,0.000000:
00000000
00000000
00000000
00000000
,
00000000
00000000
00000000
00000000
,
00000000
00000000
00000000
00000000
,
00000000
00000000
00000000
00000000
,
00000000
00000000
00000000
00000000
,
00000000
00000000
00000000
00000000
,
10000000
00000000
00010000
00000000
00100000
00000000
00001000
00010000
,
00000000
00010000
00001000
00000000
00000010
00000000
00000000
00000000
,
00000001
00000000
00001000
00000000
00000010
00000000
00010000
00001000
,
00000000
00001000
00010000
01000000
00000000
00000000
00000000
00000000
,
10000000
00000000
00010000
00000000
01000000
00000000
00001000
00100000
,
00000000
00100000
00001000
00000000
00000100
00000000
00000000
00000000
,
00000001
00000000
00001000
00000000
00000100
00000000
00010000
00000100
,
00000000
00000100
00010000
00002000
00000000
00000000
00003000
00000000
,
00001000
00000000
00100000
00000000
00010000
00000000
01000000
00100000
,
10000000
00010000
00100000
00000000
,
00010000
00000000
00000100
00000000
00001000
00000000
00000010
00000100
,
00000001
00001000
00000010
00000000
,
00000001
00000100
00000010
00000100
,
00001000
00010000
00001000
00010000
01000000
00000000
00000000
00000000
,
10000000
01000000
00100000
01000000
,
00010000
00001000
00010000
00001000
00010000
00000000
00000000
00000000
,
00000200
00000000
00001000
00000000
00000310
00000001
00000100
00000000
,
00001000
00010000
00100000
00000000
,
02000000
00000000
00010000
00000000
03100000
10000000
01000000
00000000
,
00010000
00001000
00000010
00000000
,
00000200
00000000
00000001
00000000
00000310
00001000
00000100
00000000
,
00010000
00000000
00001000
00010000
00100000
00000000
00000000
00000000
,
02000000
00000000
10000000
00000000
03100000
00010000
01000000
00000000
,
00001000
00000000
00010000
00001000
00000010
00000000
00000000
00000000
,
00000001
00000000
00000100
00000000
00001000
00000000
00010000
00100000
,
10000000
00000000
01000000
00000000
00010000
00000000
00001000
00000010
,
00000001
00000000
00000100
00000000
00001000
00000000
00010000
00100000
,
10000000
01000000
00010000
10010000
,
10000000
00000000
01000000
00000000
00010000
00000000
00001000
00000010
,
00000001
00000000
00000100
00000000
00001000
00000000
00010000
00100000
,
10000000
00000000
01000000
00000000
00010000
00000000
00001000
00000010
,
00000001
00000100
00002000
00003000
,
00000001
00000000
00001000
00000000
00000010
00000000
00010000
00001000
,
00000000
00001000
00010000
00000000
00100000
00000000
00000000
00000000
,
10000000
00000000
00010000
00000000
00100000
00000000
00001000
00010000
,
00000000
00010000
00001000
00000100
00000000
00000000
00000000
00000000
,
00000001
00000000
00001000
00000000
00000100
00000000
00010000
00000010
,
00000000
00000010
00010000
00000000
01000000
00000000
00000000
00000000
,
10000000
00000000
00010000
00000000
01000000
00000000
00001000
01000000
,
00000000
01000000
00001000
00020000
00000000
00000000
00030000
00000000
,
00000200
00000000
00010000
00000000
00000310
00000001
00000100
00000000
,
00001000
00010000
00100000
00000000
,
02000000
00000000
00001000
00000000
03100000
10000000
01000000
00000000
,
00010000
00001000
00000010
00001001
,
00000000
00000000
00000000
00000000
;

//---------------dance-double - ----------------
#NOTES:
     dance-double:
     :
     Hard:
     11:
     0.460652,0.438012,0.154075,0.055027,0.154075,274.000000,14.000000,5.000000,0.000000,0.000000,0.000000,0.460652,0.438012,0.154075,0.055027,0.154075,274.000000,14.000000,5.000000,0.000000,0.000000,0.000000:
00000000
00000000
00000000
00000000
,
00000000
00000000
00000000
00000000
,
00000000
00000000
00000000
00000000
,
00000000
00000000
00000000
00000000
,
00000000
00000000
00000000
00000000
,
00000000
00000000
00000000
00000000
,
10000000
01000000
00010000
00001000
01000000
00010000
00001000
00000100
,
00000000
00000001
00000010
00000100
00001000
00000000
00000000
00000000
,
00000001
00000100
00001000
00010000
00000100
00010000
00001000
00010000
,
00000000
01000000
10000000
00010000
00000000
01000000
01000000
00000000
,
10000000
01000000
00010000
00001000
01000000
00001000
00010000
00001000
,
00000000
00000100
00000001
00001000
00000100
00000000
00000000
00000000
,
00000001
00000100
00001000
00010000
00000100
00001000
00010000
01000000
,
00000000
10000000
00100000
02000000
00000000
00000000
03000000
00000000
,
00100000
00000000
00100000
01000000
10000000
00000000
10000000
01000000
,
00010000
00001000
00000100
00000001
00002000
00000000
00000000
00000000
,
00003010
00000000
00000010
00000100
00000001
00000000
00000001
00000100
,
00001000
00010000
01000000
10000000
00020000
00000000
00000000
00000000
,
00130000
00001000
00010000
00000000
00000010
00010000
00001000
00000000
,
00000010
00000001
00000100
00001000
00010000
00000000
00011000
00000000
,
00000100
00010000
00001000
00000000
01000000
00001000
00010000
00000000
,
00100000
10000000
01000000
00010000
00001000
00000000
00011000
00000000
,
00001000
00001000
00010000
00010000
00000010
00000100
00000100
00000000
,
00000101
00001010
00010100
00000000
,
00010000
00010000
00001000
00001000
00100000
01000000
01000000
00100000
,
00001000
00010000
00001000
00000100
00000001
00000100
00000100
00000000
,
00001000
00001000
00010000
00010000
00100000
01000000
01000000
00000000
,
11000000
00110000
01001000
00000000
,
00010000
00010000
00001000
00001000
00000010
00000100
00000100
00000010
,
00000001
00000100
00001000
00010000
01000000
00000000
10010000
00000000
,
10000000
00000000
00000000
10000000
01000000
00000000
00000000
01000000
00010000
00000000
00000000
00010000
00001000
00000000
00000000
00001000
,
00000100
00000000
00000000
00000100
00000001
00000000
00000000
00000001
00000010
00000000
00000000
00000010
00001000
00000000
00000000
00001000
,
00010000
00000000
00000000
00010000
00100000
00000000
00000000
00100000
10000000
00000000
00000000
10000000
01000000
00000000
00000000
01000000
,
00010000
00000000
00000000
00010000
00001000
00000000
00000000
00001000
00000100
00000000
00000001
00000000
00001001
00000000
00000000
00000000
,
00000001
00000000
00000000
00000001
00000010
00000000
00000000
00000010
00000100
00000000
00000000
00000100
00001000
00000000
00000000
00001000
,
00000010
00000000
00000000
00000010
00010000
00000000
00000000
00010000
00001000
00000000
00000000
00001000
00100000
00000000
00000000
00100000
,
01000000
00000000
00000000
01000000
10000000
00000000
00000000
10000000
00010000
00000000
00000000
00010000
00100000
00000000
00000000
00100000
,
00001000
00000000
00000000
00001000
00000100
00000000
00000000
00000100
00000020
00000000
00000000
00000000
00000030
00000000
00000000
00000000
,
00000001
00000100
00001000
00010000
00000100
00001000
00010000
01000000
,
00000000
10000000
00100000
01000000
00010000
00000000
00000000
00000000
,
10000000
01000000
00010000
00001000
01000000
00001000
00010000
00001000
,
00000000
00000100
00000001
00001000
00000000
00000100
00000100
00000000
,
00000001
00000100
00001000
00010000
00000100
00010000
00001000
00010000
,
00000000
01000000
10000000
00010000
01000000
00000000
00000000
00000000
,
10000000
01000000
00010000
00001000
01000000
00010000
00001000
00000100
,
00000000
00000001
00000010
00000200
00000000
00000000
00000300
00000000
,
00010000
00010000
00001000
00001000
00100000
00100000
00100000
00000000
,
01100000
00011000
00000110
00000000
,
00001000
00001000
00010000
00010000
00000010
00000010
00000010
00000000
,
00000001
00000100
00001000
00010000
00100000
00000000
10010000
00000000
,
00000000
00000000
00000000
00000000
;

//---------------dance-single - ----------------
#NOTES:
     dance-single:
     :
     Challenge:
     12:
     0.553411,0.493383,0.209101,0.055027,0.121059,328.000000,19.000000,5.000000,0.000000,0.000000,0.000000,0.553411,0.493383,0.209101,0.055027,0.121059,328.000000,19.000000,5.000000,0.000000,0.000000,0.000000:
// measure 0
0000
0000
0000
0000
,  // measure 1
0000
0000
0000
0000
,  // measure 2
0000
0000
0000
0000
,  // measure 3
0000
0000
0000
0000
,  // measure 4
0000
0000
0000
0000
,  // measure 5
0000
0000
0000
0000
,  // measure 6
0001
0000
1000
0001
1000
0000
0010
0000
0001
0000
0010
0000
1000
0000
0100
0000
,  // measure 7
0000
0010
1000
0010
0001
0000
0101
0000
,  // measure 8
0100
0000
0010
1000
0010
0000
1000
0000
0001
0000
0010
0000
1000
0000
0002
0000
,  // measure 9
0000
0103
1000
0001
0010
0001
0101
0000
,  // measure 10
1000
0000
0100
0010
0100
0000
0010
0000
0001
0000
0010
0000
1000
0000
0010
0000
,  // measure 11
0000
0100
0010
0001
0100
0000
1010
0000
,  // measure 12
0001
0000
0100
0001
0100
0000
0010
0000
1000
0000
0100
0000
0010
0000
1000
0000
,  // measure 13
0010
0000
0100
0000
1000
0000
0001
0000
1000
0001
1000
0000
0000
0000
0010
0000
,  // measure 14
0100
0001
0100
0010
2000
0000
3100
0001
,  // measure 15
0200
0000
1300
0010
0001
0001
0010
0000
,  // measure 16
1000
0010
0100
0010
0001
0010
0100
0010
,  // measure 17
2000
0000
3001
0100
0010
0100
0001
1000
,  // measure 18
0001
0010
0100
0001
0010
1000
0001
0100
,  // measure 19
1000
0100
0001
0010
1000
0000
0000
0001
,  // measure 20
0100
0010
1000
0010
0100
0001
0010
0100
,  // measure 21
1000
0000
0001
0000
1000
0001
1000
0000
0010
0000
0010
0000
0110
0000
0000
0000
,  // measure 22
0100
0100
0001
0010
1000
0010
0001
0100
,  // measure 23
0010
1000
0100
1000
0010
0000
0101
0000
,  // measure 24
0010
1000
0100
0010
0001
0100
1000
0100
,  // measure 25
0001
0010
1000
0010
0001
0100
0101
0000
,  // measure 26
0010
1000
0010
0100
0010
0001
0010
0100
,  // measure 27
0010
0001
0010
0100
1000
0000
1001
0000
,  // measure 28
0001
0100
0010
0100
1000
0100
0010
0100
,  // measure 29
0101
0001
1001
1000
1010
0000
0110
0000
,  // measure 30
0101
0000
0000
0001
0010
0000
1000
0000
0010
0000
0001
0000
0100
0000
0010
0000
,  // measure 31
1000
0000
0000
1000
0010
0000
0001
0000
0010
0000
1000
0000
0100
0000
0010
0000
,  // measure 32
0001
0000
0000
0001
0100
0000
1000
0000
0100
0000
0001
0000
0010
0000
1000
0000
,  // measure 33
0010
0010
0001
0001
0100
0100
1001
0000
,  // measure 34
1010
0000
0000
0010
0100
0000
0001
0000
0100
0000
0010
0000
1000
0000
0100
0000
,  // measure 35
0001
0000
0000
0001
0100
0000
1000
0000
0010
0000
0100
0000
0001
0000
0000
0000
,  // measure 36
0010
0000
0000
0010
0001
0000
0100
0000
0001
0000
1000
0000
0010
0000
1000
0000
,  // measure 37
0001
0000
0001
0000
0100
0000
0100
0000
0010
1000
0010
0000
1000
0000
0000
0000
,  // measure 38
0001
0000
0100
0001
0100
0000
0010
0000
1000
0000
0001
0000
1000
0000
0010
0000
,  // measure 39
0000
0100
0001
0010
0001
0000
1001
0000
,  // measure 40
1000
0000
0010
0001
0010
0000
1000
0000
0001
0000
1000
0000
0010
0000
2000
0000
,  // measure 41
0000
3001
0100
0010
0000
0100
1001
0000
,  // measure 42
0010
0000
0100
0001
0100
0000
1000
0000
0010
0000
1000
0000
0100
0000
0001
0000
,  // measure 43
0000
0000
1000
0000
0010
0000
0100
0000
0010
0000
0000
0000
1001
0000
0000
0001
,  // measure 44
0010
0000
0100
0010
0100
0000
1000
0000
0001
0000
0010
0000
0001
0000
0100
0000
,  // measure 45
0000
0000
0010
0000
1000
0000
0001
0000
1000
0010
1000
0000
0010
1000
0010
0000
,  // measure 46
0100
0001
0010
0001
0100
0010
1000
0100
,  // measure 47
0010
0001
0100
0010
0100
0000
0011
0000
,  // measure 48
0100
0000
1000
0001
1000
0000
0010
0000
0100
0000
0001
0000
0010
0000
0100
0000
,  // measure 49
1000
0000
0001
0000
0010
0000
0001
0000
0101
0000
0000
0000
0100
0010
0000
0000
;
