#TITLE:dreaming can make a wish come true;
#SUBTITLE:;
#ARTIST:jun & NRG Factory feat. Anna Kaelin;
#TITLETRANSLIT:;
#SUBTITLETRANSLIT:;
#ARTISTTRANSLIT:;
#GENRE:;
#CREDIT:;
#BANNER:dreaming can make a wish come true.png;
#BACKGROUND:;
#LYRICSPATH:;
#CDTITLE:;
#MUSIC:dreaming can make a wish come true.ogg;
#OFFSET:-0.000000;
#SAMPLESTART:57.080002;
#SAMPLELENGTH:15.000000;
#SELECTABLE:YES;
#DISPLAYBPM:143.000000;
#BPMS:0.000000=143.425995
,4.000000=142.996994
;
#STOPS:
;
#BGCHANGES:;
#KEYSOUNDS:;
#ATTACKS:;

//---------------dance-single - ----------------
#NOTES:
     dance-single:
     :
     Beginner:
     2:
     0.116306,0.193883,0.033573,0.050359,0.000000,97.000000,93.000000,4.000000,6.000000,0.000000,0.000000,0.116306,0.193883,0.033573,0.050359,0.000000,97.000000,93.000000,4.000000,6.000000,0.000000,0.000000:
0000
0000
0000
0000
,
0000
0000
0000
0000
,
0001
0000
0000
0000
,
0000
0000
0000
0000
,
1000
0000
0000
0000
,
0000
0000
0000
0000
,
0100
0000
0000
0000
,
0100
0000
0000
0000
,
0010
0000
0010
0000
,
0000
0000
0000
0000
,
1000
0000
0001
0000
,
1000
0000
0000
0000
,
0010
0000
0010
0000
,
0010
0000
0000
0000
,
1000
0000
0001
0000
,
1000
0000
0000
0000
,
1000
0000
0001
0000
,
1001
0000
0000
0000
,
0010
0000
0000
0000
,
1000
0000
1000
0000
,
0001
0000
0001
0000
,
1000
0000
0000
0000
,
0010
0000
0000
0000
,
1000
0000
1000
0000
,
0001
0000
0001
0000
,
1000
1000
1000
0000
,
0020
0000
0000
0030
,
0000
0000
0000
0000
,
0020
0000
0000
0030
,
0000
0000
0000
0000
,
1000
0000
0010
0000
,
0001
0000
0010
0000
,
1000
0000
0001
0000
,
0000
0000
0000
0000
,
0001
0000
0010
0000
,
0001
0001
0001
0000
,
1000
0000
0010
0000
,
1000
1000
1000
0000
,
0001
0000
0010
0000
,
0001
0001
0001
0000
,
1000
0000
0010
0000
,
1000
1000
1000
0000
,
0001
0000
0010
0000
,
0001
0001
0001
0000
,
1000
0000
0010
0000
,
0100
0000
0000
0000
,
1001
0000
0000
0000
,
1001
0000
0000
0000
,
0010
0010
0010
0010
,
0010
0000
0000
0000
,
0020
0000
0000
0000
,
0000
0000
0030
0000
,
0200
0000
0000
0000
,
0000
0000
0300
0000
,
0001
0000
0000
0000
,
0000
0000
0000
0000
,
1000
0000
0000
0000
,
0000
0000
0000
0000
,
0001
0000
0100
0000
,
0001
0000
0100
0000
,
1000
0000
0100
0000
,
1000
0000
0100
0000
,
0002
0000
0000
0003
,
2000
0000
0000
3000
,
0001
0000
1000
0000
,
0001
0000
0000
0000
,
1001
0000
0000
0000
,
;

//---------------dance-single - ----------------
#NOTES:
     dance-single:
     :
     Easy:
     4:
     0.170262,0.253055,0.050359,0.117505,0.000000,142.000000,136.000000,6.000000,14.000000,0.000000,0.000000,0.170262,0.253055,0.050359,0.117505,0.000000,142.000000,136.000000,6.000000,14.000000,0.000000,0.000000:
0000
0000
0000
0000
,
0000
0000
0000
0000
,
1000
0000
0000
0000
,
0001
0000
0000
0000
,
0010
0000
0000
0000
,
0100
0010
0100
0000
,
1001
0000
0000
0000
,
0110
0000
0000
0000
,
0001
0001
1000
1000
,
0010
0010
0100
0100
,
0010
0000
0010
0000
,
1000
1000
1000
0000
,
0100
0010
0001
0000
,
1000
0100
1000
0000
,
0010
0000
0010
0000
,
0001
0001
0001
0000
,
0200
0300
0200
0300
,
0001
1000
1001
0000
,
0100
0000
0100
0000
,
0010
0000
0100
0000
,
0001
0000
1000
0000
,
1000
0000
0001
0000
,
0100
0000
0100
0000
,
0010
0000
0100
0000
,
0001
1000
1000
0000
,
1000
0001
0001
0000
,
2000
0000
3000
0000
,
0020
0000
0130
0000
,
0002
0000
0003
0000
,
0020
0000
0130
0000
,
0001
0000
1000
1000
,
1000
0000
0001
0001
,
0010
0000
0000
0000
,
0000
0000
0000
0000
,
0001
0010
0001
0010
,
0001
0000
0001
0000
,
1000
0010
1000
0000
,
0010
0010
0100
0000
,
0001
0010
0001
0010
,
0001
0000
0001
0000
,
1000
0001
1000
0001
,
1000
0000
0000
0000
,
1000
0010
1000
0010
,
1000
0000
1000
0000
,
0001
0010
0001
0000
,
0100
0000
0000
0000
,
1001
0000
0000
0000
,
0110
0000
0000
0000
,
0010
0010
0010
0100
,
0010
0000
0000
0000
,
2000
0000
0000
0000
,
0000
0000
0000
3000
,
0002
0000
0000
0000
,
0000
0000
0000
0003
,
0200
0000
0000
0300
,
0020
0000
0000
0030
,
0100
0000
0000
0000
,
0000
0000
0000
0000
,
1000
0100
0100
0000
,
0010
0001
0001
0000
,
0100
0001
0001
0000
,
0010
1000
1000
0000
,
0020
0000
0230
0000
,
0302
0000
2003
3000
,
0010
0100
0010
0100
,
0010
0000
0000
0000
,
1001
0000
0000
0000
,
0010
0000
0000
0000
;

//---------------dance-single - ----------------
#NOTES:
     dance-single:
     :
     Medium:
     7:
     0.321340,0.365524,0.134291,0.100718,0.000000,268.000000,252.000000,16.000000,12.000000,0.000000,0.000000,0.321340,0.365524,0.134291,0.100718,0.000000,268.000000,252.000000,16.000000,12.000000,0.000000,0.000000:
0000
0000
0000
0000
,
0000
0000
0000
0000
,
1000
0000
0001
0100
,
0010
0000
1000
0100
,
0100
0000
0000
0100
0000
0000
0010
0000
,
0001
1100
0010
0101
,
1100
0000
0100
0001
,
1001
0000
0100
0100
,
0010
0001
0100
0110
,
0001
0010
0001
0000
1000
0100
1000
0000
,
0010
0100
0001
0100
,
0010
0000
1000
0000
0010
1000
0010
0000
,
0100
0000
0100
0000
0100
0010
0100
0010
,
0000
1000
0000
1100
0000
0011
0000
0000
,
0010
0100
1000
0100
,
0010
0000
0001
0000
0010
0001
0010
0000
,
0001
0100
0200
0300
,
0001
0000
1000
0001
0000
1001
0000
0000
,
0001
0001
1000
0100
,
1000
1000
0010
0010
,
0100
0001
0100
0001
,
1000
0010
1000
0010
,
1000
1000
0001
0100
,
0001
0001
0010
0010
,
1000
0000
0001
0000
0100
0010
0100
0000
,
0010
1010
0101
0000
,
2000
0000
3100
0010
,
0200
0000
0301
0010
,
0002
0000
0103
0010
,
0200
0000
1300
0010
,
0001
0100
0010
1000
,
0100
0010
0001
1000
,
0010
0100
0100
0100
,
0001
0000
1000
0010
0000
0100
0100
0000
,
0001
0000
1000
0000
0010
0000
0100
0100
,
0010
0000
0000
0000
1000
0100
0001
0000
,
1000
0000
0000
0011
0000
0000
0100
0000
,
0010
0000
0010
0000
0100
0010
0100
0000
,
1000
0000
0001
0000
0010
0000
0100
0100
,
0010
0000
0000
0000
0001
0100
1000
0000
,
0001
0010
0001
0000
0100
0000
0100
0000
,
0010
1000
0001
0100
,
1000
0000
0001
0000
0010
0000
0100
0100
,
0010
0000
0000
0000
0001
0100
1000
0000
,
0100
0001
0010
0000
0100
0000
0100
0000
,
1000
1010
0001
0011
,
1100
0000
0010
0100
,
1001
0000
0100
0010
,
1000
1000
0100
0100
,
0010
0000
0010
0000
0001
0000
0001
1000
,
0020
0000
0000
0000
,
1000
0000
0100
0030
,
0020
0000
0000
0001
0000
0000
0000
0000
,
0000
0100
0000
0000
0000
0000
0030
0000
,
0001
0000
0000
0000
1000
0000
0000
0010
,
0001
0000
0000
0100
1000
0000
0000
0100
,
0001
0000
1000
0100
,
0010
0000
0010
0000
1000
0000
1000
0001
,
1000
0000
0010
0000
0100
0000
0100
0010
,
0100
0000
0001
0000
0001
0000
0001
0100
,
0001
0100
1000
0100
,
0001
0000
0010
0000
1000
0010
0001
0000
,
0012
0000
0000
0100
0203
0000
0000
0310
,
0020
0000
0000
1030
2000
0000
0000
3100
,
0100
0100
0100
0010
,
0001
0100
0010
0000
1000
0010
0100
0000
,
0020
0000
0000
0000
,
0130
0000
0000
0000
,
;

//---------------dance-single - ----------------
#NOTES:
     dance-single:
     :
     Hard:
     11:
     0.422058,0.449876,0.218223,0.083932,0.092325,352.000000,326.000000,26.000000,10.000000,0.000000,0.000000,0.422058,0.449876,0.218223,0.083932,0.092325,352.000000,326.000000,26.000000,10.000000,0.000000,0.000000:
// measure 0
0000
0000
0000
0000
,  // measure 1
0000
0000
0000
0000
,  // measure 2
0010
0000
0000
0000
0000
0010
0100
0000
,  // measure 3
0010
0000
0000
0000
1000
0100
0001
0000
,  // measure 4
0100
0000
0000
1000
0000
0000
0001
0000
,  // measure 5
1000
0101
1100
0011
,  // measure 6
1010
0000
0000
0100
0000
0000
0001
0000
,  // measure 7
1001
0000
0000
0000
0000
0010
0100
0000
,  // measure 8
0001
0000
0000
1000
0100
0000
0110
0000
,  // measure 9
0001
0010
0100
1000
0001
0010
0100
1000
,  // measure 10
0010
0100
0001
1010
,  // measure 11
0100
0000
0010
0001
0000
1000
0010
0100
,  // measure 12
0001
0000
0000
0001
0000
0000
0100
0000
0010
0000
0100
0000
0001
0000
1000
0000
,  // measure 13
0000
0101
0000
1100
0000
0011
0000
0000
,  // measure 14
0010
0100
1000
0011
,  // measure 15
0100
0000
0010
1000
0000
0001
0010
0100
,  // measure 16
1000
0000
0000
1000
0000
0000
0020
0000
0000
0000
0000
0000
0130
0000
0000
0000
,  // measure 17
0001
0000
0000
1000
0010
0000
0100
0000
0000
0000
1001
0000
0000
0000
0000
0000
,  // measure 18
0010
0010
1000
0100
,  // measure 19
1000
0000
1000
0000
0010
0100
0010
0000
,  // measure 20
1000
0100
0010
0100
,  // measure 21
1000
0010
1000
0000
0100
0010
0100
0000
,  // measure 22
0010
0010
0001
0100
,  // measure 23
0001
0000
0001
0000
0010
0100
0010
0000
,  // measure 24
0000
0001
0100
0010
0000
0001
0100
1000
,  // measure 25
1000
0110
1000
0011
,  // measure 26
1100
0000
0000
0000
0000
0100
0010
0001
,  // measure 27
0021
1000
0001
1030
,  // measure 28
0101
0000
0000
0000
0000
0100
0010
1000
,  // measure 29
1020
0001
1000
0031
,  // measure 30
1000
0000
0100
0000
0010
0000
0001
1000
,  // measure 31
0100
0000
0010
0000
1000
0000
0001
0100
,  // measure 32
0010
0000
0000
0000
1000
0000
0100
0000
1000
0000
0000
0001
0100
0000
0000
0001
,  // measure 33
1000
0000
0100
0000
0001
0000
0000
1000
0010
0000
0100
0000
0010
0000
0100
0000
,  // measure 34
0001
0000
1000
0100
0010
0001
1000
0000
,  // measure 35
0010
0100
0000
0001
1000
0010
0100
0001
,  // measure 36
0010
0000
0000
0011
0000
0000
1100
0000
,  // measure 37
0010
0100
1000
0001
0100
1000
0100
0010
,  // measure 38
1000
0000
0001
0100
0010
1000
0001
0000
,  // measure 39
0010
0100
0000
1000
0001
0010
0100
1000
,  // measure 40
0010
0100
0001
0010
0000
0010
0000
0010
,  // measure 41
0001
1010
0110
0101
,  // measure 42
0001
0000
1000
0100
0010
0001
1000
0000
,  // measure 43
0010
0100
0000
0001
1000
0010
0100
0001
,  // measure 44
1000
0000
0100
0001
0010
0000
0100
1000
,  // measure 45
0010
0000
0100
0001
0010
0100
1000
0000
,  // measure 46
0110
0000
0000
0001
0000
0100
0010
0001
,  // measure 47
1001
0000
0100
0100
,  // measure 48
1000
0000
0000
0000
0100
0000
0000
0000
0010
0000
0000
1000
0001
0000
0000
0010
,  // measure 49
1000
0000
0100
0000
0010
0000
0000
0001
1000
0000
0100
0000
0010
0000
0100
0000
,  // measure 50
0002
0000
0000
0000
,  // measure 51
0010
0000
0100
0000
,  // measure 52
0023
0000
0000
1000
0000
0000
0000
0000
,  // measure 53
0000
0100
0000
0000
0031
0010
1000
0010
,  // measure 54
0001
0000
0000
0000
0000
0000
0000
0000
0010
0000
0000
0010
0000
0000
0010
0000
,  // measure 55
0001
0000
0000
0010
0000
0000
0010
0000
1000
0000
0000
0100
0000
0000
0100
0000
,  // measure 56
0001
0000
0000
0000
0010
0000
0000
0000
0001
0000
0000
1000
0100
0000
0000
0010
,  // measure 57
0001
0000
0100
0000
0010
0000
0000
1000
0001
0000
0100
0000
0010
0000
0100
0000
,  // measure 58
0001
1000
0100
0001
,  // measure 59
1000
0010
1000
0000
0100
0000
0010
0001
,  // measure 60
0010
0001
0100
1000
,  // measure 61
0100
0000
0001
1000
0100
1000
0001
0000
,  // measure 62
1020
0000
0000
0001
0000
0000
0001
0000
2030
0000
0000
0100
0000
0000
0100
0000
,  // measure 63
3002
0000
0000
0010
0000
0000
0010
0000
2003
0000
0000
0100
0000
0000
3001
0000
,  // measure 64
0100
0000
0000
0000
0100
0000
0000
0000
0100
0000
0000
1000
0001
0000
0000
0010
,  // measure 65
1000
0000
0100
0000
0010
0000
0000
0001
0100
0000
0010
0000
1000
0000
0100
0000
,  // measure 66
0020
0000
0000
0000
,  // measure 67
0130
0000
0000
0000
;

//---------------dance-double - ----------------
#NOTES:
     dance-double:
     :
     Easy:
     4:
     0.177456,0.228295,0.092325,0.184651,0.000000,148.000000,137.000000,11.000000,22.000000,0.000000,0.000000,0.177456,0.228295,0.092325,0.184651,0.000000,148.000000,137.000000,11.000000,22.000000,0.000000,0.000000:
00000000
00000000
00000000
00000000
,
00000000
00000000
00000000
00000000
,
00011000
00000000
00000000
00000000
,
00000010
00000000
00000000
00000000
,
00001001
00000000
00000000
00000000
,
00000100
00000000
00010000
00000000
,
00011000
00000000
00000000
00000000
,
01100000
00000000
00000000
00000000
,
10000000
00000000
00010000
00000000
,
00100000
00001000
00010000
00000100
,
00001000
00000000
00001000
00000000
,
00000001
00000001
00000001
00000000
,
00000010
00000100
00001000
00000000
,
00010000
00001000
00100000
00000000
,
00010000
00000000
00010000
00000000
,
10000000
10000000
10000000
00000000
,
00200000
00300000
02000000
03000000
,
00010000
10000000
10010000
00000000
,
00100000
00000000
01000000
00000000
,
00001000
00000000
00010000
00000000
,
00000010
00000000
00000100
00000000
,
00000001
00001000
00000001
00000000
,
00000010
00000000
00000100
00000000
,
00010000
00000000
00001000
00000000
,
00100000
00000000
01000000
00000000
,
10000000
00010000
10000000
00000000
,
20000000
00000000
30000000
00000000
,
00200000
00000000
00300000
00000000
,
00001000
00000000
00001000
00000000
,
00000020
00000000
00000030
00000000
,
00000001
00000000
00000001
00000000
,
00001000
00001000
00001000
00001000
,
00000200
00000000
00000000
00000000
,
00000300
00000000
00000000
00000000
,
00010000
00001000
00010000
00001000
,
00010000
00000000
01000000
00000000
,
10000000
01000000
10000000
00000000
,
00200000
00300000
02000000
03000000
,
00001000
00010000
00001000
00010000
,
00001000
00000000
00000100
00000000
,
00000001
00000010
00000001
00000000
,
00000020
00000030
00000200
00000300
,
00010000
00000100
00010000
00000100
,
00010000
00000000
00001000
00000000
,
00100000
00001000
00100000
00000000
,
00020000
00000000
20000000
30030000
,
10010000
00000000
00000000
00000000
,
00011000
00000000
00000000
00000000
,
00010000
00001000
00000100
00000001
,
00000020
00000000
00000000
00000030
,
00001001
00000000
00000000
00000000
,
00000100
00000000
00000000
00000000
,
00011000
00000000
00000000
00000000
,
01000000
00000000
00000000
00000000
,
10000000
00000000
01000000
00000000
,
10000000
00000000
01000000
00000000
,
00100000
00000000
00000000
00000000
,
00022000
00000000
00000000
00033000
,
00001000
00010000
00001000
00000000
,
00020000
00030000
00000200
00000300
,
00000010
00000001
00000010
00000000
,
00000002
00000003
00000200
00000300
,
00001000
00010000
00001000
00000000
,
01000000
00010000
00100000
00010000
,
02000000
00000000
00100000
03100000
,
00200000
00000000
00000000
00300000
,
10010000
00000000
00000000
00000000
,
00002000
00000000
00000000
00000000
,
00003000
00000000
00000000
00000000
,
;

//---------------dance-double - ----------------
#NOTES:
     dance-double:
     :
     Medium:
     8:
     0.326136,0.399517,0.360908,0.235010,0.000000,272.000000,229.000000,43.000000,28.000000,0.000000,0.000000,0.326136,0.399517,0.360908,0.235010,0.000000,272.000000,229.000000,43.000000,28.000000,0.000000,0.000000:
00000000
00000000
00000000
00000000
,
00000000
00000000
00000000
00000000
,
00011000
00000000
00002000
00010000
,
00103000
00000000
01000000
00000000
,
10010000
00000000
20000000
00100000
,
30010000
00000000
00100000
00010000
,
00110000
00000000
00001000
00000010
,
00001010
00000000
00000000
00000010
,
00000100
00000000
00000100
00000010
00000100
00000000
00001001
00000000
,
00000001
00000000
00000100
00000000
00001000
00010000
00001000
00000000
,
00012000
00100000
00010000
00100000
,
00010000
01000000
00010000
01003000
,
02010000
00100000
00010000
03100000
,
10000000
01000000
00100000
00001000
,
00021000
00000010
00001000
00000010
,
00001000
00000100
00001000
00030100
,
00001000
00000001
00002002
00003003
,
00001000
00000000
00000001
00000000
00000010
00000100
00000000
00000000
,
00000001
00000001
00000100
00001000
,
00000001
00000001
00000010
00001000
,
00010000
00010000
01000000
10000000
,
00010000
00100000
10000000
00000000
,
10000000
10000000
01000000
00010000
,
10000000
10000000
00100000
00010000
,
00001000
00001000
00000100
00000001
,
00001000
00000010
00001001
00000000
,
00000012
00000000
00000013
00000100
,
00001200
00000000
00000000
00000000
00010300
00001000
00010000
00000000
,
00021000
00000000
00130000
01000000
,
01100000
00000000
00000000
00100000
01000000
00000000
00000000
00000000
,
10000000
01100000
00001000
01100000
,
10000000
01000000
00010000
00001000
,
00000100
00000000
00000010
00000100
00000010
00000000
00000010
00000000
,
00002002
00000000
00000000
00003003
,
00000010
00001001
00000100
00001010
,
00010010
00000000
00000000
00000000
00000010
00010000
00001000
00000000
,
00011000
00100000
00011000
01000000
,
00010000
01000000
20020000
30030000
,
00100000
10010000
01000000
00110000
,
00101000
00000000
00000000
00000000
00100000
00001000
00010000
00000000
,
00011000
00000000
00001000
00010000
00000000
00010000
00001000
00000000
,
00000100
00000010
00000220
00000330
,
00000001
00001100
00010000
00001100
,
00010100
00000000
00000000
00000000
00001000
00100000
00010000
00000000
,
10000000
01010000
00001000
01010000
,
01001000
00000000
00100000
00000000
00010000
01000000
00001000
00000000
,
00101000
00000000
00000000
00000000
00001000
00010000
00000100
00000000
,
00010010
00000000
00000010
00001000
,
00000001
00000001
00000010
00000010
,
00001000
00000000
00010000
00000000
00100000
00000000
10000000
01000000
,
20000000
00000000
00000000
00000000
,
00010000
00000000
00010000
30000000
,
00020000
00000000
00100000
00000000
,
00001000
00000000
00000000
00030000
,
00002000
00000000
00000100
00000000
,
00000010
00000000
00000100
00003000
,
00000002
00000000
00000010
00000000
,
00001003
00000100
00000001
00000010
,
00001001
00000000
00000100
00000000
00000010
00000000
00001000
00000100
,
00001000
00000000
00000000
00000000
00010000
00000000
01000000
00100000
,
01000000
00010000
10000000
01000000
,
00010000
00000000
00000000
00000000
00000010
00000001
00000010
00000000
,
00000012
00001003
00002010
00003100
,
00020100
00031000
00201000
01300000
,
21000000
00000000
00000000
00000000
30010000
00000000
00100000
00001000
,
00020000
00000100
00001000
00030010
,
00000120
00000000
00000000
00000000
,
00002030
00000000
00000000
00000000
,
00003000
00000000
00000000
00000000
,
;

//---------------dance-double - ----------------
#NOTES:
     dance-double:
     :
     Hard:
     11:
     0.434049,0.485127,0.377694,0.092325,0.046163,362.000000,317.000000,45.000000,11.000000,0.000000,0.000000,0.434049,0.485127,0.377694,0.092325,0.046163,362.000000,317.000000,45.000000,11.000000,0.000000,0.000000:
00000000
00000000
00000000
00000000
,
00000000
00000000
00000000
00000000
,
00011000
00000000
00000000
00000000
00000000
00100000
01000000
00000000
,
01000000
00000000
00000000
00000000
10000000
01000000
00010000
00000000
,
00001000
00000000
00000000
00010000
00000000
00000000
00000010
00000000
,
00000100
00000010
00000101
00001010
,
00010100
00000000
00000000
00100000
00000000
00000000
00010000
00000000
,
11000000
00000000
00000000
00000000
00000000
00100000
01000000
00000000
,
01000000
00000000
00000000
00010000
00002000
00000000
00000000
00000000
,
00003010
00000001
00000100
00001000
00100000
00010000
01000000
10000000
,
01000000
10010000
00100000
01001000
,
00100000
00001000
00010000
00000000
00000010
00010000
00001000
00000000
,
00000020
00000000
00000001
00000000
00000130
00001000
00000010
00000000
,
00010000
00001100
00010000
00001010
,
00000100
00001001
00000010
00010100
,
00000010
00010000
00001000
00000000
00100000
00001000
00010000
00000000
,
02000000
00100000
10000000
13000000
,
00100000
00000000
00011000
00000000
00000010
00000100
00000000
00000000
,
00000010
00000010
00001000
00000001
,
00000010
00000000
00000100
00000000
00000001
00000100
00000010
00000000
,
00010000
00001000
01000000
00010000
,
10000000
00000000
01100000
00000000
00010000
00100000
01000000
10000000
,
01000000
01000000
10000000
00100000
,
10000000
00000000
01000000
00000000
00010000
00001000
00000100
00000000
,
00000010
00001000
00000100
00000000
00001000
00000001
00000100
00000001
,
00000001
00000110
00001100
00000011
,
00001001
00000000
00000000
00000000
00000001
00000010
00000100
00001000
,
00001200
00010000
00001000
00010300
,
01001000
00000000
00000000
00000000
01000000
00100000
00010000
00001000
,
00012000
00100000
00023000
00000100
,
00031000
00000000
01000000
00100000
10000000
00000000
01000000
00100000
,
00010000
00000000
00101000
00000000
00010000
00000010
00000100
00000000
,
00000001
00000000
00001001
00000000
00000001
00000100
00001000
00000000
,
00011000
00000000
00000000
00000000
00000000
00000000
00000000
00010000
00100000
00000000
01000000
00000000
00100000
00000000
01000000
00000000
,
01000000
00000000
10010000
00000000
00010000
10000000
01000000
00100000
,
00010000
00000000
00101000
00000000
00010000
00000100
00000010
00000001
,
00000100
00000000
00001010
00000000
00000001
00001000
00000001
00000000
,
00000110
00001000
00010000
00001000
00000100
00000000
00000010
00000000
,
00000100
00000000
00001001
00000000
00001000
00000001
00000100
00000010
,
00001000
00000000
00010010
00000000
00001000
01000000
00100000
10000000
,
01000000
00000000
00110000
00000000
10000000
00010000
10000000
00000000
,
01100000
00010000
00001000
00010000
01000000
00000000
01100000
00000000
,
10010000
00000000
00100000
10000000
01000000
00000000
00100000
00001000
,
00010000
00000000
00101000
00000000
00010000
00000010
00001000
00000001
,
00000100
00000000
00000010
00000100
00000010
00000100
00000010
00000000
,
00000110
00000000
00001001
00000000
00000110
00001000
00010000
00000000
,
01100000
00000000
00000000
10000000
00000000
00010000
00001000
00000000
,
00000110
00000000
00000001
00000001
,
00001001
00000000
00000010
00000100
00000010
00000000
00000001
00000000
,
00000010
00000001
00000100
00001000
00100000
00010000
01000000
10000000
,
02000000
00000000
00000000
00000000
,
00100000
00000000
00010000
00000000
,
03002000
00000000
00000000
00000100
00000000
00000000
00000000
00000000
,
00000000
00010000
00000000
00003010
00000000
00000001
00001000
00000000
,
00001001
00000000
00000000
00000000
00000000
00000000
00000000
00000000
00000011
00000000
00000000
00000001
00000000
00000000
00000100
00000000
,
00000010
00000000
00000000
00001000
00000000
00000000
00001000
00000000
00000100
00000000
00000000
00010000
00000000
00000000
00010000
00000000
,
00100000
00000000
01000000
00000000
,
00100000
10000000
01000000
00010000
00000010
00001000
00000100
00000001
,
00000100
00000000
00000000
00000000
00001100
00000000
00000000
00000000
00000010
00000000
00000000
00000001
00001000
00000000
00000010
00000000
,
00010000
00000000
00000000
00000000
00001000
00000000
00000000
00000000
01000000
00000000
00000000
00100000
01000000
00000000
00010000
00000000
,
10000000
11000000
00100000
00001000
,
00000010
00000000
00000000
00000000
00000101
00000000
00000000
00000000
00000010
00000000
00000000
00000001
00001000
00000000
00000001
00000000
,
00000100
00000000
00000000
00000100
00000010
00000000
00001000
00000000
00000001
00000000
00000000
00000001
00000010
00000000
00000100
00000000
,
00010000
00000000
00000000
00010000
00001000
00000000
00100000
00000000
00010000
00000000
00000000
00010000
01000000
00000000
10000000
00000000
,
02000000
00100000
00100000
03100000
,
00100000
10000000
01000000
00010000
00000010
00001000
00000100
00000001
,
00000200
00000000
00000000
00000000
,
00002300
00000000
00000000
00000000
,
00003000
00000000
00000000
00000000
;

//---------------dance-single - ----------------
#NOTES:
     dance-single:
     :
     Challenge:
     14:
     0.695437,0.843517,0.142684,0.520379,0.663063,580.000000,563.000000,17.000000,62.000000,0.000000,0.000000,0.695437,0.843517,0.142684,0.520379,0.663063,580.000000,563.000000,17.000000,62.000000,0.000000,0.000000:
// measure 0
0000
0000
0000
0000
,  // measure 1
0000
0000
0000
0000
,  // measure 2
1000
0001
0100
0001
0000
0010
0001
0100
,  // measure 3
1000
0000
0100
0001
0000
0001
1000
0000
0010
0000
1000
0001
1000
0000
0010
0000
,  // measure 4
0100
0001
1000
0001
0000
0010
0001
0100
,  // measure 5
0000
0000
0010
0000
1000
0100
1000
0100
0010
0001
0010
0001
0100
0010
0100
0010
,  // measure 6
1000
0000
0000
0101
0000
0001
0010
1000
,  // measure 7
0010
0000
0001
0100
0000
0100
0010
0000
1000
0000
0001
0010
0000
0010
0001
0000
,  // measure 8
0200
0000
0000
0000
0000
0000
0000
0000
0310
1000
0010
1000
0001
1000
0001
0000
,  // measure 9
0100
0001
0100
0001
1000
0001
1000
0000
0010
1000
0001
1000
0010
0100
0001
0100
,  // measure 10
0010
0000
0000
0000
1000
0000
1001
0000
0001
0010
0100
1000
0100
0010
0001
0000
,  // measure 11
1000
0010
0000
0010
0100
0000
0102
0000
0000
0000
1003
0000
0010
0000
0001
0000
,  // measure 12
0010
1000
0000
1000
0001
0000
0100
0010
1000
0000
1002
0000
0003
0000
0101
0000
,  // measure 13
0000
0000
0100
0000
0010
1000
0010
1000
0001
0100
0001
0100
0010
0000
0000
0000
,  // measure 14
0110
0000
0000
0000
1000
0000
0001
0000
0010
0001
0010
0001
0100
0010
0100
0000
,  // measure 15
0010
1000
0000
1000
0100
0000
2100
0000
0000
0000
3001
0000
0010
0000
0001
0000
,  // measure 16
0201
0000
0000
0001
0000
0000
1300
0000
0010
1000
0000
1000
0100
0010
0001
0000
,  // measure 17
0100
0010
0000
0010
0100
0000
0001
1000
0000
1000
0002
0000
0000
0000
0003
0000
,  // measure 18
0100
0000
0001
0000
0010
0000
0001
0000
1000
0000
0000
0010
0000
0000
1000
0000
,  // measure 19
0001
0000
0000
0101
0000
0000
0100
0000
0010
0000
0000
1010
0000
0000
1000
0000
,  // measure 20
0001
0000
0000
0101
0000
0000
0100
0000
1000
0000
0000
1100
0000
0000
0100
0000
,  // measure 21
0001
0000
0000
0011
0000
0000
0010
0000
0100
1000
0100
1000
0001
0010
0001
0100
,  // measure 22
0010
1000
0001
1000
0100
1000
0001
0010
,  // measure 23
0001
0000
0100
0010
1010
0000
1001
0000
,  // measure 24
0100
0000
0010
0000
1000
0000
0010
0000
0100
0001
0100
0001
1000
0001
1000
0001
,  // measure 25
0010
0001
0010
0001
0100
0010
0100
0010
1000
0100
0010
0001
0100
0010
1000
0100
,  // measure 26
0010
0000
0001
0000
1000
0000
0001
1000
0001
1000
0010
0000
0100
0000
0001
0000
,  // measure 27
0100
0010
1000
0001
0200
0320
2030
3200
,  // measure 28
0310
0001
1000
0001
0000
0100
0001
0010
,  // measure 29
0001
1000
0000
1000
0100
0000
1000
0000
0010
0100
0010
0000
0100
0000
0001
0000
,  // measure 30
1000
0100
1000
0001
0010
0100
0010
0001
,  // measure 31
1000
0010
1000
0000
0001
0100
1000
0100
,  // measure 32
0002
0000
0000
0000
2003
0000
0000
0000
3010
0100
0010
0100
0010
0100
0010
0100
,  // measure 33
0001
1000
0000
1000
0001
0000
0100
0001
0000
0001
0100
0000
0010
0000
1000
0001
,  // measure 34
1000
0100
0001
0100
1000
0010
0001
0010
,  // measure 35
1000
0000
0001
0100
0000
0100
0001
0000
0020
0000
0230
0000
2300
0000
3200
0000
,  // measure 36
0310
0001
1000
0001
0100
0000
0010
1000
,  // measure 37
0001
0000
0000
0000
1000
0010
1000
0000
0001
0100
0001
0100
0001
0100
0001
0100
,  // measure 38
0010
0000
1000
0001
1000
0000
0001
0000
0100
0000
0001
0000
0010
0000
0100
0000
,  // measure 39
0010
0000
0001
1000
0000
1000
0100
0000
2000
0000
3200
0000
0320
0000
0032
0000
,  // measure 40
0103
0000
0010
0000
1000
0000
0100
0000
1000
0000
0001
0000
1000
0001
1000
0000
,  // measure 41
0010
1000
0010
1000
0001
0100
0001
0100
0001
0010
0001
0010
0100
0000
1000
0000
,  // measure 42
0100
0001
0100
1000
0010
0100
0001
0010
,  // measure 43
0001
0000
1000
0010
1000
0010
1000
0000
0002
0000
0203
0000
2300
0000
3200
0000
,  // measure 44
0301
0010
1000
0020
0000
0031
0100
0020
,  // measure 45
0100
0000
0130
0000
0001
0000
1000
0010
1000
0010
0100
0010
0100
0001
0100
0001
,  // measure 46
0100
0010
1000
0010
0000
1000
0001
1000
,  // measure 47
0100
0000
1000
0001
0000
0001
0010
0000
0001
0000
0100
0000
0010
0000
1000
0000
,  // measure 48
0100
0000
1000
0000
0101
0000
0000
0000
0001
0100
0001
0000
1010
0000
0000
0000
,  // measure 49
1000
0001
1000
0001
0010
0100
0010
0100
1000
0100
1000
0100
0010
0001
0010
0001
,  // measure 50
0200
0320
2030
3002
0000
0000
0000
2003
,  // measure 51
0000
0000
0000
0000
0000
0000
0000
0000
3020
0000
0000
0230
0000
0000
0302
0000
,  // measure 52
2003
0000
0000
3020
0000
0000
0000
0230
,  // measure 53
0000
0000
0000
0000
0301
0010
0100
1000
0100
0010
0001
0010
0100
1000
0100
0010
,  // measure 54
0002
0000
2003
0000
3200
0000
2300
0000
3020
0000
0000
0100
0000
0000
1000
0000
,  // measure 55
1000
0000
0000
0100
0000
0000
1000
0000
1000
0000
0000
0100
0000
0000
1000
0000
,  // measure 56
0032
0000
0000
1000
2003
0000
0000
3010
,  // measure 57
0100
0001
0100
0001
1000
0010
1000
0010
0100
0000
0001
0000
1000
0000
0001
0000
,  // measure 58
2000
0000
3020
0000
0032
0000
0023
0000
1030
0100
0000
1000
0000
0001
0000
1000
,  // measure 59
0002
0000
0000
0000
0000
0000
0100
0000
0203
0000
0000
0320
0000
0000
2030
0000
,  // measure 60
3002
0000
1003
0010
0000
0010
0100
0000
0001
0000
1000
0000
0001
0000
0010
0001
,  // measure 61
2000
0000
0000
0000
0000
0000
0000
0000
3020
0000
0000
0230
0000
0000
0302
0000
,  // measure 62
2003
0000
0000
0100
0000
0000
0001
0000
3002
0000
0000
1000
0000
0000
0100
0000
,  // measure 63
0203
0000
0000
0001
0000
0000
0010
0000
0320
0000
0000
1000
0000
0000
0100
0000
,  // measure 64
0130
0000
0010
1000
0000
1000
0010
0000
1000
0000
0001
0100
0000
0001
0100
0000
,  // measure 65
0001
1000
0010
0100
0001
1000
0010
0100
0001
0010
0001
0010
0100
1000
0100
1000
,  // measure 66
0020
0000
0000
0000
,  // measure 67
0130
0000
0000
0000
;
