#TITLE:Disabled the FLAW;
#SUBTITLE:;
#ARTIST:D-crew;
#TITLETRANSLIT:;
#SUBTITLETRANSLIT:;
#ARTISTTRANSLIT:;
#GENRE:;
#CREDIT:;
#BANNER:Disabled the FLAW.png;
#BACKGROUND:Disabled the FLAW-bg.png;
#LYRICSPATH:;
#CDTITLE:./CDTITLES/Song Pack 9.png;
#MUSIC:Disabled the FLAW.mp3;
#OFFSET:-1.521000;
#SAMPLESTART:15.510000;
#SAMPLELENGTH:15.000000;
#SELECTABLE:YES;
#DISPLAYBPM:144.000000:171.000000;
#BPMS:0.000000=171.020996
,12.000000=171.065994
,48.000000=145.160995
,52.000000=170.996994
;
#STOPS:
;
#BGCHANGES:;
#KEYSOUNDS:;
#ATTACKS:;

//---------------dance-single - ----------------
#NOTES:
     dance-single:
     :
     Easy:
     7:
     0.473381,0.483660,0.542756,0.428492,0.007142,164.000000,38.000000,30.000000,0.000000,0.000000,0.000000,0.473381,0.483660,0.542756,0.428492,0.007142,164.000000,38.000000,30.000000,0.000000,0.000000,0.000000:
0000
0000
0000
0000
,
0000
0000
0000
0000
,
0000
0000
0000
0000
,
0010
0000
1100
0000
,
0010
0000
0101
0000
,
1000
0010
1000
0010
,
2000
3100
0020
0031
,
0002
0013
0200
1300
,
0020
0000
0130
1001
,
2000
3100
0002
0103
,
2000
3010
2000
3100
,
0020
0031
2000
3001
,
0220
0000
0000
0330
,
0010
0001
1000
0100
,
0001
0100
0001
0001
,
0100
0010
0001
1000
,
0010
0010
0100
0001
,
1000
0010
0100
1000
,
0100
0010
0100
0010
,
0100
0001
1000
0001
,
0010
0001
0100
1000
,
1000
1100
0100
0101
,
0110
1001
1100
1001
,
1000
1100
0001
0101
,
0011
1001
0101
1001
,
0010
0110
0100
1100
,
1010
1001
1100
1001
,
0010
1010
0001
0011
,
1001
1100
1001
0101
,
2002
0000
0000
3003
,
0100
0000
0010
0100
0000
0000
0100
0000
,
2002
0000
0000
3003
,
0001
0000
1000
0001
0000
0000
0001
0000
,
0002
1000
0100
1003
,
2000
0001
0100
3001
,
0002
0103
2000
3100
,
0002
0103
2000
3100
,
0110
0000
0100
0010
0000
0000
0010
0000
,
0200
1000
1000
1300
,
1001
0000
0001
1000
0000
0000
1000
0000
,
0002
0100
0100
0103
,
1001
0000
1000
0100
0000
0000
0100
0000
,
0020
0001
0001
0031
,
0011
0000
0001
0010
0000
0000
0010
0000
,
0002
1000
1000
1003
,
1001
0000
0001
0100
0000
0000
0110
0000
,
1000
0000
1000
0100
0000
0000
1001
0000
,
0200
0000
0000
0300
,
0000
2002
0000
0000
0000
0000
3003
0000
0000
0000
0000
0000
0000
0000
0000
0000
;

//---------------dance-single - ----------------
#NOTES:
     dance-single:
     :
     Medium:
     11:
     0.554999,0.483660,0.271378,0.142831,0.007142,243.000000,19.000000,10.000000,0.000000,0.000000,0.000000,0.554999,0.483660,0.271378,0.142831,0.007142,243.000000,19.000000,10.000000,0.000000,0.000000,0.000000:
0000
0000
0000
0000
,
0000
0000
0000
0000
,
0000
0000
0000
0000
,
2000
3000
0002
0003
,
0200
0300
0020
0030
,
1000
0001
0010
0100
,
1000
0100
1000
0000
0010
1000
0100
0001
,
0100
1000
0010
0000
1000
0001
1000
0001
,
1000
0000
0100
1001
,
0010
0001
0010
0000
0001
1000
0001
0100
,
0010
0100
0010
0000
1000
0010
1000
0001
,
0100
0001
0100
0000
0100
0001
1000
0001
,
0020
0000
0000
0030
,
1000
0100
0010
0001
1000
0100
0000
0010
,
0001
1000
0100
0010
0001
1000
0000
0010
,
0001
0010
0000
0100
1000
0100
0000
1000
,
0100
0010
0001
1000
0100
0000
0000
0000
,
0001
0010
0100
1000
0001
0010
0000
0100
,
1000
0001
0010
0100
1000
0001
0000
1000
,
0100
1000
0000
0010
0001
0010
0000
0001
,
0010
0100
1000
0001
0010
0000
0000
0000
,
1000
1100
0001
0101
,
0020
1000
1000
1030
,
0001
0011
1000
1010
,
0001
0000
1001
0000
1000
0100
1000
0000
,
0001
0101
1000
1100
,
0020
0001
0001
0031
,
1000
1010
0001
0011
,
1000
0000
1001
0000
0001
0100
0001
0000
,
1001
0000
1000
0001
0000
0001
0000
1000
,
0100
0000
0010
0001
1000
0100
0010
0100
,
0010
0000
0010
0001
0000
0010
0001
0100
,
0010
0100
0010
0000
1000
0010
1000
0000
,
0010
0100
0001
1000
0000
0000
0010
1000
,
0100
0001
0100
0000
0010
0100
0010
0000
,
0001
1000
0001
1000
0000
0000
0010
0001
,
0100
1000
0100
0000
0010
0100
0010
0000
,
1000
0001
1000
0001
0000
0010
0100
1000
,
0100
0010
0001
0000
1000
0100
1000
0000
,
1000
0100
0010
0001
0000
0001
0010
0100
,
1000
1100
0101
1001
,
0001
1000
0001
1000
0000
0010
0100
0001
,
0100
0010
1000
0000
0001
0100
0001
0000
,
0001
0010
0100
1000
0000
1000
0100
0010
,
0001
0101
1100
1001
,
1000
0100
0001
0000
0001
0100
0010
0100
,
0010
0100
1000
0000
1000
0001
1000
0001
,
2000
0000
0000
3000
,
0000
0220
0000
0000
0000
0000
0330
0000
0000
0000
0000
0000
0000
0000
0000
0000
;

//---------------dance-single - ----------------
#NOTES:
     dance-single:
     :
     Hard:
     12:
     0.640697,0.552755,0.271378,0.328510,0.099981,272.000000,19.000000,23.000000,0.000000,0.000000,0.000000,0.640697,0.552755,0.271378,0.328510,0.099981,272.000000,19.000000,23.000000,0.000000,0.000000,0.000000:
// measure 0
0000
0000
0000
0000
,  // measure 1
0000
0000
0000
0000
,  // measure 2
0000
0000
0000
0000
,  // measure 3
2020
3030
0002
0003
,  // measure 4
0220
0330
2000
3000
,  // measure 5
1010
1001
1100
1001
,  // measure 6
0100
0000
0001
0000
0100
0000
0000
0001
0100
0000
0010
0000
1000
0000
0100
0000
,  // measure 7
1000
0000
0010
0000
1000
0000
0000
0010
1000
0000
0010
0000
0100
0000
0001
0000
,  // measure 8
0100
0000
1001
0101
,  // measure 9
0001
0000
0100
0001
0100
0000
0001
0100
0001
0000
0100
0000
0010
0100
0010
0000
,  // measure 10
1000
0000
0100
0000
1000
0000
0000
0100
1000
0000
0100
0000
0010
0000
0001
0000
,  // measure 11
0100
0000
1000
0000
0100
0000
0000
0001
0100
0000
0001
0000
1000
0000
0100
0000
,  // measure 12
2002
0000
0000
3003
,  // measure 13
0010
0000
0001
0000
0100
0000
0001
0100
0001
0000
1000
0000
0100
0000
1000
0000
,  // measure 14
0100
0000
0010
0000
0001
0000
0010
0001
0010
0000
0100
0000
0010
0000
0100
0000
,  // measure 15
1000
0100
0000
0010
0001
0010
0000
0001
,  // measure 16
0010
0100
1000
0100
0001
0000
0000
0000
,  // measure 17
0100
0000
0010
0000
0100
0000
1000
0100
1000
0000
0100
0000
0010
0000
0001
0000
,  // measure 18
0010
0000
0100
0000
0001
0000
0100
0001
0100
0000
0001
0000
0100
0000
1000
0000
,  // measure 19
0100
0010
0000
0001
0100
0001
0000
0010
,  // measure 20
1000
0100
0010
1000
0020
0000
0000
0000
,  // measure 21
0000
0000
2030
0000
0000
3020
0000
0000
,  // measure 22
0000
0032
0000
0000
0023
0000
0000
0000
,  // measure 23
0000
0000
0032
0000
0000
1000
0000
0000
,  // measure 24
0203
0000
0000
0000
0000
1300
0000
0000
,  // measure 25
0200
0000
0010
0000
0000
0001
0300
2000
,  // measure 26
0000
0010
0000
0000
3002
0000
0000
0000
,  // measure 27
0010
0000
0203
0000
0000
1000
0000
0301
,  // measure 28
0000
0100
1100
0000
1000
0100
1000
0000
,  // measure 29
1001
0000
0100
1001
0000
0010
0000
0010
,  // measure 30
1001
0000
0010
0001
1000
0100
0001
0100
,  // measure 31
1000
0000
0100
1100
0000
0100
0010
0001
,  // measure 32
1000
0100
0010
0100
0010
0001
0100
1000
,  // measure 33
0100
0010
0100
0010
0001
1000
0100
0010
,  // measure 34
1000
0100
0010
0001
0010
0001
0010
1000
,  // measure 35
0010
0100
1000
0010
0100
1000
0100
0001
,  // measure 36
0100
0010
0100
0001
0010
0100
1000
0000
,  // measure 37
1010
0010
1000
0001
0010
0100
0001
0100
,  // measure 38
0010
0001
0100
0010
1000
0100
1000
0000
,  // measure 39
0011
0010
0001
1000
0010
0100
1000
0100
,  // measure 40
0010
1000
0100
0010
0001
0100
0001
0000
,  // measure 41
1001
0100
0001
0100
1000
0100
0001
0100
,  // measure 42
0010
0100
0001
1000
0100
0010
0100
0010
,  // measure 43
0001
1000
0010
0001
0010
0100
1000
0100
,  // measure 44
0001
0100
0001
0010
1000
0010
0001
0000
,  // measure 45
0010
0000
0100
0000
1000
0000
0000
0100
1000
0000
0100
0000
0010
0000
0001
0000
,  // measure 46
1000
0000
0001
0000
1000
0000
0000
0100
0010
0000
0100
0000
0010
0000
0001
0000
,  // measure 47
2002
0000
0000
3003
,  // measure 48
0000
0220
0000
0000
0000
0000
0330
0000
0000
0000
0000
0000
0000
0000
0000
0000
;

//---------------dance-double - ----------------
#NOTES:
     dance-double:
     :
     Easy:
     4:
     0.389724,0.345472,0.114264,0.257095,0.007142,165.000000,8.000000,18.000000,0.000000,0.000000,0.000000,0.389724,0.345472,0.114264,0.257095,0.007142,165.000000,8.000000,18.000000,0.000000,0.000000,0.000000:
00000000
00000000
00000000
00000000
,
00000000
00000000
00000000
00000000
,
00000000
00000000
00000000
00000000
,
00011000
00000000
00001000
00000000
,
00010000
00000000
00011000
00000000
,
00000010
00001000
00000010
00001000
,
00000100
00000010
00000001
00000100
,
00001000
00010000
01000000
10000000
,
01000000
00100000
01000000
00100000
,
10010000
01000000
00010000
01000000
,
10000000
01000000
00100000
00010000
,
00100000
01000000
00010000
00001000
,
00022000
00000000
00000000
00033000
,
00010000
00001000
00010000
00001000
,
00000100
00001000
00000100
00001000
,
00000100
00000010
00001000
00000100
,
00000010
00000001
00000100
00001000
,
00010000
00001000
00010000
01000000
,
10000000
00100000
00010000
00100000
,
10000000
01000000
00100000
10000000
,
00100000
00010000
01000000
10000000
,
01000000
00100000
01000000
00010000
,
00100000
01000000
00010000
00001000
,
00010000
00001000
00000100
00001000
,
00000100
00000001
00000010
00001000
,
00000010
00000001
00000100
00000001
,
00000010
00001000
00000010
00000001
,
00000100
00001000
00010000
01000000
,
10000000
01000000
00010000
01000000
,
20020000
00000000
00000000
30030000
,
01000000
00010000
00001000
00010000
,
00022000
00000000
00000000
00033000
,
00001000
00000100
00000010
00000100
,
00000020
00001000
00000100
00001030
,
00000200
00010000
00001000
00010300
,
00002000
01000000
00010000
01003000
,
00020000
10000000
01000000
10030000
,
00100000
01000000
00100000
01000000
,
00010000
10000000
00010000
10000000
,
00100000
10000000
00100000
10000000
,
00010000
00100000
00010000
00100000
,
00200000
00010000
01000000
00310000
,
02000000
00001000
00010000
03001000
,
00020000
00000100
00001000
00030100
,
00002000
00000001
00000100
00003001
,
00000010
00000001
00000100
00001000
,
00010000
00100000
10000000
01000000
,
22000000
00000000
00000000
33000000
,
00000000
20020000
00000000
00000000
00000000
00000000
30030000
00000000
00000000
00000000
00000000
00000000
00000000
00000000
00000000
00000000
;

//---------------dance-double - ----------------
#NOTES:
     dance-double:
     :
     Medium:
     7:
     0.518271,0.518207,0.128548,0.185680,0.007142,232.000000,9.000000,13.000000,0.000000,0.000000,0.000000,0.518271,0.518207,0.128548,0.185680,0.007142,232.000000,9.000000,13.000000,0.000000,0.000000,0.000000:
00000000
00000000
00000000
00000000
,
00000000
00000000
00000000
00000000
,
00000000
00000000
00000000
00000000
,
02000000
00000000
03010000
00000000
,
00002000
00000000
00003100
00000000
,
00020000
00000000
00000000
00000000
00001000
00000000
00000000
00000000
01000000
00000000
00000000
00030000
00001000
00000000
00000000
00000000
,
00100000
00010000
00100000
00000000
00010000
01000000
00010000
00000000
,
10000000
01000000
10000000
00000000
00100000
10000000
00100000
00000000
,
10000000
01000000
10000000
00000000
01000000
00010000
01000000
00000000
,
00010000
00001000
00010000
00000000
00001000
00010000
00001000
00000000
,
00010000
00001000
00000100
00000001
00000010
00000001
00000100
00000000
,
00001000
00010000
00001000
00010000
01000000
10000000
01000000
10000000
,
02000000
00000000
00000000
03000000
,
00100000
10000000
00010000
10000000
01000000
00100000
00000000
01000000
,
00100000
00010000
00000000
01000000
00010000
00001000
00000000
00000000
,
00010000
00001000
00000100
00001000
00000100
00000001
00000000
00000010
,
00000001
00000100
00000000
00000100
00000101
00000000
00000000
00000000
,
00001000
00000010
00000100
00001000
00000100
00001000
00000000
00000100
,
00001000
00010000
00000000
00001000
00010000
01000000
00000000
00000000
,
00100000
00010000
10000000
00010000
10000000
01000000
00000000
00100000
,
00010000
10000000
00000000
10000000
11000000
00000000
00000000
00000000
,
00000000
00000000
20000000
00000000
00000000
30010000
00000000
00000000
,
00000000
00001000
00000000
00000000
00000002
00000000
00000000
00000000
,
00000000
00000000
00001003
00000000
00000000
00010000
00000000
00000000
,
20000000
00000000
00000000
00000000
00000000
30200000
00000000
00000000
,
01000000
00000000
01300000
00000000
00000000
00002000
00000000
01000000
,
00000000
01003000
00000000
00000000
00020000
00000000
00000000
00000000
,
00001000
00000000
00031000
00000000
00000000
00011000
00000000
00011000
,
00000000
00001000
00010000
00000000
00010000
00001000
00000100
00000000
,
00000001
00000000
00001000
00000100
00000000
00000010
00000000
00000001
,
00001000
00000000
00000010
00000100
00001000
00000000
00000100
00001000
,
00010000
00000000
00010000
00001000
00000000
00100000
00010000
01000000
,
00010000
10000000
01000000
00000000
10000000
01000000
10000000
00000000
,
00100000
10000000
01000000
00010000
01000000
10000000
01000000
00000000
,
00010000
01000000
00010000
00001000
00010000
00001000
00000100
00000000
,
00000001
00000010
00000001
00000100
00001000
00000100
00000001
00000000
,
00000010
00000001
00000100
00001000
00000100
00000001
00000100
00000000
,
00000100
00001000
00000100
00001000
00000000
00010000
00001000
00010000
,
00000000
00001000
00010000
00001000
00000000
00010000
00011000
00000000
,
00010000
01000000
00010000
01000000
00000000
10000000
01000000
10000000
,
00000000
00100000
01000000
00100000
00000000
01000000
01100000
00000000
,
00010000
00100000
00010000
00100000
00000000
01000000
00100000
01000000
,
00000000
00010000
01000000
00010000
00000000
00010000
00011000
00000000
,
00010000
00001000
00010000
00001000
00000000
00000100
00001000
00000100
,
00000000
00000010
00001000
00000010
00000000
00001000
00001010
00000000
,
00000010
00001000
00000010
00000000
00000100
00001000
00010000
00001000
,
00000100
00001000
00010000
00000000
00001000
00010000
01000000
10000000
,
02000000
00000000
00000000
03000000
,
00000000
20020000
00000000
00000000
00000000
00000000
30030000
00000000
00000000
00000000
00000000
00000000
00000000
00000000
00000000
00000000
;

//---------------dance-double - ----------------
#NOTES:
     dance-double:
     :
     Hard:
     9:
     0.606010,0.552755,0.214246,0.214246,0.035708,267.000000,15.000000,15.000000,0.000000,0.000000,0.000000,0.606010,0.552755,0.214246,0.214246,0.035708,267.000000,15.000000,15.000000,0.000000,0.000000,0.000000:
00000000
00000000
00000000
00000000
,
00000000
00000000
00000000
00000000
,
00000000
00000000
00000000
00000000
,
01001000
00000000
00011000
00000000
,
00010100
00000000
00011000
00000000
,
00001001
00000001
00000110
00000010
,
00000010
00000001
00000100
00001000
00010000
00000100
00010000
00000010
,
00010000
00001000
00100000
00001000
01000000
00001000
00010000
00001000
,
00011000
00000000
00000010
00001000
,
00000100
00010000
00001000
01000000
00010000
10000000
01000000
00100000
,
00010000
00000000
01000000
00000000
00001000
00000000
00000000
00010000
00001000
00000000
00100000
00000000
00010000
00000000
01000000
00000000
,
00001000
00000000
00010000
00000000
00000010
00000000
00000000
00001000
00000100
00000000
00010000
00000000
00001000
00000000
00010000
00000000
,
00022000
00000000
00000000
00033000
,
00100000
10000000
01000000
00010000
01000000
00010000
00001000
00000100
,
00000001
00000010
00001000
00010000
00100000
01000000
00010000
01000000
,
00001000
00010000
00000000
00001000
00010000
01000000
00000000
01000000
,
00010000
00001000
00000010
00000100
00000001
00000000
00000000
00000000
,
00000010
00000001
00000100
00001000
00000100
00001000
00010000
01000000
,
10000000
00100000
00010000
00001000
00000010
00000100
00001000
00000100
,
00010000
00001000
00000000
00010000
00001000
00000100
00000000
00000100
,
00001000
00010000
00100000
01000000
10000000
00000000
00000000
00000000
,
00000000
00000000
02000000
00000000
00000000
03002000
00000000
00000000
,
00000000
00023000
00000000
00000000
00032000
00000000
00000000
00000000
,
00000000
00000000
00203000
00000000
00000000
00302000
00000000
00000000
,
02003000
00000000
00000000
00000000
00000000
03020000
00000000
00000000
,
10000000
00000000
01030000
00000000
00000000
01001000
00000000
00011000
,
00000000
00010100
00000000
00000000
00020000
00000000
00000000
00000000
,
01000000
00000000
01030000
00000000
00000000
01100000
00000000
10010000
,
00000000
01000000
00010000
00000000
00001000
00000100
00000001
00000000
,
00000100
00000000
00000010
00000001
00000000
00000010
00000000
00001000
,
00000010
00000000
00000001
00000100
00001000
00010000
00001000
00000100
,
00000010
00000000
00010000
00001000
00000000
00100000
00010000
01000000
,
00001000
00010000
00000100
00000010
00000001
00000100
00000010
00001000
,
00000001
00000100
00001000
00010000
00001000
00000100
00001000
00010000
,
00100000
10000000
01000000
00100000
00001000
00010000
00100000
00010000
,
00100000
10000000
01000000
00010000
00001000
00000100
00000001
00000010
,
00001000
00010000
00001000
00000010
00001000
00010000
00100000
00000000
,
00100000
10000000
01000000
00010000
00001000
00000100
00000001
00000010
,
00001000
00000010
00000001
00000100
00001000
00100000
00010000
10000000
,
01000000
00010000
10000000
00100000
00010000
01000000
00001000
00000010
,
00000001
00001000
00000100
00000010
00000001
00000100
00001000
00010000
,
00100000
00010000
00001000
00000010
00001000
00010000
00100000
10000000
,
01000000
00100000
00010000
01000000
00001000
00100000
00010000
01000000
,
00001000
00100000
00010000
01000000
00001000
00000100
00000001
00000010
,
00001000
00000010
00000001
00001000
00000100
00000010
00000001
00000000
,
00001000
00000000
00000010
00000000
00000100
00000000
00000000
00000100
00001000
00000000
00010000
00000000
00100000
00000000
01000000
00000000
,
10000000
00000000
01000000
00000000
00010000
00000000
00000000
01000000
00010000
00000000
01000000
00000000
00010000
00000000
00100000
00000000
,
00202000
00000000
00000000
00303000
,
00000000
00022000
00000000
00000000
00000000
00000000
00033000
00000000
00000000
00000000
00000000
00000000
00000000
00000000
00000000
00000000
;

//---------------dance-single - ----------------
#NOTES:
     dance-single:
     :
     Beginner:
     3:
     0.199963,0.200320,0.199963,0.000000,0.000000,84.000000,14.000000,0.000000,0.000000,0.000000,0.000000,0.199963,0.200320,0.199963,0.000000,0.000000,84.000000,14.000000,0.000000,0.000000,0.000000,0.000000:
0000
0000
0000
0000
,
0000
0000
0000
0000
,
0000
0000
0000
0000
,
0010
0000
0110
0000
,
0010
0000
0110
0000
,
1000
0000
1000
0000
,
1000
0000
0010
0000
,
0001
0000
0100
0000
,
0010
0000
0100
0000
,
1000
0000
0001
0000
,
1000
0000
1000
0000
,
0010
0000
1000
0000
,
0110
0000
0000
0000
,
0010
0000
1000
0000
,
0001
0000
0001
0000
,
0100
0000
0001
0000
,
0010
0000
0100
0000
,
1000
0000
0100
0000
,
0100
0000
0100
0000
,
0100
0000
1000
0000
,
0010
0000
0100
0000
,
1000
0000
0100
0000
,
0110
0000
0110
0000
,
1000
0000
0001
0000
,
1001
0000
0110
0000
,
0010
0000
0100
0000
,
1001
0000
0110
0000
,
0010
0000
0001
0000
,
1001
0000
1001
0000
,
1001
0000
0000
0000
,
0100
0000
0000
0100
,
0000
0000
0000
0000
,
0001
0000
0000
0001
,
0000
1000
0000
1000
,
0000
0001
0000
0001
,
0000
0100
0000
0100
,
0000
0100
0000
0100
,
0000
0100
0000
0010
,
0000
1000
0000
1000
,
0000
0001
0000
1000
,
0000
0100
0000
0100
,
0000
1000
0000
0100
,
0000
0001
0000
0001
,
0000
0001
0000
0010
,
0000
1000
0000
1000
,
0000
0001
0000
0110
,
0000
1000
0000
1001
;

//---------------dance-double - ----------------
#NOTES:
     dance-double:
     :
     Beginner:
     1:
     0.189761,0.167826,0.099981,0.000000,0.000000,86.000000,7.000000,0.000000,0.000000,0.000000,0.000000,0.189761,0.167826,0.099981,0.000000,0.000000,86.000000,7.000000,0.000000,0.000000,0.000000,0.000000:
00000000
00000000
00000000
00000000
,
00000000
00000000
00000000
00000000
,
00000000
00000000
00000000
00000000
,
00011000
00000000
00001000
00000000
,
00010000
00000000
00011000
00000000
,
00000010
00000000
00000010
00000000
,
00000100
00000000
00000001
00000000
,
00001000
00000000
01000000
00000000
,
01000000
00000000
01000000
00000000
,
10010000
00000000
00010000
00000000
,
10000000
00000000
00100000
00000000
,
00100000
00000000
00010000
00000000
,
00011000
00000000
00000000
00000000
,
00010000
00000000
00010000
00000000
,
00000100
00000000
00000100
00000000
,
00000100
00000000
00001000
00000000
,
00000010
00000000
00000100
00000000
,
00010000
00000000
00010000
00000000
,
10000000
00000000
00010000
00000000
,
10000000
00000000
00100000
00000000
,
00100000
00000000
01000000
00000000
,
01000000
00000000
01000000
00000000
,
00100000
00000000
00010000
00000000
,
00010000
00000000
00000100
00000000
,
00000100
00000000
00000010
00000000
,
00000010
00000000
00000100
00000000
,
00000010
00000000
00000010
00000000
,
00000100
00000000
00010000
00000000
,
10000000
00000000
00010000
00000000
,
10010000
00000000
00000000
00000000
,
01000000
00000000
00001000
00000000
,
00011000
00000000
00000000
00000000
,
00001000
00000000
00000010
00000000
,
00000010
00000000
00000100
00000000
,
00000100
00000000
00001000
00000000
,
00001000
00000000
00010000
00000000
,
00010000
00000000
01000000
00000000
,
00100000
00000000
00100000
00000000
,
00010000
00000000
00010000
00000000
,
00100000
00000000
00100000
00000000
,
00010000
00000000
00010000
00000000
,
00100000
00000000
01000000
00000000
,
01000000
00000000
00010000
00000000
,
00010000
00000000
00001000
00000000
,
00001000
00000000
00000100
00000000
,
00000010
00000000
00000100
00000000
,
00010000
00000000
10000000
00000000
,
01100000
00000000
00000000
00000000
;

//---------------dance-single - ----------------
#NOTES:
     dance-single:
     :
     Challenge:
     13:
     0.748841,0.829132,0.257095,0.242812,0.185680,332.000000,18.000000,17.000000,0.000000,0.000000,0.000000,0.748841,0.829132,0.257095,0.242812,0.185680,332.000000,18.000000,17.000000,0.000000,0.000000,0.000000:
// measure 0
0000
0000
0000
0000
,  // measure 1
0000
0000
0000
0000
,  // measure 2
0000
0000
0000
0000
,  // measure 3
2002
3003
0220
0330
,  // measure 4
2002
0000
0000
0000
3003
0000
0000
0000
1000
0010
1000
0000
0000
0000
0000
0000
,  // measure 5
1001
0101
0110
1010
,  // measure 6
0100
0000
0001
0000
0100
0000
0000
0010
0100
0000
0001
0000
0010
0000
0100
0000
,  // measure 7
1000
0000
0001
0100
0001
0000
1000
0010
1000
0000
0001
0000
0100
0010
0100
0000
,  // measure 8
2002
0000
3003
0000
0220
0330
0220
0330
,  // measure 9
1001
0000
0100
0010
1000
0000
0010
0100
0001
0000
1000
0000
0001
0100
0001
0000
,  // measure 10
0100
0000
0100
0000
0010
0000
0000
1000
0010
0000
0100
0010
1000
0000
0001
0000
,  // measure 11
1000
0000
0100
0000
0010
0000
0000
0001
1000
0000
0010
0000
1000
0000
0001
0000
,  // measure 12
0200
0000
0000
0000
,  // measure 13
0310
0000
0010
0000
1000
0000
1000
0100
0001
0000
0001
0000
0100
0000
0100
0000
,  // measure 14
0010
0000
0010
0000
0001
0000
0001
1000
0010
0000
0010
0000
0100
0000
0100
0000
,  // measure 15
0001
0100
1000
0100
0001
1000
0000
0010
,  // measure 16
0100
0000
0001
0000
0100
0000
0010
0000
1000
0001
1000
0000
1001
0000
0000
0000
,  // measure 17
0001
0000
0100
0000
0010
0000
0100
1000
0001
0000
0010
0000
1000
0000
0010
0000
,  // measure 18
0001
0000
0100
0000
0010
0000
0100
0001
1000
0000
0001
0000
1000
0000
0100
0000
,  // measure 19
0001
0000
0100
0000
1000
0000
0010
0100
0010
0000
0100
0000
0000
0000
0010
0000
,  // measure 20
1000
0000
0100
0000
1000
0000
0001
0100
0001
0000
0100
0000
0100
0000
0010
0000
,  // measure 21
0010
1000
0001
0100
0010
0100
0001
1000
,  // measure 22
0001
0100
0001
0100
0010
1000
0010
0100
,  // measure 23
0001
0100
1000
0010
1000
0100
0000
1000
,  // measure 24
0001
0000
0100
0000
0010
0000
0100
0001
0100
0000
0001
0000
1000
0000
0010
0000
,  // measure 25
0100
0010
1000
0100
0001
0100
1000
0000
,  // measure 26
0001
0000
0100
0000
0001
0000
1000
0010
1000
0000
0001
0000
0100
0000
0010
0000
,  // measure 27
0100
0000
0001
0000
0010
0000
0100
1000
0100
0000
1000
0000
0000
0000
0000
0000
,  // measure 28
0000
0000
0100
0000
0010
0000
0000
0000
1000
0001
1000
0001
1000
0000
0001
0000
,  // measure 29
1001
0000
0100
0110
0000
1010
0000
0001
,  // measure 30
0101
0000
1000
0010
0100
0001
1000
0010
,  // measure 31
0100
0000
0001
0100
0000
0001
0100
0001
,  // measure 32
1000
0010
1000
0001
0100
0010
0100
0001
,  // measure 33
1000
0010
0100
0010
1000
0001
0100
0001
,  // measure 34
1000
0001
0100
0010
0100
0010
1000
0001
,  // measure 35
1000
0001
0100
0010
1000
0010
0100
0001
,  // measure 36
0010
0100
1000
0001
1000
0010
0100
0010
,  // measure 37
1000
0100
0010
0001
0010
1000
0100
1000
,  // measure 38
0010
1000
0010
0001
0100
0010
0100
0001
,  // measure 39
1000
0001
1000
0100
0010
0100
1000
0001
,  // measure 40
0100
0010
0100
0001
0010
0100
1000
0001
,  // measure 41
1000
0010
0100
0010
0100
0001
0010
0100
,  // measure 42
1000
0010
0001
0010
0100
0010
1000
1000
,  // measure 43
0001
0001
0100
0010
1000
0001
0010
0001
,  // measure 44
1000
0001
0100
0010
0100
0001
0010
0100
,  // measure 45
1000
0000
1000
0000
0001
0000
0000
0001
0100
0000
0010
0000
0100
0000
0001
0000
,  // measure 46
0010
0000
0100
0000
1000
0000
0000
0001
0100
0000
0001
0000
1000
0000
0010
0000
,  // measure 47
0220
0000
0000
0330
,  // measure 48
0000
2002
0000
0000
0000
0000
3003
0000
0000
0000
0000
0000
0000
0000
0000
0000
;
