#TITLE:dazzle;
#SUBTITLE:;
#ARTIST:kobo feat. kr\:agué;
#TITLETRANSLIT:;
#SUBTITLETRANSLIT:;
#ARTISTTRANSLIT:;
#GENRE:;
#CREDIT:;
#BANNER:dazzle.png;
#BACKGROUND:dazzle-bg.png;
#LYRICSPATH:;
#CDTITLE:;
#MUSIC:dazzle.ogg;
#OFFSET:0.000000;
#SAMPLESTART:80.809998;
#SAMPLELENGTH:15.000000;
#SELECTABLE:YES;
#DISPLAYBPM:98.000000;
#BPMS:0.000000=98.093002
,4.000000=98.003998
;
#STOPS:
;
#BGCHANGES:;
#KEYSOUNDS:;
#ATTACKS:;

//---------------dance-single - ----------------
#NOTES:
     dance-single:
     :
     Beginner:
     2:
     0.080871,0.095123,0.009280,0.000000,0.000000,61.000000,60.000000,1.000000,0.000000,0.000000,0.000000,0.080871,0.095123,0.009280,0.000000,0.000000,61.000000,60.000000,1.000000,0.000000,0.000000,0.000000:
0000
0000
0000
0000
,
0000
0000
0000
0000
,
0000
0000
0000
0000
,
0100
0000
0000
0000
,
0000
0000
0000
0000
,
0001
0000
0000
0000
,
1000
0000
0000
0000
,
0100
0000
0000
0000
,
0010
0000
0000
0000
,
1001
0000
0000
0000
,
1000
0000
1000
0000
,
0010
0000
0000
0000
,
0100
0000
0100
0000
,
0001
0000
0001
0000
,
1000
0000
1000
0000
,
0010
0000
0100
0000
,
0010
0000
0100
0000
,
0001
0001
0000
0000
,
0010
0010
0000
0000
,
1000
1000
0000
0000
,
0100
0100
0000
0000
,
0001
0000
0000
0000
,
0001
0000
0000
0000
,
1000
0000
0000
0000
,
1000
0000
0001
0000
,
0010
0000
0100
0000
,
1000
0000
0000
0000
,
0010
0000
0100
0000
,
0001
0000
0000
0000
,
0000
1000
0000
0001
,
0000
1000
0000
0001
,
0000
0010
0000
0100
,
0000
0010
0000
0100
,
0100
0000
1000
0000
,
0010
0000
0000
0000
,
0100
0000
0001
0000
,
0010
0000
0000
0000
,
0100
0000
1000
0000
,
0001
0000
0000
0000
,
0100
0000
0001
0000
,
1000
0000
0010
0000
,
0100
0000
0000
0000
,
0000
0000
0000
0000
;

//---------------dance-single - ----------------
#NOTES:
     dance-single:
     :
     Easy:
     4:
     0.159091,0.228296,0.083523,0.204167,0.000000,120.000000,111.000000,9.000000,22.000000,0.000000,0.000000,0.159091,0.228296,0.083523,0.204167,0.000000,120.000000,111.000000,9.000000,22.000000,0.000000,0.000000:
0000
0000
0000
0000
,
0000
0000
0000
0000
,
0000
0000
0000
0000
,
0220
0000
0330
0000
,
0000
0000
0000
0000
,
1001
0000
0100
0000
,
0100
0000
0100
1001
,
0010
0000
0010
0000
,
0010
0000
0100
0000
,
1001
0010
0002
0003
,
0000
0100
0001
1000
,
0200
0300
0000
0010
,
0002
0003
2000
3000
,
0001
0100
0001
0100
,
0010
1000
0010
1000
,
0100
0010
0100
0010
,
0001
1000
0001
1000
,
0010
0020
0030
0001
,
0010
0020
0030
1000
,
0100
0200
0300
0001
,
0100
1000
0010
0100
,
0200
0300
0000
0000
,
0020
0030
0000
0000
,
2000
3000
0000
0000
,
0200
0300
0020
0030
,
0001
2000
3000
0002
,
0003
0100
0001
0100
,
0001
2000
3000
0200
,
0300
0010
0001
0010
,
0001
1001
0100
0010
,
0100
0110
0001
1000
,
0001
1001
1000
0100
,
0010
0110
0100
1000
,
0020
0030
0001
0100
,
0001
1000
0001
0100
,
0020
0030
1000
0100
,
1000
0001
1000
0100
,
0020
0030
0001
1000
,
0100
0001
0100
1000
,
0020
0030
1000
0001
,
0100
1000
0100
0001
,
1001
0000
0000
0000
,
0000
0000
0000
0000
;

//---------------dance-single - ----------------
#NOTES:
     dance-single:
     :
     Medium:
     8:
     0.262500,0.285370,0.129924,0.120644,0.000000,198.000000,184.000000,14.000000,13.000000,0.000000,0.000000,0.262500,0.285370,0.129924,0.120644,0.000000,198.000000,184.000000,14.000000,13.000000,0.000000,0.000000:
0000
0000
0000
0000
,
0000
0000
0000
0000
,
0000
0000
0000
0000
,
0220
0300
0200
0300
,
0200
0300
0130
0010
,
1001
0100
0000
0001
0000
0100
0000
1000
,
0000
0010
0000
0001
0000
0010
0000
1000
,
0001
1000
0000
0100
0000
0001
0000
0100
,
0000
1000
0000
0010
0000
0100
0000
0001
,
1000
0000
0001
0000
0100
0001
0010
0000
,
0100
0000
1000
0100
1000
0000
0100
0000
,
0020
0001
0031
1000
,
0020
0000
0001
0000
0100
0000
1030
0001
,
1001
0000
0100
0000
0001
0000
0100
0010
,
0010
0000
1000
0000
0010
0000
1000
0100
,
0100
0000
1000
0000
0100
0000
1000
0001
,
0001
0000
0010
0000
0100
0000
1000
0001
,
1000
0000
1100
0000
0010
0000
0001
1000
,
0010
0000
1010
0000
0100
0000
0001
1000
,
0100
0000
0110
0000
0001
0000
1000
0100
,
0010
0000
1001
0000
0100
0001
0010
0100
,
2000
0000
0000
0000
0000
0000
3000
0010
,
0020
0001
0100
1030
,
0002
0000
0000
0000
0000
0000
0003
0010
,
0200
0000
0300
0100
1000
0010
0100
0001
,
1000
0000
0010
0000
0100
0000
0001
0200
,
1000
0010
0001
0310
,
1000
0000
0001
0000
0100
0000
1000
0200
,
0001
0000
0310
2000
0001
0000
3100
0010
,
0001
0000
1100
0000
0001
0001
0010
0000
,
0100
0000
1010
0000
0001
0001
0100
0000
,
0010
0000
0101
0000
1000
1000
0010
0000
,
0001
0001
0010
0000
1000
1000
0100
0010
,
0001
1100
1000
0010
,
0100
0001
1000
0010
0000
0100
0100
0000
,
0001
0101
0010
1000
,
0100
1000
0001
0010
0000
0100
0100
1000
,
1001
0000
0001
0000
0100
0100
0001
0000
,
0010
0000
0100
1000
0100
0010
0010
0000
,
0001
0000
1000
0000
0100
0100
1000
0000
,
0010
0000
0100
0001
0100
0010
0010
1000
,
1001
0000
0000
0000
,
0000
0000
0000
0000
;

//---------------dance-single - ----------------
#NOTES:
     dance-single:
     :
     Hard:
     10:
     0.352652,0.365876,0.148485,0.167046,0.148485,266.000000,250.000000,16.000000,18.000000,0.000000,0.000000,0.352652,0.365876,0.148485,0.167046,0.148485,266.000000,250.000000,16.000000,18.000000,0.000000,0.000000:
0000
0000
0000
0000
,
0000
0000
0000
0000
,
0000
0000
0000
0000
,
2100
0000
0000
0100
0000
0000
0000
0000
0001
0000
0000
0001
0000
0000
0000
0000
,
0010
0000
0000
0010
0000
0000
0000
0000
0001
0000
0000
3001
0000
0000
0000
0000
,
0012
0000
0000
0010
0000
0000
0000
0000
1000
0000
0000
1000
0000
0000
0000
0000
,
0100
0000
0000
0100
0003
0000
0100
0000
0010
0000
0000
1000
0000
0000
0001
0000
,
2001
0000
0000
0001
0000
0000
0000
0000
0100
0000
0000
0100
0000
0000
3002
0000
,
1000
0000
0000
1000
0000
0000
0103
0000
0000
0000
0100
0000
0001
0000
0010
0000
,
1001
0000
0100
0000
1000
0100
0001
0000
,
1000
0000
0100
0000
0010
0000
0001
0000
0001
0000
0000
1000
0000
0000
0010
0000
,
2000
0000
0010
0000
0010
0000
3010
0100
,
0002
0000
0000
0010
0000
0000
2000
0000
0000
0000
0000
0000
3003
0000
0000
0000
,
1001
0001
0100
0000
1000
0100
0001
0000
,
1000
0000
0001
0000
0010
0000
0100
0000
1000
0001
0000
1000
0001
0000
0100
0000
,
0001
1000
0100
0000
0001
0100
1000
0000
,
0001
0000
1000
0000
0100
0000
0010
0000
0001
1000
0000
0001
1000
0000
0010
0000
,
0210
0000
0001
0000
0310
0001
0010
0100
,
0102
0000
1000
0000
0103
1000
0100
0010
,
2010
0000
0100
0000
3010
1000
0100
0010
,
0012
0000
0100
0000
0013
0001
0100
0010
,
0200
0001
0000
0001
0000
0010
0000
0320
,
0000
0100
0000
0100
0000
1000
0000
1030
,
2000
0001
0000
0001
0000
0100
0000
3100
,
0200
0010
0000
0310
0020
0001
0000
0031
,
1001
0000
0000
0001
0100
0000
0000
0000
0100
0000
0001
0000
1000
0000
0000
0000
,
0010
0001
0010
0100
1000
0100
0010
1000
,
0001
0000
0000
0001
1000
0000
0000
0000
0100
0000
1000
0000
0001
0000
0000
0000
,
0010
1000
0010
0100
1000
0010
0100
0001
,
1000
0100
1001
0000
0010
0100
1001
0000
,
1000
0000
0010
0000
0100
0000
0001
0100
0000
0010
1000
0000
1001
0000
0000
0000
,
0001
0010
1001
0000
0100
0010
1001
0000
,
0001
0000
0100
0000
0010
0000
1000
0010
0000
0100
0001
0000
0010
0000
0001
0000
,
1000
0100
0001
0100
0010
0001
0100
1000
,
0100
0000
0010
0000
1000
0000
0001
0010
0000
0010
0001
0000
0100
0000
0010
0000
,
1000
0010
0001
0010
0100
0001
0010
1000
,
0010
0000
0100
0000
1000
0000
0001
0100
0000
0100
0001
0000
0010
0000
0001
1000
,
0001
0100
0010
0001
1000
0001
0010
1000
,
0001
0000
0010
0000
0100
0000
1000
0001
0000
0010
0100
0000
0010
0000
0001
0000
,
1000
0010
0100
1000
0001
1000
0100
0001
,
1000
0000
0100
0000
0010
0000
0001
1000
0000
0100
0010
0000
0001
0000
1000
0000
,
2002
0000
3003
0000
;

//---------------dance-double - ----------------
#NOTES:
     dance-double:
     :
     Easy:
     4:
     0.141856,0.190246,0.055682,0.157765,0.000000,107.000000,101.000000,6.000000,17.000000,0.000000,0.000000,0.141856,0.190246,0.055682,0.157765,0.000000,107.000000,101.000000,6.000000,17.000000,0.000000,0.000000:
00000000
00000000
00000000
00000000
,
00000000
00000000
00000000
00000000
,
00000000
00000000
00000000
00000000
,
00022000
00000000
00033000
00000000
,
00000000
00000000
00000000
00000000
,
00001001
00000000
00000001
00000000
,
00000100
00000000
00001000
00011000
,
00010000
00000000
00100000
00000000
,
10000000
00000000
01000000
00000000
,
10010000
10000000
00010000
00000000
,
01000000
00100000
01000000
00000000
,
00010000
00100000
00010000
00000000
,
00002000
00003000
00020000
00030000
,
00000100
00001000
00000100
00000000
,
00001000
00000010
00001000
00000000
,
00000001
00000100
00000001
00000000
,
00000010
00000001
00000010
00000000
,
00000100
00002000
00003000
00000100
,
00010000
00002000
00003000
00010000
,
00001000
00200000
00300000
00010000
,
01000000
01000000
00100000
00100000
,
20000000
00000000
30000000
00000000
,
02000000
00000000
03000000
00000000
,
00020000
00000000
00030000
00000000
,
00002000
00003000
00000200
00000300
,
00000001
00000010
00000000
00000100
,
00000000
00001000
00000100
00010000
,
00001000
00010000
00000000
00100000
,
00000000
10000000
01000000
10000000
,
00010000
01000000
00010000
01000000
,
00100000
10000000
00100000
10000000
,
01000000
00010000
01000000
00010000
,
00001000
00010000
00001000
00010000
,
00022000
00033000
00001000
00000000
,
00000100
00000100
00000001
00000000
,
00002000
00003000
00000001
00000000
,
00000010
00000010
00001000
00000000
,
00020000
00030000
00001000
00000000
,
00100000
00100000
00010000
00000000
,
20000000
30000000
00100000
00000000
,
01000000
01000000
00010000
00010000
,
10010000
00000000
00000000
00000000
,
00000000
00000000
00000000
00000000
;

//---------------dance-double - ----------------
#NOTES:
     dance-double:
     :
     Medium:
     8:
     0.263826,0.266345,0.157765,0.157765,0.000000,199.000000,182.000000,17.000000,17.000000,0.000000,0.000000,0.263826,0.266345,0.157765,0.157765,0.000000,199.000000,182.000000,17.000000,17.000000,0.000000,0.000000:
00000000
00000000
00000000
00000000
,
00000000
00000000
00000000
00000000
,
00000000
00000000
00000000
00000000
,
00021000
00030000
00002000
00003000
,
00000200
00000300
00000002
00000003
,
00001000
00000001
00000000
00001000
00000000
00000001
00000000
00000100
,
00000000
00001000
00000000
00010000
00000000
00100000
00000000
10000000
,
00000000
00010000
00000000
10000000
00000000
00010000
00000000
00100000
,
00000000
01000000
00000000
00010000
00000000
00001000
00000000
00010000
,
00011000
00000100
00000001
00000010
,
00001000
00010000
00100000
10000000
,
02000000
00000000
00010000
00000000
00100000
00000000
13000000
00100000
,
02000000
00000000
10000000
00000000
00100000
00000000
03010000
10000000
,
10010000
00000000
01000000
00000000
10000000
00000000
00100000
00010000
,
00010000
00000000
00001000
00000000
00000100
00000000
00000010
00001000
,
00001000
00000000
00000100
00000000
00000010
00000000
00000001
00001000
,
00001000
00000000
00000100
00000000
00010000
00000000
00001000
00010000
,
00100000
00000000
02100000
00000000
10000000
00000000
03100000
01000000
,
00010000
00000000
00210000
00000000
01000000
00000000
00310000
00100000
,
00001000
00000000
00021000
00000000
00000100
00000000
00031000
00010000
,
00000100
00000000
00002100
00000000
00003010
00001000
00000100
00000010
,
00000002
00000000
00001000
00000000
00000000
00000000
00001003
00000010
,
00000200
00000001
00000010
00001300
,
00020000
00000000
00001000
00000000
00000000
00000000
00031000
00010000
,
02000000
00000000
13000000
00100000
02000000
00000000
03010000
10000000
,
10010000
00000000
01000000
00000000
10000000
00000000
00100000
00010000
,
00002000
00010000
00100000
00013000
,
00001000
00000000
00000010
00000000
00000001
00000000
00000100
00001000
,
00020000
00001000
00000100
00031000
,
00011000
00000000
00010000
00000000
01000000
01000000
10000000
00000000
,
00100000
01010000
10010000
00110000
,
00001000
00000000
00010000
00000000
00000010
00000010
00000100
00000000
,
00000001
00000001
00000010
00000000
00000100
00000100
00001000
00000010
,
00000100
00000000
00001001
00000000
00000100
00000100
00001000
00000000
,
00001000
00100000
00010000
01000000
00000000
00100000
00100000
00000000
,
10000000
01010000
10000000
01000000
,
00100000
00001000
00010000
00000100
00000000
00001000
00001000
00000001
,
00000100
00000000
00001001
00000000
00000010
00000010
00001000
00000000
,
00001000
01000000
00010000
00100000
00000000
01000000
01000000
00000000
,
10000000
00110000
10000000
00100000
,
01000000
00001000
00010000
00000010
00000000
00001000
00000100
00000010
,
00000110
00000000
00000000
00000000
,
00000000
00000000
00000000
00000000
;

//---------------dance-double - ----------------
#NOTES:
     dance-double:
     :
     Hard:
     10:
     0.339394,0.385133,0.120644,0.241288,0.162405,256.000000,243.000000,13.000000,26.000000,0.000000,0.000000,0.339394,0.385133,0.120644,0.241288,0.162405,256.000000,243.000000,13.000000,26.000000,0.000000,0.000000:
00000000
00000000
00000000
00000000
,
00000000
00000000
00000000
00000000
,
00000000
00000000
00000000
00000000
,
02200000
03000000
20000000
00300000
,
00020000
30000000
00200000
00330000
,
00012000
00010000
00000100
00003100
,
00000021
00000001
00001000
00001030
,
00021000
00001000
00100000
00130000
,
12000000
00000000
10000000
00000000
00010000
00000000
03010000
00100000
,
10010000
00000000
00000000
00000000
01000000
00000000
00010000
10000000
00000000
00000000
00100000
00000000
01000000
00000000
00000000
00000000
,
00001000
00000000
01000000
00000000
00010000
00000000
00100000
00000000
00100000
00000000
00000000
00001000
00000000
00000000
00010000
00000000
,
00000010
00000000
00000000
00001000
00000000
00000000
00000100
00000000
00010000
00000000
00000000
00001000
00000000
00000000
01000000
00000000
,
01010000
00000000
00000000
01100000
00000000
00000000
02020000
00000000
00000000
00000000
00000000
00000000
03030000
00000000
00000000
00000000
,
10000000
00010000
00100000
00100000
01000000
10000000
00100000
01000000
,
00010000
00100000
00001000
00010000
00000100
00001000
00000010
00000100
,
00000001
00001000
00000100
00000100
00000010
00000001
00000100
00000010
,
00001000
00000100
00010000
00001000
00100000
00010000
01000000
00100000
,
20000000
00000000
00010000
00000000
31000000
10000000
00100000
00010000
,
00002000
00000000
00100000
00000000
00013000
00001000
00000100
00000001
,
00002000
00000000
00000010
00000000
00003001
00000010
00000100
00001000
,
00000002
00000000
00000010
00000000
00000103
00001000
00010000
00100000
,
20000000
00000000
00000000
00000000
00000000
00000000
00000000
30010000
,
00000000
00100000
00000000
00100000
02000000
00000000
00000000
00000000
03020000
00000000
00000000
00000000
00032000
00000000
00000000
00000000
,
00003200
00000000
00000000
00000000
00000000
00000000
00000000
00000301
,
00000100
00000010
00000000
00000010
00000100
00000000
00000100
00001000
00000000
00001000
00010000
00000000
00100000
00000000
10000000
00000000
,
10010000
00000000
00000000
01000000
10000000
00000000
00000000
00000000
00010000
00000000
00100000
00000000
01000000
00000000
00000000
00000000
,
10000000
01000000
00010000
00001000
00010000
01000000
00010000
00001000
,
00000100
00000000
00000000
00000001
00000100
00000000
00000000
00000000
00000010
00000000
00001000
00000000
00000001
00000000
00000000
00000000
,
00000100
00000001
00001000
00000010
00000100
00001000
00010000
01000000
,
10000000
00010000
00000000
00010000
10000000
00000000
00000000
01000000
00000000
00000000
00100000
00000000
01000000
00000000
10000000
00000000
,
00010000
00000000
10000000
00010000
00000000
10000000
01000000
00000000
00100000
00010000
00000000
00100000
00001000
00000000
00010000
00000000
,
00000010
00001000
00000000
00001000
00000010
00000000
00000000
00000100
00000000
00000000
00000010
00000000
00000100
00000000
00000001
00000000
,
00000001
00000010
00000000
00000010
00000100
00000000
00000100
00001000
00000000
00001000
00000001
00000000
00000100
00000000
00001000
00000000
,
00012000
00000000
01000000
00000000
00013000
00001000
00100000
00010000
,
01000000
00000000
00100000
00000000
01000000
00000000
00010000
10000000
00000000
10000000
00010000
00000000
01000000
00000000
00001000
00000000
,
00020000
00000000
00000010
00000000
00031000
00010000
00000100
00001000
,
00000010
00000000
00000100
00000000
00000010
00000000
00001000
00000001
00000000
00000001
00001000
00000000
00000100
00000000
00001000
00000000
,
00010200
00000000
00000010
00000000
00010300
00001000
00100000
00001000
,
01000000
00000000
00100000
00000000
10000000
00000000
00010000
01000000
00000000
00010000
10000000
00000000
00100000
00000000
01000000
00000000
,
00002000
00000000
00010000
00000000
01003000
00010000
10000000
00100000
,
00010000
00000000
00001000
00000000
00000100
00000000
00000001
00001000
00000000
00000010
00000100
00000000
00000001
00000000
00000010
00000000
,
00002002
00000000
00003003
00000000
,
00000000
00000000
00000000
00000000
;

//---------------dance-single - ----------------
#NOTES:
     dance-single:
     :
     Challenge:
     14:
     0.628410,0.673983,0.129924,0.139205,0.941952,474.000000,460.000000,14.000000,15.000000,0.000000,0.000000,0.628410,0.673983,0.129924,0.139205,0.941952,474.000000,460.000000,14.000000,15.000000,0.000000,0.000000:
// measure 0
0000
0000
0000
0000
,  // measure 1
0000
0000
0000
0000
,  // measure 2
0000
0000
0000
0000
,  // measure 3
1001
0000
0001
0100
0000
0000
0100
0000
0010
0000
0000
1000
0000
0000
0001
0000
,  // measure 4
0100
0000
0000
0010
0000
0000
1000
0000
0010
0100
0010
0100
0001
0000
0001
1000
,  // measure 5
0001
0000
0100
0000
1000
0000
0000
0100
0001
0000
0000
1000
0000
0000
0001
0000
,  // measure 6
0100
0010
0000
0100
0000
0000
0010
0000
1000
0010
0000
0100
0001
0000
1000
0000
,  // measure 7
2001
0000
0000
0001
0000
0000
0100
0000
0100
0000
0000
0001
0000
0000
3001
0100
,  // measure 8
0010
0100
0000
0001
0000
0000
0001
0010
0001
1000
0001
0010
0100
0000
1000
0100
,  // measure 9
0110
0010
0001
1000
0001
0000
1000
0001
0000
0000
0100
0000
0001
0000
1000
0000
,  // measure 10
0010
0100
0010
0100
0010
0000
1000
0000
0001
0000
0000
0101
0000
0000
0100
0000
,  // measure 11
0010
1000
0010
0100
0001
0000
0001
0010
0001
0100
0010
0100
0010
1000
0100
0010
,  // measure 12
0002
0100
0000
0203
0000
0000
0320
0000
1030
0100
1000
0001
0100
0100
0000
0010
,  // measure 13
1000
0000
0001
0000
1000
0000
0100
0000
0001
0000
0100
0000
1000
0000
0010
0000
0001
0000
0010
0000
1000
0000
0100
1000
0100
0000
0010
0000
0001
0000
0100
0000
,  // measure 14
0010
1000
0100
1000
0001
0010
0001
0100
0010
1000
0100
1000
0001
0100
0010
1000
,  // measure 15
0100
0010
0100
1000
0001
0100
1000
0100
0001
0010
0001
1000
0001
1000
0001
0010
,  // measure 16
0100
0010
1000
0010
0100
1000
0001
0010
0100
1000
0001
0010
0001
0100
0010
0010
,  // measure 17
1000
0100
1000
0001
0100
0001
1000
0100
1000
0001
0010
0100
0001
0100
1000
0010
,  // measure 18
0100
0001
0010
0001
0100
0010
1000
0010
0100
0001
0010
0100
1000
0100
0010
0001
,  // measure 19
0100
0010
1000
0100
1000
0010
0100
0001
1000
0010
0100
0001
0010
0100
0001
0100
,  // measure 20
1000
0010
0100
0001
0010
0001
1000
0010
1001
1000
0010
0100
0010
0100
0001
1000
,  // measure 21
1002
0000
0100
0000
0000
0000
0100
0000
0000
0000
0100
0000
0000
0000
0103
0001
,  // measure 22
0010
1000
0010
0000
0001
0000
0000
0000
0010
0100
0001
0100
0010
1000
0010
0100
,  // measure 23
0020
0001
0000
1000
0000
0001
0000
1030
,  // measure 24
0100
0010
0001
1000
0000
0000
0001
1000
0000
0001
0100
0010
0100
0001
0100
0000
,  // measure 25
1100
0000
0000
0100
0001
0000
0100
0000
1000
0010
1000
0010
0100
0000
0101
0000
,  // measure 26
0001
0100
0000
0100
0010
0000
0100
0010
1000
0100
1000
0000
0001
0100
0001
0000
,  // measure 27
0001
1000
0010
0100
0001
0000
0220
0000
0000
0000
0000
0330
1001
0000
2002
0000
,  // measure 28
0000
0000
0000
0000
0000
0000
3003
0000
0100
0010
1000
0010
0100
0001
0100
0010
,  // measure 29
0100
0000
0000
0100
0001
0000
1000
0001
1000
0000
0000
1000
0010
0000
0100
0000
,  // measure 30
0010
0000
0000
0000
0000
0000
0010
0000
0100
0000
0000
0000
0001
1000
0001
1000
0001
0000
0000
0000
0100
0010
0100
0010
0100
0000
0000
0000
0001
0000
0010
0000
,  // measure 31
1000
0000
0010
0000
0100
0000
1000
0000
0001
0000
0010
0000
0001
0000
1000
0000
0100
0000
0010
0000
0001
0000
0010
0100
0010
0000
0100
0000
0010
0000
1000
0000
,  // measure 32
0010
0001
1000
0001
0100
0010
0000
1000
0100
0001
0100
1000
0010
0100
1010
0000
,  // measure 33
0101
0000
0010
0000
0100
0000
1000
0001
1000
0010
0000
0100
0010
0000
1000
0001
,  // measure 34
1000
0100
0000
0001
0100
0001
0100
0010
0100
0010
1000
0000
0001
0100
1000
0100
,  // measure 35
0002
0000
0100
0000
1003
0000
1000
0100
0001
0100
1000
0001
1000
0000
0001
0100
,  // measure 36
0010
0100
0001
0000
1000
0010
1000
0000
0010
0100
0000
0010
0100
0001
0100
0010
,  // measure 37
2000
0000
0001
0000
3100
0010
0001
0010
0100
1000
0100
0010
1000
0010
0100
0001
,  // measure 38
0100
0010
1000
0010
0100
0000
0001
0100
0000
0001
1000
0010
1000
0001
1000
0000
,  // measure 39
0010
0100
0002
0000
1003
0000
0010
1000
0010
0100
0001
1000
0001
0000
0100
0010
,  // measure 40
1000
0001
1000
0001
1000
0010
0100
0000
0100
0010
1000
0010
0100
0001
0100
0001
,  // measure 41
2002
0000
3003
0000
;

//---------------dance-single - OLD CHALLENGE----------------
#NOTES:
     dance-single:
     :
     Edit:
     12:
     0.536932,0.596956,0.111364,0.129924,0.696023,405.000000,393.000000,12.000000,14.000000,0.000000,0.000000,0.536932,0.596956,0.111364,0.129924,0.696023,405.000000,393.000000,12.000000,14.000000,0.000000,0.000000:
0000
0000
0000
0000
,
0000
0000
0000
0000
,
0000
0000
0000
0000
,
1001
0000
0000
0001
0000
0000
0100
0000
0010
0000
0000
0100
0000
0000
0001
0000
,
0100
0000
0000
0010
0000
0000
1000
0000
0010
0000
0100
0010
0100
0000
0001
1000
,
0001
0000
0100
0000
1000
0000
0000
0100
0001
0000
0000
1000
0000
0000
0001
0000
,
0100
0010
0000
0100
0000
0000
0010
0000
1000
0010
0000
0100
0001
0000
1000
0000
,
2001
0000
0000
0001
0000
0000
0100
0000
0100
0000
0000
0001
0000
0000
3001
0000
,
0100
0010
0000
0100
0000
0000
0001
0010
0001
1000
0001
0000
1000
0000
0010
0000
,
0110
0000
0100
0000
0001
0000
1000
0001
0000
0000
0100
0000
0001
0000
1000
0000
,
0010
0100
0010
0100
0010
0000
1000
0000
0001
0000
0000
0101
0000
0000
0100
0000
,
0010
1000
0010
0100
0001
0000
0001
0010
0001
0100
0010
0100
0010
0000
1000
0001
,
1000
0000
0000
0200
0000
0000
0020
0000
0000
0000
0000
0000
0330
0000
0000
0000
,
0000
0001
1000
0000
0001
0100
0000
0010
0100
0000
0001
0000
1000
0010
1000
0000
,
0001
0100
0010
0100
0010
1000
0010
1000
0001
0100
0001
0100
0001
1000
0001
1000
,
0001
0000
0100
1000
0000
0100
1000
0100
0001
0010
0001
1000
0001
1000
0001
0000
,
0100
0010
1000
0010
0100
0000
0001
0000
0100
0010
0100
0000
0010
0000
1000
0000
,
0001
0100
1000
0000
0100
0001
0000
0100
0010
0000
1000
0010
0000
0100
0001
1000
,
0001
0100
0000
0010
0100
0001
0100
0010
1000
0000
0001
0000
1000
0010
1000
0001
,
0100
0000
0000
0000
0001
0000
1000
0000
0001
0100
0001
0000
1000
0010
1000
0010
,
0000
0000
0100
0000
0001
0000
1000
0000
0001
1000
0001
1000
0001
1000
0001
1000
,
0002
0100
0000
0100
0000
0100
0000
0103
,
0010
0000
1000
0000
0010
0000
0000
0000
0010
0100
0001
0100
0010
1000
0010
0100
,
0020
1000
0000
1000
0000
0001
0000
0031
,
0100
0010
0000
1000
0000
0000
0001
1000
0000
0001
0100
0010
0100
0000
0001
0000
,
1100
0000
0000
0100
0001
0000
0100
0000
1000
0010
1000
0010
0100
0000
0101
0000
,
0001
0000
0100
0000
0010
0000
0100
0000
0001
0010
0001
0000
1000
0100
1000
0000
,
0001
1000
0000
0001
0100
0000
0220
0000
0000
0000
0000
0330
1001
0000
2002
0000
,
0000
0000
0000
0000
0000
0000
3003
0000
0100
0010
1000
0010
0100
0001
0100
0010
,
0100
0000
0000
0100
0001
0000
1000
0001
1000
0000
0000
1000
0010
0000
0100
0000
,
0010
0000
0000
0000
1000
0000
0000
0000
0100
0000
0000
0000
0010
0001
0010
0000
0001
0000
0000
0000
1000
0001
1000
0000
0001
0000
0000
0000
0100
0000
0010
0000
,
1000
0000
0010
0000
0100
0000
0001
0000
0100
0000
0010
0000
0100
0000
0001
0000
1000
0000
0000
0000
0000
0000
0010
0100
0010
0000
0100
0000
0010
0000
1000
0000
,
0010
0100
0000
0001
0100
0010
0000
1000
0100
0001
0100
1000
0010
0100
1010
0000
,
0101
0000
0010
0000
0100
0000
1000
0001
1000
0010
0000
0100
0010
0000
1000
0001
,
1000
0000
0000
0001
0100
0001
0100
0010
0100
0010
1000
0000
0001
0100
1000
0100
,
0002
0000
1000
0000
0013
0000
1000
0100
0001
0100
1000
0001
1000
0000
0001
0100
,
0010
0100
0001
0000
1000
0010
1000
0000
0010
0100
0000
0010
0100
0001
0100
0000
,
0020
0000
1000
0000
0130
0010
0001
0010
0100
0000
0100
0010
1000
0010
0100
0001
,
0100
0010
1000
0010
0100
0000
0001
0100
0000
0001
1000
0010
1000
0001
1000
0000
,
0010
0100
0002
0000
1003
0000
0010
1000
0010
0000
0100
0000
0001
0000
0100
0010
,
1000
0001
1000
0001
1000
0000
0001
0000
0100
0010
1000
0010
0100
0001
0100
0001
,
2002
0000
3003
0000
;
