#TITLE:bass 2 bass;
#SUBTITLE:;
#ARTIST:Ryu☆;
#TITLETRANSLIT:;
#SUBTITLETRANSLIT:;
#ARTISTTRANSLIT:;
#GENRE:;
#CREDIT:;
#BANNER:bass 2 bass.png;
#BACKGROUND:bass 2 bass-bg.png;
#LYRICSPATH:;
#CDTITLE:;
#MUSIC:bass 2 bass.ogg;
#OFFSET:0.000000;
#SAMPLESTART:34.285999;
#SAMPLELENGTH:15.000000;
#SELECTABLE:YES;
#DISPLAYBPM:140.000000;
#BPMS:0.000000=140.078003
,4.000000=140.003006
;
#STOPS:
;
#BGCHANGES:;
#KEYSOUNDS:;
#ATTACKS:;

//---------------dance-single - ----------------
#NOTES:
     dance-single:
     :
     Beginner:
     2:
     0.090390,0.135938,0.049432,0.000000,0.000000,64.000000,59.000000,5.000000,0.000000,0.000000,0.000000,0.090390,0.135938,0.049432,0.000000,0.000000,64.000000,59.000000,5.000000,0.000000,0.000000,0.000000:
// measure 0
0000
0000
0000
0000
,  // measure 1
0000
0000
0000
0000
,  // measure 2
0001
0000
0000
0000
,  // measure 3
1000
0000
0000
0000
,  // measure 4
0001
0000
0000
0000
,  // measure 5
0010
0000
0100
0000
,  // measure 6
1000
0000
0000
0000
,  // measure 7
0001
0000
0000
0000
,  // measure 8
1000
0000
0000
0000
,  // measure 9
1001
0000
0000
0000
,  // measure 10
0001
0000
1000
0000
,  // measure 11
0001
0000
0000
0000
,  // measure 12
1000
0000
0001
0000
,  // measure 13
1000
0000
0000
0000
,  // measure 14
0010
0000
0100
0000
,  // measure 15
0010
0000
0000
0000
,  // measure 16
0100
0000
0010
0000
,  // measure 17
0100
0000
0000
0000
,  // measure 18
1001
0000
0000
0000
,  // measure 19
0000
0000
0000
0000
,  // measure 20
1000
0000
0000
0000
,  // measure 21
0001
0000
0000
0000
,  // measure 22
1000
0000
0000
0000
,  // measure 23
0010
0000
0100
0000
,  // measure 24
0001
0000
0000
0000
,  // measure 25
1000
0000
0000
0000
,  // measure 26
0001
0000
0000
0000
,  // measure 27
1001
0000
0000
0000
,  // measure 28
0001
0000
1000
0000
,  // measure 29
0001
0000
0000
0000
,  // measure 30
1000
0000
0001
0000
,  // measure 31
1000
0000
0000
0000
,  // measure 32
0010
0000
0100
0000
,  // measure 33
0010
0000
0000
0000
,  // measure 34
0100
0000
0010
0000
,  // measure 35
0100
0000
0000
0000
,  // measure 36
1001
0000
0000
0000
,  // measure 37
0000
0000
0000
0000
,  // measure 38
0001
0000
0000
0000
,  // measure 39
0100
0000
0000
0000
,  // measure 40
0010
0000
0000
0000
,  // measure 41
1000
0000
0000
0000
,  // measure 42
0001
0000
0000
0000
,  // measure 43
0000
0000
0000
0000
,  // measure 44
0000
0000
0000
0000
,  // measure 45
0000
0000
0000
0000
,  // measure 46
0000
0000
0000
0000
,  // measure 47
1000
0000
0000
0000
,  // measure 48
0001
0000
0000
0000
,  // measure 49
1000
0000
0000
0000
,  // measure 50
0010
0000
0100
0000
,  // measure 51
0001
0000
0000
0000
,  // measure 52
1000
0000
0000
0000
,  // measure 53
0001
0000
0000
0000
,  // measure 54
1000
0000
0000
0000
,  // measure 55
1001
0000
0000
0000
;

//---------------dance-single - ----------------
#NOTES:
     dance-single:
     :
     Easy:
     5:
     0.192079,0.244689,0.049432,0.000000,0.000000,136.000000,131.000000,5.000000,0.000000,0.000000,0.000000,0.192079,0.244689,0.049432,0.000000,0.000000,136.000000,131.000000,5.000000,0.000000,0.000000,0.000000:
// measure 0
0000
0000
0000
0000
,  // measure 1
0000
0000
0000
0000
,  // measure 2
0001
0000
1000
0000
,  // measure 3
0001
0010
0100
0000
,  // measure 4
1000
0000
0001
0000
,  // measure 5
1000
0010
0100
0001
,  // measure 6
1000
0000
0001
0000
,  // measure 7
1000
0010
0100
0000
,  // measure 8
0001
0000
1000
0000
,  // measure 9
0001
0010
0100
1000
,  // measure 10
0001
0000
0100
0000
,  // measure 11
0001
0000
0010
0000
,  // measure 12
0001
0010
0100
0000
,  // measure 13
1000
0001
1001
0000
,  // measure 14
1000
0000
0100
0000
,  // measure 15
1000
0000
0010
0000
,  // measure 16
1000
0010
0100
0000
,  // measure 17
0001
1000
0001
1000
,  // measure 18
1001
0000
0000
0000
,  // measure 19
0000
0000
0000
0000
,  // measure 20
0001
0000
1000
0000
,  // measure 21
0001
0010
0100
0000
,  // measure 22
1000
0000
0001
0000
,  // measure 23
1000
0010
0100
0001
,  // measure 24
1000
0000
0001
0000
,  // measure 25
1000
0010
0100
0000
,  // measure 26
0001
0000
1000
0000
,  // measure 27
0001
0010
0100
1000
,  // measure 28
0001
0000
0100
0000
,  // measure 29
0001
0000
0010
0000
,  // measure 30
0001
0010
0100
0000
,  // measure 31
1000
0001
1001
0000
,  // measure 32
1000
0000
0100
0000
,  // measure 33
1000
0000
0010
0000
,  // measure 34
1000
0010
0100
0000
,  // measure 35
0001
1000
0001
1000
,  // measure 36
1001
0000
0000
0000
,  // measure 37
0000
0000
0000
0000
,  // measure 38
0001
0000
0010
0000
,  // measure 39
0100
0000
1000
0000
,  // measure 40
0010
1000
0100
0010
,  // measure 41
0001
0100
0010
0000
,  // measure 42
1000
0000
0010
0000
,  // measure 43
0100
0000
0001
0000
,  // measure 44
0010
0001
0100
0010
,  // measure 45
1000
0000
0000
0000
,  // measure 46
0000
0000
0000
0000
,  // measure 47
0001
0000
1000
0000
,  // measure 48
0001
0010
0100
0000
,  // measure 49
1000
0000
0001
0000
,  // measure 50
1000
0010
0100
0001
,  // measure 51
1000
0000
0001
0000
,  // measure 52
1000
0010
0100
0000
,  // measure 53
0001
0000
1000
0000
,  // measure 54
0001
0010
0100
1000
,  // measure 55
1001
0000
0000
0000
;

//---------------dance-single - ----------------
#NOTES:
     dance-single:
     :
     Medium:
     9:
     0.382745,0.353439,0.059318,0.019773,0.000000,271.000000,265.000000,6.000000,2.000000,0.000000,0.000000,0.382745,0.353439,0.059318,0.019773,0.000000,271.000000,265.000000,6.000000,2.000000,0.000000,0.000000:
// measure 0
0000
0000
0000
0000
,  // measure 1
0000
0000
0000
0000
,  // measure 2
0001
0000
0010
0000
0100
1000
0010
0000
,  // measure 3
1000
0100
1000
0010
0100
0000
0001
0000
,  // measure 4
1000
0000
0010
0000
0100
0001
0010
0000
,  // measure 5
0001
0100
0001
0010
0000
0100
0000
1000
,  // measure 6
0001
0000
0010
0000
0100
1000
0010
0000
,  // measure 7
1000
0100
1000
0010
0100
0000
0001
0000
,  // measure 8
1000
0000
0010
0000
0100
0001
0010
0000
,  // measure 9
0001
0100
0001
0010
0100
0000
1000
0000
,  // measure 10
0001
0010
0100
1000
,  // measure 11
0010
0000
0100
0000
0001
0100
0001
0000
,  // measure 12
1000
0000
0010
0000
0100
0001
0100
0000
,  // measure 13
0001
0000
0010
0000
0100
1000
0100
0000
,  // measure 14
1000
0000
0010
0000
1000
0100
1000
0000
,  // measure 15
0010
0000
0100
0000
0001
0100
0001
0000
,  // measure 16
0010
0000
0100
0000
1000
0100
1000
0000
,  // measure 17
0001
0000
1000
0000
0010
0100
0010
0000
,  // measure 18
1000
0000
1000
0000
1000
0000
0010
0100
,  // measure 19
0001
0001
0001
0000
,  // measure 20
0001
0000
0010
0000
0100
1000
0010
0000
,  // measure 21
1000
0100
1000
0010
0100
0000
0001
0000
,  // measure 22
1000
0000
0010
0000
0100
0001
0010
0000
,  // measure 23
0001
0100
0001
0010
0000
0100
0000
1000
,  // measure 24
0001
0000
0010
0000
0100
1000
0010
0000
,  // measure 25
1000
0100
1000
0010
0100
0000
0001
0000
,  // measure 26
1000
0000
0010
0000
0100
0001
0010
0000
,  // measure 27
0001
0100
0001
0010
0100
0000
1000
0000
,  // measure 28
0001
0000
0010
0000
0001
0100
0001
0000
,  // measure 29
0010
0000
0100
0000
1000
0100
1000
0000
,  // measure 30
0001
0100
0001
0000
0100
1000
0100
0000
,  // measure 31
0001
0000
0010
0000
0100
1000
0100
0000
,  // measure 32
1000
0000
0010
0000
1000
0100
1000
0000
,  // measure 33
0010
0000
0100
0000
0001
0100
0001
0000
,  // measure 34
1000
0100
1000
0000
0100
0001
0100
0000
,  // measure 35
1000
0000
0010
0000
0100
0001
0100
0000
,  // measure 36
1000
0000
1000
0000
1000
0000
0010
0100
,  // measure 37
0001
0100
1100
0000
,  // measure 38
1000
0000
0000
0010
0000
0000
1010
0000
,  // measure 39
0010
0000
0000
0001
0000
0000
0011
0000
,  // measure 40
0010
0000
0000
1000
0000
0000
1010
0000
,  // measure 41
0010
0000
0000
0100
0000
0000
0110
0000
,  // measure 42
0010
0000
0000
1000
0000
0100
0001
0100
,  // measure 43
1000
0000
0000
0001
0000
0100
1000
0100
,  // measure 44
0001
0000
0000
0010
0000
1000
0010
0001
,  // measure 45
0010
0000
0000
0000
,  // measure 46
0000
0100
0000
0100
0000
0001
0000
0001
,  // measure 47
0001
0010
0100
0000
1000
0010
1000
0000
,  // measure 48
0100
0010
0001
0100
0001
0000
1000
0000
,  // measure 49
0001
0010
0100
0000
1000
0010
1000
0000
,  // measure 50
0100
0010
0001
0100
0000
0100
0000
0001
,  // measure 51
1000
0010
0100
0000
0001
0010
0001
0000
,  // measure 52
0100
0010
1000
0100
1000
0000
0001
0000
,  // measure 53
1000
0000
0010
0000
0100
0001
0010
0000
,  // measure 54
0001
0100
0001
0010
0100
1000
0000
2002
,  // measure 55
3003
0000
0000
0000
;

//---------------dance-single - ----------------
#NOTES:
     dance-single:
     :
     Hard:
     11:
     0.553639,0.570940,0.187842,0.019773,0.113694,392.000000,373.000000,19.000000,2.000000,0.000000,0.000000,0.553639,0.570940,0.187842,0.019773,0.113694,392.000000,373.000000,19.000000,2.000000,0.000000,0.000000:
// measure 0
0000
0000
0000
0000
,  // measure 1
0000
0000
0000
0000
,  // measure 2
0001
0010
0100
1000
0000
1000
0010
1000
,  // measure 3
0100
0010
0001
0100
0001
0000
0000
0000
,  // measure 4
1000
0010
0100
0001
0000
0001
0010
0001
,  // measure 5
0100
0010
1000
0100
0000
0101
0000
1000
,  // measure 6
0001
0010
0100
1000
0000
1000
0010
1000
,  // measure 7
0100
0010
0001
0100
0001
0000
0000
0000
,  // measure 8
1000
0010
0100
0001
0000
0001
0010
0001
,  // measure 9
0100
0010
1000
0100
1000
0001
0000
0100
,  // measure 10
0001
0100
0001
1000
0100
1000
0100
0000
,  // measure 11
1000
0010
0100
0001
0010
0100
1100
0000
,  // measure 12
1000
0010
1010
0000
1000
0010
0001
0000
,  // measure 13
0010
0100
0001
1000
0100
0010
0100
0000
,  // measure 14
1000
0100
1000
0010
0100
0100
0010
0000
,  // measure 15
1000
0010
0100
0001
0010
0100
1100
0000
,  // measure 16
1000
0010
1010
0000
1000
0010
0001
0000
,  // measure 17
0010
1000
0100
0001
0100
1000
0100
0000
,  // measure 18
1100
0100
0100
0100
,  // measure 19
0100
0000
0000
0000
0100
0000
0000
0000
0100
0000
0000
0000
0100
0000
0100
1000
,  // measure 20
0001
0010
0100
1000
0000
1000
0010
1000
,  // measure 21
0100
0000
0010
0000
0001
0000
0100
0000
0001
0000
1000
0000
0100
0000
0100
1000
,  // measure 22
0001
0010
0100
1000
0000
1000
0010
1000
,  // measure 23
0100
0010
0001
0100
0000
1100
0000
0001
,  // measure 24
1000
0010
0100
0001
0000
0001
0010
0001
,  // measure 25
0100
0000
0010
0000
1000
0000
0100
0000
1000
0000
0001
0000
0100
0000
0100
0001
,  // measure 26
1000
0010
0100
0001
0000
0001
0010
0001
,  // measure 27
0100
0010
1000
0100
1000
1100
0000
0011
,  // measure 28
0001
0100
0001
1000
0100
1000
0100
0000
,  // measure 29
1000
0010
0100
0001
0010
0100
1100
0000
,  // measure 30
1000
0010
1010
0000
1000
0010
0001
0000
,  // measure 31
0010
0100
0001
1000
0100
0010
0100
0000
,  // measure 32
1000
0100
1000
0010
0100
0100
0010
0100
,  // measure 33
0001
0010
0100
1000
0010
0100
0001
0000
,  // measure 34
1000
0010
0100
0001
0010
0100
1000
0000
,  // measure 35
0010
1000
0100
0001
0100
1000
0100
0000
,  // measure 36
1100
0000
0000
0000
0100
0000
0000
0000
0100
0000
0000
0000
0100
0000
0100
1000
,  // measure 37
0100
0000
0100
0000
1000
0010
1000
0100
1000
0000
0000
0000
0100
0000
0100
1000
,  // measure 38
0001
0000
0000
0010
0000
0000
0010
0000
0000
0000
0100
0000
0100
1000
0100
0000
,  // measure 39
1000
0000
0000
0010
0000
0000
0010
0000
0000
0000
0100
0000
0100
0001
0100
0000
,  // measure 40
0001
0000
0000
0010
0000
0000
0010
0000
0000
0000
0100
0000
0100
1000
0100
0000
,  // measure 41
1000
0000
0000
0010
0000
0000
0010
0000
0000
0000
0100
0000
0100
0001
0100
0000
,  // measure 42
0001
0000
0000
0010
0000
0000
0010
0000
0100
0000
0001
0000
0100
0000
0100
0000
,  // measure 43
1000
0000
0000
0010
0000
0000
0010
0000
0100
0000
1000
0000
0100
0000
0100
0000
,  // measure 44
0001
0000
1000
0000
0001
0000
0100
0001
0100
0001
0010
0000
0100
0000
1000
0000
,  // measure 45
0010
0000
1000
0000
0100
1000
0100
1000
0100
0000
1000
0000
0010
0000
0000
0000
,  // measure 46
0000
1100
0000
0101
0000
1010
0000
0011
,  // measure 47
0001
0010
0100
1000
0001
1000
0010
1000
,  // measure 48
0100
0000
0010
0000
0001
0000
0100
0000
0001
0000
1000
0000
0100
0000
0100
1000
,  // measure 49
0001
0010
0100
1000
0001
1000
0010
1000
,  // measure 50
0100
0010
0001
0100
0000
1100
0000
0001
,  // measure 51
1000
0010
0100
0001
0010
0100
0100
1000
,  // measure 52
0010
0000
0100
0000
0001
0000
0100
0000
0001
0000
0010
0000
0100
0000
0100
0001
,  // measure 53
1000
0010
0100
0001
0000
0001
0010
0001
,  // measure 54
0100
0010
1000
0100
1000
1100
0000
0022
,  // measure 55
0033
0000
0000
0000
;

//---------------dance-double - ----------------
#NOTES:
     dance-double:
     :
     Easy:
     5:
     0.238686,0.271876,0.059318,0.000000,0.000000,169.000000,163.000000,6.000000,0.000000,0.000000,0.000000,0.238686,0.271876,0.059318,0.000000,0.000000,169.000000,163.000000,6.000000,0.000000,0.000000,0.000000:
00000000
00000000
00000000
00000000
,
00000000
00000000
00000000
00000000
,
00010000
00000000
00100000
00000000
,
10000000
01000000
00010000
00000000
,
00001000
00000000
00000100
00000001
,
00000010
00000001
00000100
00001000
,
00010000
00000000
00100000
00000000
,
10000000
01000000
00010000
00000000
,
00001000
00000000
00000100
00000001
,
00000010
00000001
00000100
00001000
,
00010000
00000000
01000000
00000000
,
10000000
01000000
00010000
00000000
,
00001000
00000100
00000001
00000000
,
00000100
00001000
00011000
00000000
,
00010000
00000000
01000000
00000000
,
10000000
01000000
00010000
00000000
,
00001000
00000100
00000001
00000000
,
00000010
00000001
00000100
00001000
,
00011000
00000000
00000000
00010000
,
00001000
00000000
00000000
00000000
,
00010000
00100000
10000000
01000000
,
10000000
00100000
00010000
00000000
,
00001000
00000010
00000001
00000100
,
00000001
00000010
00001000
00011000
,
00010000
00100000
10000000
01000000
,
10000000
00100000
00010000
00000000
,
00001000
00000010
00000001
00000100
,
00000001
00000010
00001000
00010000
,
00001000
00100000
01000000
10000000
,
00010000
01000000
00001000
00000000
,
00010000
00000010
00000100
00000001
,
00001000
00000010
00000100
00000000
,
00001000
00100000
01000000
10000000
,
00010000
01000000
00001000
00000000
,
00010000
00000010
00000100
00000001
,
00001000
00000010
00000100
00001000
,
00011000
00000000
00000000
00000000
,
00000000
00000000
00000000
00000000
,
00010000
00000000
00100000
00000000
,
10000000
00000000
01000000
00010000
,
00001000
00000000
00000100
00000000
,
00000001
00000000
00000010
00001000
,
00010000
00000000
00100000
00000000
,
10000000
01000000
00010000
00001000
,
00000100
00000001
00000100
00001000
,
00011000
00000000
00000000
00000000
,
00000000
00000000
00000000
00000000
,
00010000
00100000
10000000
01000000
,
10000000
00100000
00010000
00000000
,
00001000
00000010
00000001
00000100
,
00000001
00000010
00001000
00010000
,
00001000
00100000
00010000
01000000
,
10000000
01000000
00010000
00100000
,
00001000
00000100
00000001
00000010
,
00000001
00000100
00001000
00010000
,
00011000
00000000
00000000
00000000
,
00000000
00000000
00000000
00000000
;

//---------------dance-double - ----------------
#NOTES:
     dance-double:
     :
     Medium:
     10:
     0.401106,0.407814,0.138410,0.019773,0.000000,284.000000,270.000000,14.000000,2.000000,0.000000,0.000000,0.401106,0.407814,0.138410,0.019773,0.000000,284.000000,270.000000,14.000000,2.000000,0.000000,0.000000:
00000000
00000000
00000000
00000000
,
00000000
00000000
00000000
00000000
,
00010000
00000000
00100000
00000000
10000000
01000000
10000000
00000000
,
01000000
00100000
00010000
10000000
00100000
00000000
00010000
00000000
,
00001000
00000000
00000010
00000000
00000001
00000100
00000001
00000000
,
00000100
00000010
00001000
00000001
00000000
00000010
00000000
00001000
,
00010000
00000000
00100000
00000000
10000000
01000000
10000000
00000000
,
01000000
00100000
00010000
10000000
00100000
00000000
00010000
00000000
,
00001000
00000000
00000010
00000000
00000001
00000100
00000001
00000000
,
00000100
00000010
00001000
00000001
00000010
00000000
00001000
00000000
,
00100000
00010000
01000000
10000000
,
01000000
00000000
00010000
00000000
00100000
01000000
00010000
00000000
,
00000010
00000000
00001000
00000000
00000100
00000001
00000100
00000000
,
00001000
00000000
00001010
00000000
00000010
00000100
00001000
00000000
,
00100000
00000000
00010000
00000000
01000000
10000000
01000000
00000000
,
00010000
00000000
00110000
00000000
00100000
01000000
00010000
00000000
,
00000010
00000000
00001000
00000000
00000100
00000001
00000100
00000000
,
00001000
00000000
00000001
00000000
00000100
00000010
00000100
00000000
,
00000001
00000000
00000001
00000000
00000001
00000000
00000010
00001000
,
00010000
00010000
00010000
00000000
,
00010000
00000000
00100000
00000000
10000000
01000000
10000000
00000000
,
01000000
00100000
00010000
10000000
00100000
00000000
00010000
00000000
,
00001000
00000000
00000010
00000000
00000001
00000100
00000001
00000000
,
00000100
00000010
00001000
00000001
00000000
00000010
00000000
00001000
,
00010000
00100000
10000000
00000000
01000000
10000000
00100000
00000000
,
01000000
00010000
00100000
01000000
00010000
00000000
00010000
00000000
,
00001000
00000010
00000001
00000000
00000100
00000001
00000010
00000000
,
00000100
00001000
00000010
00000100
00000001
00000100
00000000
00001000
,
00100000
00000000
00010000
00000000
01000000
10000000
01000000
00000000
,
00010000
00000000
00100000
00000000
01000000
00010000
00001000
00000000
,
00000010
00000100
00001000
00000000
00000001
00000100
00000001
00000000
,
00001000
00000000
00001010
00000000
00000010
00000100
00001000
00000000
,
00100000
00000000
00010000
00000000
01000000
10000000
01000000
00000000
,
00010000
00000000
00110000
00000000
00100000
01000000
00010000
00000000
,
00000010
00001000
00000100
00000000
00000001
00000100
00001000
00000000
,
00000001
00000000
00001000
00000000
00000010
00000100
00000010
00000000
,
00000100
00000000
00000100
00000000
00000100
00000000
00000100
00001000
,
00010000
00010000
00011000
00000000
,
00010000
00000000
00000000
00100000
00000000
00000000
10100000
00000000
,
01000000
00000000
00000000
00010000
00000000
00000000
00011000
00000000
,
00001000
00000000
00000000
00000010
00000000
00000000
00000011
00000000
,
00000100
00000000
00000000
00001000
00000000
00000000
00011000
00000000
,
00010000
00000000
00000000
00100000
00000000
10000000
01000000
00010000
,
00001000
00000000
00000000
00000100
00000000
00000001
00000010
00001000
,
00010000
00000000
00000000
00100000
00000000
10000000
01000000
00010000
,
01000000
00000000
00000000
00000000
,
00000000
11000000
00000000
00110000
00000000
01010000
00000000
00001000
,
00010000
00100000
10000000
00000000
01000000
00100000
01000000
00000000
,
10000000
00100000
00010000
00100000
10000000
01000000
00010000
00000000
,
00001000
00000010
00000001
00000000
00000100
00000010
00000100
00000000
,
00000001
00000010
00001000
00000010
00000000
00000101
00000000
00001000
,
00010000
00100000
10000000
00000000
01000000
00100000
01000000
00000000
,
10000000
00100000
00010000
00100000
10000000
01000000
00010000
00000000
,
00001000
00000000
00000010
00000000
00000001
00000100
00000001
00000000
,
00000010
00000100
00001000
00000010
00000100
00001000
00000000
00022000
,
00033000
00000000
00000000
00000000
,
00000000
00000000
00000000
00000000
;

//---------------dance-double - ----------------
#NOTES:
     dance-double:
     :
     Hard:
     13:
     0.549402,0.570940,0.158182,0.019773,0.113694,389.000000,373.000000,16.000000,2.000000,0.000000,0.000000,0.549402,0.570940,0.158182,0.019773,0.113694,389.000000,373.000000,16.000000,2.000000,0.000000,0.000000:
00000000
00000000
00000000
00000000
,
00000000
00000000
00000000
00000000
,
00010000
00100000
10000000
01000000
00000000
01000000
00100000
01000000
,
10000000
00100000
10000000
01000000
00010000
00000000
00000000
00000000
,
00001000
00000100
00000001
00000010
00000000
00000001
00000010
00000001
,
00001000
00000010
00000100
00000001
00000000
00000010
00000000
00001000
,
00010000
00100000
10000000
01000000
00000000
01000000
00100000
01000000
,
10000000
00100000
10000000
01000000
00010000
00000000
00000000
00000000
,
00001000
00000100
00000001
00000010
00000000
00000001
00000010
00000001
,
00001000
00000010
00000100
00000001
00000010
00001000
00000000
00010000
,
00001000
01000000
00010000
10000000
01000000
10000000
01000000
00000000
,
10000000
00100000
01000000
00010000
00100000
01000000
00010000
00000000
,
00000010
00001000
00001010
00000000
00000100
00000001
00000101
00000000
,
00000100
00000001
00000010
00000001
00000100
00001000
00010000
00000000
,
00001000
01000000
00010000
00100000
01000000
00010000
01000000
00000000
,
10000000
00100000
01000000
00010000
00100000
01000000
00010000
00000000
,
00000010
00001000
00000010
00000000
00000100
00000001
00000101
00000000
,
00000001
00000100
00001000
00010000
01000000
10000000
01000000
00000000
,
11000000
01000000
01000000
01000000
,
01000000
00000000
00000000
00000000
01000000
00000000
00000000
00000000
01000000
00000000
00000000
00000000
01000000
00000000
01000000
10000000
,
00010000
00100000
01000000
10000000
00000000
10000000
00100000
10000000
,
01000000
00000000
00010000
00000000
00001000
00000000
00000100
00000000
00000001
00000000
00000010
00000000
00000001
00000000
00000001
00000100
,
00000001
00000010
00000100
00001000
00000000
00001000
00000010
00000100
,
00001000
00010000
01000000
10000000
00000000
11000000
00000000
01000000
,
10000000
00100000
01000000
00010000
00000000
00010000
00100000
00010000
,
01000000
00000000
00100000
00000000
00010000
00000000
00001000
00000000
00000010
00000000
00000001
00000000
00000100
00000000
00000100
00000001
,
00000100
00000010
00001000
00000100
00000000
00000100
00000010
00001000
,
00010000
00100000
10000000
01000000
10000000
11000000
00000000
00110000
,
00010000
01000000
00010000
00100000
01000000
10000000
01000000
00000000
,
00010000
00000010
00001000
00000001
00000010
00000100
00001100
00000000
,
00001000
00000010
00001010
00000000
00001000
00000010
00000100
00000000
,
00001000
01000000
00010000
10000000
01000000
00100000
01000000
00000000
,
10000000
01000000
10000000
00100000
01000000
01000000
00100000
00010000
,
00000010
00000100
00000001
00000010
00000100
00001000
00000001
00000000
,
00001000
00000010
00000100
00000001
00000010
00000100
00001000
00000000
,
00000001
00000100
00001000
00010000
01000000
10000000
01000000
00000000
,
11000000
00000000
00000000
00000000
01000000
00000000
00000000
00000000
01000000
00000000
00000000
00000000
01000000
00000000
01000000
10000000
,
01000000
00000000
01000000
00000000
10000000
00100000
10000000
01000000
10000000
00000000
00000000
00000000
01000000
00000000
01000000
10000000
,
01000000
00000000
00000000
00010000
00000000
00000000
00001000
00000000
00000000
00000000
00010000
00000000
00010000
00001000
00010000
00000000
,
00001000
00000000
00000000
00000100
00000000
00000000
00000001
00000000
00000000
00000000
00000100
00000000
00000100
00000001
00000100
00000000
,
00000001
00000000
00000000
00000010
00000000
00000000
00001000
00000000
00000000
00000000
00000010
00000000
00000010
00001000
00000010
00000000
,
00001000
00000000
00000000
00010000
00000000
00000000
00100000
00000000
00000000
00000000
00010000
00000000
00010000
00100000
00010000
00000000
,
00100000
00000000
00000000
10000000
00000000
00000000
01000000
00000000
10000000
00000000
10000000
00000000
01000000
00000000
00010000
00000000
,
00001000
00000000
00000000
00000100
00000000
00000000
00000001
00000000
00000010
00000000
00000100
00000000
00000010
00000000
00001000
00000000
,
00010000
00000000
00100000
00000000
10000000
00000000
01000000
10000000
01000000
10000000
00100000
00000000
10000000
00000000
01000000
00000000
,
10000000
00000000
00010000
00000000
10000000
00100000
10000000
00100000
01000000
00000000
00010000
00000000
00100000
00000000
00000000
00000000
,
00000000
00110000
00000000
11000000
00000000
01010000
00000000
00011000
,
00001000
00000010
00000100
00001000
00000001
00001000
00000010
00001000
,
00000100
00000000
00000010
00000000
00001000
00000000
00010000
00000000
00100000
00000000
10000000
00000000
01000000
00000000
01000000
10000000
,
00010000
00100000
01000000
10000000
00010000
10000000
00100000
10000000
,
01000000
00100000
00010000
00001000
00000000
00001010
00000000
00000001
,
00001000
00000010
00000100
00000001
00000010
00000100
00000100
00001000
,
00000010
00000000
00000100
00000000
00001000
00000000
01000000
00000000
10000000
00000000
00100000
00000000
01000000
00000000
01000000
00010000
,
10000000
00100000
01000000
00010000
00000000
00010000
00100000
00010000
,
01000000
00100000
00010000
00001000
00000010
00001000
00000000
00002020
,
00003030
00000000
00000000
00000000
,
00000000
00000000
00000000
00000000
;

//---------------dance-single - ----------------
#NOTES:
     dance-single:
     :
     Challenge:
     13:
     0.666626,0.706878,0.316365,0.009886,0.405343,472.000000,440.000000,32.000000,1.000000,0.000000,0.000000,0.666626,0.706878,0.316365,0.009886,0.405343,472.000000,440.000000,32.000000,1.000000,0.000000,0.000000:
// measure 0
0000
0000
0000
0000
,  // measure 1
0000
0000
0000
0000
,  // measure 2
0001
0010
0100
1000
0000
0100
0010
0001
,  // measure 3
0010
0100
1000
0001
1001
0000
0000
0000
,  // measure 4
1000
0010
0001
0010
0000
1000
0100
0001
,  // measure 5
0100
1000
0010
0011
0000
0011
0000
0010
,  // measure 6
1000
0100
0010
0001
0000
0010
0100
1000
,  // measure 7
0100
0001
0010
1000
0010
0001
0100
1000
,  // measure 8
0100
0001
0010
0100
0000
1000
0010
0001
,  // measure 9
0100
0000
0001
0000
0010
0000
1000
0000
0100
0000
1000
0000
0010
0000
0100
0001
,  // measure 10
0100
0000
0010
0000
1000
0100
1000
0100
1000
0100
0000
0000
1000
0001
1000
0001
,  // measure 11
1000
0000
0010
0100
0000
0010
0000
0000
0100
0001
0100
0001
0100
0000
0000
0000
,  // measure 12
0001
0000
0100
0000
1000
0000
0000
0000
0100
0000
0001
0000
0010
0000
0100
0010
,  // measure 13
0100
0010
0100
0010
0100
0010
0100
0010
0100
0000
0010
0000
1001
0000
0000
0000
,  // measure 14
1000
0010
1000
0000
0100
0000
0010
0000
0011
0000
0001
0100
0001
0000
0000
0000
,  // measure 15
0100
0010
0100
0000
0010
1000
0010
0000
1000
0100
1000
0000
0100
0010
0100
0000
,  // measure 16
0010
0001
0101
0000
0100
0010
1000
0100
,  // measure 17
0010
0001
0100
1000
0100
0001
0010
0000
,  // measure 18
0110
0100
1100
1000
,  // measure 19
1001
0000
0000
0000
0001
0000
0000
0000
0101
0000
0000
0000
0100
0000
0010
1000
,  // measure 20
0010
0100
0001
0020
0000
0130
1000
0001
,  // measure 21
1000
0000
0100
0000
0010
0000
0100
0000
1000
0000
0001
0000
0100
0010
0100
0010
,  // measure 22
0100
0001
0010
0001
0000
1000
0100
0010
,  // measure 23
1000
0010
0001
0101
0000
0110
0000
1010
,  // measure 24
1000
0001
0100
0001
0000
1000
0010
0001
,  // measure 25
0100
0000
0001
0000
0010
0000
1000
0000
0001
0000
0100
0000
0010
1000
0010
1000
,  // measure 26
0010
0100
0001
0010
0000
0100
1000
0001
,  // measure 27
0010
0000
0001
0000
0100
0000
0010
1000
0000
0010
0100
0000
0001
0000
0010
0000
,  // measure 28
0001
1000
0100
1000
0010
0100
0010
0000
,  // measure 29
0100
0000
0001
0000
0010
0000
0001
0000
1000
0000
0010
1000
0010
0100
0010
1000
,  // measure 30
0010
0000
0100
0000
0001
0010
0001
0000
0000
0000
1000
0100
1000
0100
1000
0000
,  // measure 31
0001
0000
0000
0010
0000
0000
0001
0000
0100
0010
0100
0000
0010
0000
0000
0000
,  // measure 32
1000
0100
1000
0000
0010
1000
0000
0001
0100
0000
0010
0100
0000
0010
1000
0000
,  // measure 33
0001
0010
0001
0000
0100
0010
0100
0000
0001
1000
0001
0000
1001
0000
0000
0000
,  // measure 34
1000
0010
1000
0001
1000
0000
0001
0000
0100
0001
0000
0100
0000
0000
0010
1000
,  // measure 35
0010
0100
0010
1000
0010
0000
0100
0000
0001
0000
1000
0000
0001
0000
0000
0000
,  // measure 36
1001
0000
0000
0000
1001
0000
0000
0000
0110
0000
0000
0000
0110
0000
0010
1000
,  // measure 37
0010
0000
1000
0000
0100
0010
0100
0010
0001
0000
0000
0000
1000
0000
0010
1000
,  // measure 38
0010
0000
0000
0100
0000
0000
0101
0000
0000
0000
0001
0000
0010
1000
0010
0000
,  // measure 39
0001
0000
0000
0100
0000
1000
0100
0000
0000
0000
0001
0000
0010
0100
0010
0000
,  // measure 40
0001
0000
0000
1000
0000
0000
1010
0000
0000
0000
0010
0000
0100
0001
0100
0000
,  // measure 41
0010
0000
0000
1001
0000
0000
1001
0000
0000
0000
0100
0000
0010
1000
0010
0000
,  // measure 42
0100
0000
0001
0010
0001
0010
0001
0000
0100
0000
0010
1000
0010
0000
1000
0000
,  // measure 43
0100
0000
0010
0000
0001
0100
0001
0000
1000
0001
1000
0000
0100
0000
0010
0000
,  // measure 44
0001
0000
0101
0000
0100
0000
0010
1000
0010
1000
0001
0000
0100
0010
0100
0000
,  // measure 45
0001
0000
0010
0000
0100
1000
0100
1000
0100
0010
0001
0010
0001
0000
1001
0000
,  // measure 46
0000
1100
0000
0110
0000
0011
0000
0101
,  // measure 47
0100
0000
0010
1000
0010
0000
0100
0000
0001
0000
0010
0000
0001
0000
0100
0000
,  // measure 48
1000
0000
0100
0000
0001
0000
0010
0000
0001
0000
0001
0000
0001
0000
0100
0010
,  // measure 49
1000
0100
0010
0001
0000
0100
0010
1000
,  // measure 50
0100
1000
0010
0100
0000
0101
0000
0001
,  // measure 51
0010
1000
0010
0001
0000
0010
0100
1000
,  // measure 52
0100
0000
0010
0000
0001
0000
1000
0010
1000
0000
0001
0000
0100
0000
0010
0100
,  // measure 53
0010
1000
0100
1000
1001
0001
0100
0010
,  // measure 54
0110
0000
0100
0000
0001
0000
0010
0000
0100
1000
0100
0000
1000
0010
1000
0000
,  // measure 55
1001
0000
0000
0000
;
