#TITLE:零 - ZERO -;
#SUBTITLE:;
#ARTIST:TËЯRA;
#TITLETRANSLIT:ZERO;
#SUBTITLETRANSLIT:;
#ARTISTTRANSLIT:;
#GENRE:;
#CREDIT:;
#BANNER:ZERO.png;
#BACKGROUND:ZERO-bg.png;
#LYRICSPATH:;
#CDTITLE:;
#MUSIC:ZERO.ogg;
#OFFSET:0.000000;
#SAMPLESTART:40.009998;
#SAMPLELENGTH:15.000000;
#SELECTABLE:YES;
#DISPLAYBPM:90.000000:180.000000;
#BPMS:0.000000=180.000000
,252.000000=90.000000
,268.000000=180.000000
;
#STOPS:
;
#BGCHANGES:0.000=ZERO.avi=1.000=0=0=0=StretchNoLoop====,
99999=-nosongbg-=1.000=0=0=0 // don't automatically add -songbackground-
;
#KEYSOUNDS:;
#ATTACKS:;

//---------------dance-single - ----------------
#NOTES:
     dance-single:
     :
     Beginner:
     3:
     0.115012,0.172830,0.008751,0.000000,0.000000,92.000000,91.000000,1.000000,0.000000,0.000000,0.000000,0.115012,0.172830,0.008751,0.000000,0.000000,92.000000,91.000000,1.000000,0.000000,0.000000,0.000000:
0000
0000
0000
0000
,
0000
0000
0000
0000
,
0000
0000
0000
0000
,
0000
0000
0000
0000
,
0000
0000
0000
0000
,
0000
0000
0000
0000
,
0000
0000
0000
0000
,
0000
0000
0000
0000
,
0000
0000
0000
0000
,
0000
0000
0000
0000
,
0100
0000
0000
0000
,
0100
0000
0000
0000
,
1000
0000
0000
0000
,
0001
0000
0000
0000
,
0100
0000
0000
0000
,
0100
0000
0000
0000
,
0100
0000
0000
0000
,
0100
0000
0100
0000
,
0100
0000
0000
0000
,
1000
0000
0000
0000
,
0001
0000
0000
0000
,
1000
0000
0000
0000
,
0001
0000
0000
0000
,
0100
0000
0000
0000
,
1000
0000
0000
0000
,
0001
0000
0000
0000
,
1000
0000
1000
0000
,
1000
0000
0000
0000
,
0001
0000
0001
0000
,
0001
0000
0000
0000
,
0001
0000
0001
0000
,
1000
0000
0000
0000
,
1000
0000
1000
0000
,
0001
0000
0000
0000
,
0100
0000
0000
0000
,
0010
0000
0000
0000
,
0100
0000
0100
0000
,
0100
0000
0000
0000
,
0001
0000
0001
0000
,
1000
0000
0000
0000
,
1000
0000
1000
0000
,
0001
0000
0000
0000
,
0100
0000
0000
0000
,
0010
0000
0000
0000
,
0100
0000
0100
0000
,
0100
0000
0000
0000
,
0010
0000
0010
0000
,
0010
0000
0010
0000
,
0010
0000
0000
0000
,
0000
0000
0000
0000
,
0001
0000
0000
0000
,
0010
0000
0000
0000
,
0100
0000
0000
0000
,
1000
0000
0000
0000
,
0001
0000
0000
0000
,
0010
0000
0000
0000
,
0100
0000
0000
0000
,
1000
0000
0000
0000
,
1000
0000
0000
0000
,
0001
0000
0000
0000
,
1000
0000
1000
0000
,
0001
0000
0001
0000
,
0000
0000
0000
0000
,
0100
0000
0100
0000
,
0001
0000
1000
0000
,
0010
0000
0010
0000
,
1000
0000
0001
0000
,
0001
0000
0001
0000
,
1000
0000
0000
0000
,
1000
0000
1000
0000
,
0001
0000
0000
0000
,
0100
0000
0000
0000
,
0010
0000
0000
0000
,
0100
0000
0100
0000
,
0100
0000
0000
0000
,
0010
0000
0010
0000
,
0010
0000
0010
0000
,
0010
0000
0000
0000
,
1000
0000
0001
0000
,
1001
0000
0000
0000
,
0000
0000
0000
0000
;

//---------------dance-single - ----------------
#NOTES:
     dance-single:
     :
     Easy:
     5:
     0.241275,0.311094,0.043754,0.070007,0.000000,193.000000,188.000000,5.000000,8.000000,0.000000,0.000000,0.241275,0.311094,0.043754,0.070007,0.000000,193.000000,188.000000,5.000000,8.000000,0.000000,0.000000:
0000
0000
0000
0000
,
0000
0000
0000
0000
,
0000
0000
0000
0000
,
0000
0000
0000
0000
,
0000
0000
0000
0000
,
0000
0000
0000
0000
,
0000
0000
0000
0000
,
0000
0000
0000
0000
,
0000
0000
0000
0000
,
0000
0000
0000
0000
,
1000
0000
0001
0001
,
1000
0000
0001
0001
,
1000
0000
0001
0001
,
1000
0000
0010
0010
,
1000
0000
1000
0000
,
0100
0010
0100
0000
,
1000
0000
1000
0000
,
0010
0001
0010
0000
,
0100
0000
0100
0010
,
1000
0000
1000
0001
,
0010
0000
0010
0100
,
1000
0000
0100
0000
,
0001
0000
0001
0100
,
0010
0000
0010
1000
,
0100
0000
0100
0010
,
1000
0000
0100
0000
,
0001
0100
0001
0000
,
1000
0010
1000
0000
,
0001
1000
0001
0000
,
1001
0000
0000
0000
,
1000
1000
0100
0001
,
0010
0000
0100
0000
,
0001
0001
0100
1000
,
0010
0000
1000
0000
,
0010
0010
1000
0100
,
0001
0000
1000
0000
,
0100
0100
0010
0001
,
0100
0100
0100
0000
,
0001
0001
0010
0100
,
1000
0000
1000
0000
,
0100
0100
0010
1000
,
0100
0000
0100
0000
,
0010
0010
1000
0001
,
0100
0000
0100
0000
,
1000
1000
0100
0010
,
0001
0000
0001
0000
,
0010
0100
0010
0000
,
1000
0001
1000
0000
,
0002
0000
0000
0000
,
2000
0000
0000
3003
,
1001
0000
0001
0000
,
1000
0000
0010
0000
,
0100
0000
0001
0000
,
1000
1000
0001
0001
,
0110
0000
0100
0000
,
0010
0000
1000
0000
,
0010
0010
0100
0100
,
0010
0100
0010
0000
,
2000
0000
0000
3000
,
0002
0000
0000
0003
,
2000
3000
0002
0003
,
1000
0001
1000
0001
,
1001
0000
0000
0000
,
0100
0000
0100
1000
,
0010
0000
0010
0000
,
0001
0001
0100
1000
,
0100
0010
0100
0010
,
1000
1000
0100
0010
,
0001
0000
0001
0000
,
0010
0010
0100
0001
,
0010
0000
0010
0000
,
0100
0100
0001
1000
,
0010
0000
0010
0000
,
0001
0001
0010
0100
,
1000
0000
1000
0000
,
0100
0010
0100
0000
,
1000
0001
1000
0001
,
2000
0000
0000
0000
,
0002
0000
0000
3003
,
1001
0000
0000
0000
,
0000
0000
0000
0000
;

//---------------dance-single - ----------------
#NOTES:
     dance-single:
     :
     Medium:
     8:
     0.365037,0.525054,0.105011,0.245025,0.000000,292.000000,280.000000,12.000000,28.000000,0.000000,0.000000,0.365037,0.525054,0.105011,0.245025,0.000000,292.000000,280.000000,12.000000,28.000000,0.000000,0.000000:
0000
0000
0000
0000
,
0000
0000
0000
0000
,
0000
0000
0000
0000
,
0000
0000
0000
0000
,
0000
0000
0000
0000
,
0000
0000
0000
0000
,
0000
0000
0000
0000
,
0000
0000
0000
0000
,
0000
0000
0000
0000
,
0000
0000
0000
0000
,
1001
0010
0100
1000
,
0100
0001
0010
1000
,
0001
0100
1000
0010
,
0100
0010
0010
0000
,
1000
0100
0100
0010
,
0001
1000
1000
0100
,
0001
0010
0010
0100
,
1000
0100
0001
0100
,
1001
0010
0010
0100
,
0001
1000
0001
1000
,
0100
0010
0010
1000
,
0100
0000
0010
0000
0001
0100
1000
0000
,
0100
0001
0001
0010
,
0100
1000
1000
0001
,
1000
0001
0001
1000
,
0010
0000
0100
0000
1000
0100
0001
0000
,
1000
0000
1000
0000
1000
0100
0001
0000
,
0001
0000
0001
0000
0001
0100
1000
0000
,
0010
0010
0100
0010
,
2002
3003
0000
0000
,
0020
0000
0030
0000
1000
0100
1000
0000
,
0002
0000
0003
0000
0010
0001
0010
0000
,
1000
0001
0100
0010
,
1000
0000
1000
0000
0001
0100
1000
0000
,
0200
0000
0300
0000
0001
0010
0001
0000
,
2000
0000
3000
0000
0100
1000
0100
0000
,
0001
1000
0010
0100
,
0002
0000
1003
0100
0010
0000
0000
0000
,
2000
0000
3000
0000
0010
1000
0100
0000
,
0020
0000
0030
0000
0001
1000
0010
0000
,
0100
0001
0010
1000
,
0100
0100
0010
0100
,
0002
0000
0003
0000
1000
0100
0010
0000
,
0200
0000
0300
0000
1000
0001
0100
0000
,
0001
0001
1000
1000
,
0010
1000
0001
0100
,
0200
0010
1000
0310
,
0002
1000
0100
1003
,
1000
0001
1000
0001
1000
0001
1000
0000
,
0010
0100
0010
0100
0010
0100
0010
0000
,
0002
0000
0023
0000
,
0230
0000
2300
0000
,
3002
0000
0023
0000
,
0230
1000
2300
0000
,
3001
0000
0000
0000
0001
0010
0001
0000
,
0010
0000
0000
0000
0010
0100
0010
0000
,
0100
0000
0000
0000
0100
1000
0100
0000
,
1000
0000
0000
0000
1000
0001
1000
0000
,
1100
0000
0101
0000
,
1100
0000
0101
0000
,
1000
0001
1000
0001
,
1001
1001
0110
1001
,
1001
0000
0000
0000
,
0100
0000
0001
0000
0100
0100
0100
0000
,
0010
0000
1000
0000
0100
0100
0100
0000
,
0010
0001
1000
0100
,
0010
1000
0001
0100
0010
0000
0010
0000
,
0002
0000
0003
0000
0100
0001
0010
0000
,
0200
0000
0300
0000
1000
0001
0100
0000
,
0010
1000
0100
0001
,
0010
0010
0100
0010
,
2000
0000
3000
0000
0001
0010
0100
0000
,
0020
0000
0030
0000
0001
1000
0010
0000
,
1000
1000
0001
0001
,
0100
0001
1000
0010
,
0020
0100
0001
0130
,
2000
0001
0010
3001
,
0001
1000
0001
1000
0001
1000
0001
0000
,
0100
0010
0100
0010
0100
0010
0100
0000
,
0200
0000
0000
0000
,
0300
0000
0000
0000
,
0000
0000
0000
0000
;

//---------------dance-single - ----------------
#NOTES:
     dance-single:
     :
     Hard:
     11:
     0.532555,0.700072,0.367538,0.271278,0.013126,426.000000,384.000000,42.000000,31.000000,0.000000,0.000000,0.532555,0.700072,0.367538,0.271278,0.013126,426.000000,384.000000,42.000000,31.000000,0.000000,0.000000:
0000
0000
0000
0000
,
0000
0000
0000
0000
,
0000
0000
0000
0000
,
0000
0000
0000
0000
,
0000
0000
0000
0000
,
0000
0000
0000
0000
,
0000
0000
0000
0000
,
0000
0000
0000
0000
,
0000
0000
0000
0000
,
0000
0000
0000
0000
,
1100
0000
0010
0001
0000
0001
0000
0001
,
1000
0010
0000
0001
0000
0010
0000
0001
,
1000
0100
0000
0010
0000
0001
0000
0100
,
1000
0001
0000
0010
0000
0100
0000
0001
,
1000
0000
1000
0001
0000
0010
0000
0100
,
1000
0000
1000
0100
0000
0010
0000
0001
,
1000
0000
1000
0010
0000
0010
1000
0000
,
1000
0000
0001
0000
1000
0100
0010
0001
,
1001
0000
0100
0001
0100
0001
0010
0000
,
0010
0000
0100
1000
0100
1000
0001
0000
,
0001
0000
0010
0100
0010
0100
1000
0000
,
1000
0000
0100
0001
0010
0001
0100
0000
,
0100
0000
1000
0001
1000
0001
0010
0000
,
0010
0000
1000
0010
1000
0010
0001
0000
,
0001
0000
0010
1000
0010
1000
0100
0000
,
0100
1000
0010
0001
,
1000
0001
0100
0000
0010
0100
0001
0000
,
1000
0100
0010
0000
0100
1000
0001
0000
,
1000
0001
0010
0100
1000
0010
0100
0000
,
2002
0000
0000
3003
,
1001
0000
1001
0000
0100
0010
1000
0000
,
0100
0010
0001
1000
0010
1000
0001
0000
,
0001
0010
0100
0000
1000
0100
0010
0000
,
1000
0100
0010
0001
0100
0001
0010
0000
,
0110
0000
0110
0000
0001
1000
0010
0000
,
0100
0001
0010
0000
1000
0001
0010
0000
,
0100
0010
1000
0010
0100
0001
0100
0010
,
1000
0000
0000
0010
0200
0000
0300
0000
,
1001
0000
1001
0000
0010
0200
0001
0000
,
0310
0000
1000
0001
0100
0002
1000
0000
,
1003
0100
0010
0000
0001
0020
0100
0000
,
0031
0000
0100
1000
0010
2000
0100
0000
,
3010
0000
0101
0000
1000
0002
0100
0000
,
0013
0100
1000
0000
0001
2000
0100
0000
,
3001
0000
1100
0000
0100
0020
0001
0000
,
0130
1000
0001
0000
0010
0200
1000
0000
,
0310
0110
1100
0101
,
1020
0230
0302
0103
,
1000
0010
0100
0001
0010
0100
1000
0001
,
0100
1000
0001
0010
1000
0001
0100
0000
,
1001
0000
0000
0000
0001
0010
0100
1000
,
0101
0000
0000
0000
1000
0100
0010
0001
,
0110
0000
0000
0010
0100
0000
0100
0000
,
0011
0000
1100
0000
0001
1000
0100
0000
,
1002
1000
0013
0000
0100
0010
0010
0000
,
2100
0100
3001
0000
0010
0001
0001
0000
,
1200
1000
0310
0000
0100
0001
0001
0000
,
2010
0010
3001
0000
1000
0001
0100
0000
,
2010
3100
0012
0103
,
1000
0010
1010
0000
0001
0100
0101
0000
,
1001
1100
1001
0101
,
1000
0100
0010
0100
0001
0100
1000
0000
,
0020
0000
0000
0000
,
0130
0002
0103
0020
,
1030
0200
0001
1300
,
0100
0000
0001
0000
0100
0010
0100
0000
0001
0000
0010
0000
0100
1000
0100
0000
,
0010
0000
0001
0000
0100
0000
1000
0000
0001
0000
0000
1000
1001
0000
0000
0000
,
0110
0000
1001
0000
0001
0100
1000
0000
,
0010
0001
0100
0000
0010
1000
0100
0000
,
1000
0000
0100
0010
1000
0001
0100
0000
,
0001
1000
0100
0001
0100
0010
1000
0000
,
1100
0000
0101
0000
0001
2000
0100
0000
,
3010
0100
0001
0000
1000
0002
0100
0000
,
0013
0000
0100
1000
0010
0200
0001
0000
,
0310
0000
1000
0010
0001
0020
0100
0000
,
1030
0000
1001
0000
0010
2000
0100
0000
,
3001
1001
0110
1001
,
1000
0100
0001
0100
0010
0001
0010
1000
,
0010
0001
0100
0001
1000
0010
1000
0000
,
0220
0000
0000
0000
,
0330
0000
0000
0000
;

//---------------dance-double - ----------------
#NOTES:
     dance-double:
     :
     Easy:
     6:
     0.256276,0.350036,0.166267,0.070007,0.000000,205.000000,186.000000,19.000000,8.000000,0.000000,0.000000,0.256276,0.350036,0.166267,0.070007,0.000000,205.000000,186.000000,19.000000,8.000000,0.000000,0.000000:
00000000
00000000
00000000
00000000
,
00000000
00000000
00000000
00000000
,
00000000
00000000
00000000
00000000
,
00000000
00000000
00000000
00000000
,
00000000
00000000
00000000
00000000
,
00000000
00000000
00000000
00000000
,
00000000
00000000
00000000
00000000
,
00000000
00000000
00000000
00000000
,
00000000
00000000
00000000
00000000
,
00000000
00000000
00000000
00000000
,
10010000
00000000
00000000
00000000
,
01100000
00000000
00000000
00000000
,
00011000
00000000
00000000
00000000
,
00000110
00000000
00000000
00000000
,
00001001
00001000
00001000
00000000
,
00000100
00000100
00000100
00000000
,
00010000
00010000
00010000
00000000
,
00100000
00100000
00100000
00000000
,
10010000
10000000
00010000
10000000
,
00010000
00000000
00001000
00010000
,
00001000
00010000
00000100
00001000
,
00000100
00000000
00000000
00000000
,
00000010
00000001
00000010
00000001
,
00001000
00000000
00000000
00000100
,
00010000
00000100
00010000
00001000
,
00001000
00001000
00001000
00000000
,
00010000
00010000
00001000
00001000
,
00100000
00100000
00010000
00010000
,
10000000
10000000
00010000
00010000
,
20020000
30030000
00000000
00000000
,
01000000
00100000
01000000
00100000
,
00010000
00000000
00100000
00000000
,
00001000
00010000
00001000
00010000
,
00001000
00000000
00010000
00000000
,
00000100
00001000
00000100
00001000
,
00000001
00001000
00000001
00001000
,
00000001
00000010
00000100
00001000
,
00000010
00000000
00001001
00000000
,
00000100
00010000
00000100
00010000
,
00001000
00000000
00010000
00000000
,
01000000
00100000
01000000
00100000
,
10000000
00000000
00010000
00000000
,
10000000
01000000
10000000
01000000
,
00100000
00010000
00100000
00010000
,
00100000
00000000
00001000
00000000
,
00000100
00000001
00000100
00000001
,
00001000
00000010
00001000
00000010
,
00010000
00010000
00001000
00001000
,
00100000
00000000
00100000
00000000
,
10000000
00010000
10000000
00010000
,
10010000
00000000
00000000
00000000
,
00110000
00000000
00000000
00000000
,
00010100
00000000
00000000
00000000
,
00000110
00000000
00000000
00000000
,
00001001
00000000
00000000
00000000
,
00001010
00000000
00000000
00000000
,
00101000
00000000
00000000
00000000
,
01010000
00000000
00000000
00000000
,
20000000
00000000
00000000
30000000
,
00020000
00000000
00000000
00030000
,
00200000
00000000
00000000
00300000
,
00002000
00000000
00000000
00003000
,
00011000
00000000
00000000
00000000
,
00001000
00000000
00000001
00000000
,
00001000
00000000
00100000
00000000
,
01000000
10000000
00010000
00100000
,
00001000
00000100
00000001
00001001
,
00000010
00010000
00000010
00010000
,
00001000
00000000
00010000
00000000
,
00100000
01000000
00100000
01000000
,
10000000
00000000
00010000
00000000
,
10000000
00100000
10000000
00100000
,
01000000
00010000
01000000
00010000
,
01000000
00000000
00001000
00000000
,
00000010
00000001
00000010
00000001
,
00001000
00000000
00001000
00000000
,
00010000
00001000
00010000
00001000
,
01000000
01000000
01000000
01000000
,
10000000
00010000
00100000
01000000
,
20020000
00000000
00000000
00000000
,
30030000
00000000
00000000
00000000
,
00000000
00000000
00000000
00000000
;

//---------------dance-double - ----------------
#NOTES:
     dance-double:
     :
     Medium:
     8:
     0.335034,0.455047,0.105011,0.201271,0.000000,268.000000,256.000000,12.000000,23.000000,0.000000,0.000000,0.335034,0.455047,0.105011,0.201271,0.000000,268.000000,256.000000,12.000000,23.000000,0.000000,0.000000:
00000000
00000000
00000000
00000000
,
00000000
00000000
00000000
00000000
,
00000000
00000000
00000000
00000000
,
00000000
00000000
00000000
00000000
,
00000000
00000000
00000000
00000000
,
00000000
00000000
00000000
00000000
,
00000000
00000000
00000000
00000000
,
00000000
00000000
00000000
00000000
,
00000000
00000000
00000000
00000000
,
00000000
00000000
00000000
00000000
,
10010000
00000000
00000000
00000000
01000000
00000000
00000000
00100000
,
00010000
00000000
00000000
00000000
00000100
00000000
00000000
00000010
,
00000001
00000000
00000000
00000000
00001000
00000000
00000000
00000100
,
00001000
00000000
00000000
00000000
00010000
00000000
00000000
00001000
,
00010000
00010000
01000000
00100000
,
00010000
00100000
00001000
00010000
,
00001000
00000100
00000010
00000100
,
00000002
00000000
00002000
00003003
,
00001001
00000001
00000100
00001000
,
00010000
00010000
01000000
00100000
,
00010000
10000000
00010000
01000000
,
00001000
00000000
00010000
00000000
00000100
00001000
00000100
00000000
,
00000010
00000001
00000100
00001000
,
00020000
00000000
00001000
00031000
,
00100000
01000000
10000000
00010000
,
01000000
00000000
00010000
00100000
01000000
00000000
00100000
00000000
,
00001000
00001000
00010000
00000100
,
00000010
00000100
00010000
00001000
,
00100000
00000000
01000000
00000000
10000000
00010000
10000000
00000000
,
20020000
00000000
00000000
30030000
,
10000000
00000000
10000000
01000000
00010000
00000000
00001000
00000000
,
00010000
00000010
00000100
00000001
,
00001000
00000000
00000001
00000100
00001000
00000000
00010000
00000000
,
00001000
00100000
01000000
10000000
,
00200000
00300000
02000000
03000000
,
00010000
00000000
00100000
00000000
00010000
00100000
00001000
00000000
,
00010000
00000000
00000010
00000000
00001000
00000010
00001000
00000000
,
00000200
00000300
00000020
00000030
,
00000001
00000000
00000001
00000100
00001000
00000000
00010000
00000000
,
00001000
01000000
00100000
10000000
,
00010000
00000000
10000000
01000000
00010000
00000000
00001000
00000000
,
00010000
00000100
00000010
00000001
,
00000200
00000300
00000020
00000030
,
00001000
00000000
00000100
00000000
00001000
00000100
00010000
00000000
,
00001000
00000000
01000000
00000000
00010000
01000000
00010000
00000000
,
00200000
00300000
02000000
03000000
,
10000000
01000000
00010000
00001000
,
00000100
00000001
00000010
00000100
,
00020000
00000000
00000000
00000000
,
00002000
00000000
00000000
00033000
,
00011000
00000000
00010000
01000000
,
01100000
00000000
10000000
00010000
,
10010000
00000000
00100000
00001000
,
00010000
00000010
00000100
00000001
,
00001001
00000000
00000100
00000010
,
00000110
00000000
00010000
00001000
,
00011000
00000000
00010000
01000000
,
10000000
10000000
10000000
10000000
,
00100000
00000000
01000000
00100000
01000000
00000000
00000000
00000000
,
00001000
00000000
00100000
00010000
00100000
00000000
00000000
00000000
,
00010000
00000000
00000100
00001000
00000100
00000000
00000000
00000000
,
00000010
00001000
00000001
00000100
,
00001001
00000000
00000000
00000000
,
00010000
01000000
10000000
00100000
,
00010000
00001000
01000000
00100000
,
00010000
00001000
00000010
00000001
,
00001000
00000100
00010000
00001000
00100000
00000000
01100000
00000000
,
10000000
00000000
10000000
01000000
00010000
00000000
00001000
00000000
,
00010000
00000100
00000010
00000001
,
00001000
00000000
00000001
00000100
00001000
00000000
00010000
00000000
,
00001000
01000000
00100000
10000000
,
02000000
03000000
00200000
00300000
,
00010000
00000000
01000000
00000000
00010000
01000000
00001000
00000000
,
00010000
00000000
00000100
00000000
00001000
00000100
00001000
00000000
,
00000020
00000030
00000200
00000300
,
00000002
00000003
00002000
00003000
,
00000100
00010000
00001000
00010000
,
00001000
00100000
00010000
10000000
,
00010000
01000000
00010000
00000000
00100000
00000000
00010000
00000000
,
00202000
00000000
00000000
00000000
,
00303000
00000000
00000000
00000000
,
00000000
00000000
00000000
00000000
;

//---------------dance-double - ----------------
#NOTES:
     dance-double:
     :
     Hard:
     13:
     0.483800,0.630065,0.210022,0.087509,0.000000,387.000000,363.000000,24.000000,10.000000,0.000000,0.000000,0.483800,0.630065,0.210022,0.087509,0.000000,387.000000,363.000000,24.000000,10.000000,0.000000,0.000000:
00000000
00000000
00000000
00000000
,
00000000
00000000
00000000
00000000
,
00000000
00000000
00000000
00000000
,
00000000
00000000
00000000
00000000
,
00000000
00000000
00000000
00000000
,
00000000
00000000
00000000
00000000
,
00000000
00000000
00000000
00000000
,
00000000
00000000
00000000
00000000
,
00000000
00000000
00000000
00000000
,
00000000
00000000
00000000
00000000
,
10000000
01000000
00000000
00100000
00000000
00001000
00000000
00000100
,
00000010
00000100
00000000
00000001
00000000
00001000
00000000
00000010
,
00000001
00000010
00000000
00000100
00000000
00010000
00000000
01000000
,
00100000
01000000
00000000
00100000
00000000
10000000
00000000
01000000
,
10000000
00000000
00000000
10010000
00000000
00000000
00000000
00100000
,
00110000
00000000
00000000
00010100
00000000
00000000
00000000
00000010
,
00001010
00000000
00001001
00000000
00000000
00000010
00000010
00000000
,
00010000
00000100
00010000
01000000
,
10010000
00000000
00100000
00000000
01000000
00010000
00001000
00000000
,
00000100
00000000
00000001
00000000
00000010
00000100
00001000
00010000
,
01000000
00000000
00100000
00000000
10000000
00010000
01000000
00000000
,
00100000
00000000
10000000
00000000
00010000
00001000
00010000
00000100
,
00000001
00000000
00000010
00000000
00000100
00001000
00010000
00000000
,
01000000
00000000
10000000
00000000
00100000
01000000
00010000
00001000
,
00000100
00000000
00000010
00000000
00000001
00001000
00000100
00000000
,
00000010
00000000
00000001
00000000
00001000
00010000
00001000
01000000
,
00100000
00000000
00100000
00000000
00010000
00000100
00000001
00000000
,
00000010
00000000
00000010
00000000
00001000
01000000
10000000
00000000
,
01000000
00010000
00001000
00000100
00001000
00010000
00001000
00000010
,
00000002
00000000
00000000
00000003
,
00000001
00000100
00001000
00000000
00000001
00000100
00001000
00000000
,
00000010
00010000
00001000
00000000
00000010
00010000
00001000
00000000
,
00100000
00001000
01000000
00000000
00100000
00001000
01000000
00000000
,
00010000
01000000
10000000
00000000
00010000
01000000
10000000
00000000
,
01000000
00000000
00001000
00000000
00100000
00010000
00001000
00000000
,
00000100
00000000
00000010
00000000
00000001
00000100
00001000
00000000
,
00010000
00100000
10000000
01000000
00010000
00001000
00000010
00000001
,
00000200
00000000
00000000
00002300
00020000
00000000
00033000
00000000
,
10000000
01000000
00010000
00000000
10000000
01000000
00010000
00000000
,
00100000
00001000
00010000
00000000
00100000
00001000
00010000
00000000
,
00000010
00010000
00000100
00000000
00000010
00010000
00000100
00000000
,
00001000
00000100
00000001
00000000
00001000
00000100
00000001
00000000
,
00000100
00000000
00010000
00000000
00000010
00001000
00010000
00000000
,
01000000
00000000
00100000
00000000
10000000
01000000
00010000
00000000
,
00000010
00000000
00000100
00000000
00000001
00000010
00001000
00000000
,
01000000
00000000
00001000
00000000
00100000
00010000
00001000
00000000
,
00000120
00000001
00000100
00002030
,
02003000
00010000
00100000
13000000
,
10000000
01000000
00100000
01000000
00010000
01000000
00001000
00010000
,
00000010
00001000
00000010
00000100
00000010
00000001
00000010
00000100
,
00000110
00000000
00000000
00000000
00000010
00001000
00010000
00100000
,
01100000
00000000
00000000
00000000
00100000
00010000
00001000
00000100
,
00000110
00000000
00000000
00000000
00000100
00001000
00010000
01000000
,
01100000
11000000
01010000
00000000
,
10010000
00000000
00000000
10000000
00010000
00001000
00000100
00000001
,
00001001
00000000
00000000
00000001
00001000
00010000
01000000
10000000
,
10010000
00000000
00000000
01000000
00010000
00000000
00101000
00000000
,
00010000
00001000
00010000
01000000
,
11000000
00100000
00011000
00000100
,
00000011
00000100
00011000
00100000
,
01100000
00000000
00000110
00000000
,
00000010
00000001
00000100
00001000
00010000
00100000
10000000
01000000
,
00020000
00000000
00000000
00000000
,
00031000
00000100
00000001
00000010
,
00000100
00010000
00100000
10000000
,
10000000
10000000
01000000
01000000
00100000
00100000
00010000
00010000
,
00000100
00000100
00001000
00001000
00000001
00000001
00000010
00000010
,
00000001
00000100
00001000
00000000
00000010
00010000
00001000
00000000
,
00100000
00001000
01000000
00000000
00010000
01000000
10000000
00000000
,
10000000
00100000
00010000
00000000
01000000
00001000
00010000
00000000
,
00000100
00010000
00000010
00000000
00001000
00000010
00000001
00000000
,
00000010
00000000
00010000
00000000
00000100
00001000
00010000
00000000
,
00100000
00000000
01000000
00000000
10000000
00100000
00010000
00000000
,
00000100
00000000
00000010
00000000
00000001
00000100
00001000
00000000
,
00100000
00000000
00001000
00000000
01000000
00010000
00001000
00000000
,
00000010
00000001
00000100
00000000
00000001
00000100
00001000
00000000
,
00100000
00010000
01000000
00000000
10000000
01000000
00010000
00000000
,
10000000
00100000
01000000
00100000
00010000
00100000
00001000
00010000
,
00000100
00001000
00000100
00000010
00000100
00000001
00000100
00000000
,
00000220
00000000
00000000
00000000
,
00000330
00000000
00000000
00000000
,
00000000
00000000
00000000
00000000
;

//---------------dance-single - ----------------
#NOTES:
     dance-single:
     :
     Challenge:
     14:
     0.658817,1.050108,0.323783,0.455047,0.253776,527.000000,490.000000,37.000000,52.000000,0.000000,0.000000,0.658817,1.050108,0.323783,0.455047,0.253776,527.000000,490.000000,37.000000,52.000000,0.000000,0.000000:
// measure 0
0000
0000
0000
0000
,  // measure 1
0000
0000
0000
0000
,  // measure 2
0000
0000
0000
0000
,  // measure 3
0000
0000
0000
0000
,  // measure 4
0000
0000
0000
0000
,  // measure 5
0000
0000
0000
0000
,  // measure 6
0000
0000
0000
0000
,  // measure 7
0000
0000
0000
0000
,  // measure 8
0000
0000
0000
0000
,  // measure 9
0000
0000
0000
0000
,  // measure 10
1001
0000
1000
0010
0000
0110
0000
0100
,  // measure 11
0002
1000
0000
0010
0203
1000
0000
0001
,  // measure 12
2300
0010
0000
0020
3000
0000
0230
0000
,  // measure 13
0302
1003
1010
0010
,  // measure 14
0100
0001
0010
0001
1000
0000
1010
0000
,  // measure 15
0010
0100
0001
0010
0100
1000
0010
0100
,  // measure 16
0001
1000
0010
1000
0100
1000
0001
0000
,  // measure 17
0101
0000
0000
0000
0110
0000
0000
0000
0010
0100
0010
0100
0010
0100
0010
0100
,  // measure 18
0010
1000
0001
1000
0010
0100
0001
0010
,  // measure 19
0002
0000
1003
0000
0100
1000
0010
0100
,  // measure 20
0001
0010
0001
1000
0100
0010
0001
0100
,  // measure 21
0020
0000
1030
0000
0001
0001
0001
0000
,  // measure 22
1000
0100
0010
0001
0100
0010
1000
0001
,  // measure 23
1000
0010
0002
0000
0013
1000
0100
0010
,  // measure 24
0002
0000
0000
0000
0103
0000
0001
0100
0002
0000
0000
0000
2003
0000
0000
0000
,  // measure 25
3010
0000
1000
0000
0010
0000
1000
0001
1000
0000
0001
0000
0100
0000
0000
0000
,  // measure 26
0010
1000
0001
1000
0010
0100
0001
0010
,  // measure 27
0001
1000
0001
0000
1000
0000
0100
0000
1000
0000
0010
0000
0100
0000
0001
0000
,  // measure 28
1001
1010
0110
0101
,  // measure 29
0001
0000
0010
0000
0001
0000
1000
0000
0001
1000
0001
1000
0001
1000
0001
1000
,  // measure 30
0001
0100
1000
0100
0001
0010
0001
0100
,  // measure 31
0010
1000
0010
0000
0100
0000
0001
0000
1000
0000
0010
0000
1000
0000
0000
0000
,  // measure 32
0001
1000
0010
1000
0100
1000
0010
1000
,  // measure 33
0001
0010
0001
0000
0100
0000
0000
0000
1020
0000
0000
0000
0230
0000
0000
0000
,  // measure 34
0301
0000
1000
0000
0001
0010
0001
0000
0010
0000
0100
0000
1000
0000
0001
0000
,  // measure 35
2001
3200
0320
0032
,  // measure 36
0103
0010
1000
0100
0001
0100
1000
0001
,  // measure 37
0100
0000
0100
0000
0000
0000
0010
0000
1000
0001
1000
0000
0001
0000
0100
0000
,  // measure 38
0010
1000
0001
0010
0001
1000
0100
1000
,  // measure 39
0010
0100
0001
0020
0100
2030
0001
0000
,  // measure 40
3001
0100
1000
0100
0002
0000
0013
0001
,  // measure 41
0200
0000
0310
1000
0002
0000
1003
0010
,  // measure 42
0100
0010
0001
0010
1000
0000
0001
1000
,  // measure 43
0001
0010
0000
0000
0010
0001
0000
0000
0001
0100
0000
0000
0100
1000
0000
0000
,  // measure 44
2000
0000
3100
0000
0001
0010
0001
0100
,  // measure 45
0010
1000
0000
0000
1000
0001
0000
0000
0001
0100
0000
0000
0100
0010
0000
0000
,  // measure 46
0010
1000
0000
0000
1000
0001
0000
0000
0001
0010
0000
0000
0010
0001
0000
0000
,  // measure 47
0001
0100
0000
0000
0100
0010
0000
0000
0010
1000
0000
0000
1000
0001
0000
0000
,  // measure 48
0001
1001
0000
0101
0000
0100
0010
1000
,  // measure 49
0100
0000
0010
0000
0001
0000
0100
0000
0010
1000
0010
0000
1000
0001
1000
0000
,  // measure 50
1002
0000
0000
0000
0103
1000
0100
0001
,  // measure 51
0020
0000
0000
0000
0130
1000
0100
0010
,  // measure 52
0002
0000
0000
0000
0103
0010
1000
0010
,  // measure 53
0100
0000
0101
0000
0011
0001
1000
0010
,  // measure 54
2010
0000
0010
0000
3100
0001
0010
0001
,  // measure 55
2000
0000
0010
0000
3010
0000
0100
0000
0001
0010
0001
0000
1000
0000
0100
0000
,  // measure 56
2000
0000
0000
0000
3010
0000
0100
0000
0002
0000
0000
0000
1003
0000
0010
1000
,  // measure 57
0020
0000
0100
0000
0130
0000
0000
0000
0001
1000
0001
0000
1000
0000
0100
0000
,  // measure 58
1100
0000
0100
0010
0110
0100
0001
0100
,  // measure 59
1000
0010
1010
0000
0001
1000
0001
0100
,  // measure 60
0101
1001
1010
0010
,  // measure 61
0110
0000
0000
0000
0101
0000
0000
0000
0001
1000
0001
1000
0001
1000
0001
1000
,  // measure 62
0002
0000
0000
0000
,  // measure 63
0203
0320
2030
3002
,  // measure 64
0203
0010
0320
2030
3002
0000
0203
0320
,  // measure 65
2030
0000
0000
0000
3100
0010
0001
0010
0001
0000
1001
0000
1100
0000
0110
0000
,  // measure 66
0011
0000
0000
0000
0101
0000
0000
0000
0100
0000
0010
0000
1000
0000
0100
0000
0020
0000
0000
0000
0030
0000
0001
0000
1001
0000
0000
0000
1000
0010
1000
0010
,  // measure 67
0100
0001
1000
0001
0010
0100
1000
0001
,  // measure 68
0010
0001
0010
0000
0001
0000
0100
0000
0010
0000
1000
0000
0100
0000
1000
0000
,  // measure 69
0001
1000
0001
0000
0100
0000
0010
0000
1000
0000
0001
0000
0100
0000
0010
0000
,  // measure 70
2000
0001
3001
0100
0020
1000
1030
0001
,  // measure 71
0100
0001
0100
0000
0010
0000
0000
0000
1000
0000
0100
0000
2000
0000
0010
0000
,  // measure 72
3010
0001
0010
1000
0100
0010
0001
1000
,  // measure 73
0002
0000
0103
0010
1000
0001
0100
0001
,  // measure 74
0010
0001
0000
0000
0001
0100
0000
0000
0100
0010
0000
0000
0010
1000
0000
0000
,  // measure 75
1000
0010
0001
0010
1000
0100
0001
0100
,  // measure 76
2000
0000
3002
0000
,  // measure 77
0103
0110
0000
1010
0000
1100
0000
0110
,  // measure 78
0000
0000
0011
0000
0000
0000
0001
0000
0100
0010
0100
0000
0001
1000
0001
1000
,  // measure 79
0002
0000
0000
0000
,  // measure 80
0003
0000
0000
0000
;
