#TITLE:WILD RUSH(FROM NONSTOP MEGAMIX);
#SUBTITLE:;
#ARTIST:FACTOR-X;
#TITLETRANSLIT:;
#SUBTITLETRANSLIT:;
#ARTISTTRANSLIT:;
#GENRE:;
#CREDIT:;
#BANNER:WILD RUSH(FROM NONSTOP MEGAMIX).png;
#BACKGROUND:WILD RUSH(FROM NONSTOP MEGAMIX)-bg.png;
#LYRICSPATH:;
#CDTITLE:;
#MUSIC:WILD RUSH(FROM NONSTOP MEGAMIX).ogg;
#OFFSET:0.000000;
#SAMPLESTART:19.200001;
#SAMPLELENGTH:15.000000;
#SELECTABLE:YES;
#DISPLAYBPM:125.000000;
#BPMS:0.000000=124.999992
;
#STOPS:
;
#BGCHANGES:;
#KEYSOUNDS:;
#ATTACKS:;

//---------------dance-single - ----------------
#NOTES:
     dance-single:
     :
     Challenge:
     9:
     0.287974,0.383873,0.019290,0.144676,0.057870,209.000000,207.000000,2.000000,15.000000,0.000000,0.000000,0.287974,0.383873,0.019290,0.144676,0.057870,209.000000,207.000000,2.000000,15.000000,0.000000,0.000000:
// measure 0
0000
0000
0000
0000
,  // measure 1
0000
0000
0000
0000
,  // measure 2
1000
0000
0000
0000
,  // measure 3
0000
0000
0000
0000
0000
1000
0010
0000
,  // measure 4
0100
0000
0000
0000
,  // measure 5
0000
0000
0000
0000
0100
0100
0001
0000
,  // measure 6
1000
0000
0001
0000
1000
0010
0100
0000
,  // measure 7
0001
0000
1000
0000
0001
0010
0100
0010
,  // measure 8
0001
0000
1000
1000
0010
0100
0100
0000
,  // measure 9
0001
0000
0010
0010
0100
1000
1000
0001
,  // measure 10
0200
0001
0000
0001
,  // measure 11
0000
0000
0301
0001
1000
0010
0100
0001
,  // measure 12
1000
0000
1000
0000
1000
0100
0010
0001
,  // measure 13
1000
0001
0001
0000
0100
0010
0010
0100
,  // measure 14
0002
1000
0000
1000
,  // measure 15
0000
0000
1003
0001
0100
0010
1000
1000
,  // measure 16
0001
0001
1000
1000
,  // measure 17
0001
0000
0001
0100
0001
0000
0001
1000
,  // measure 18
0020
0000
0000
0030
,  // measure 19
0100
0000
0100
0010
0100
0010
0010
0000
,  // measure 20
1000
0000
1000
0001
1000
0001
0001
0000
,  // measure 21
0010
0000
0000
0000
,  // measure 22
0100
0000
0000
0000
0001
0000
0000
0001
1000
0000
0001
0000
0001
0000
0000
0000
,  // measure 23
0100
0000
0000
0000
0010
0000
0000
0010
1000
0000
0001
0000
0001
0000
0000
0000
,  // measure 24
0200
0000
0000
0300
,  // measure 25
0002
0000
1000
1003
,  // measure 26
0110
0000
0000
0000
,  // measure 27
0100
0100
0100
0100
,  // measure 28
0010
1000
0001
0100
,  // measure 29
0001
0100
0010
1000
,  // measure 30
0002
0000
0000
0000
,  // measure 31
0000
0000
0000
0003
,  // measure 32
1000
0000
0000
0000
0010
0000
0000
0010
0100
0000
0100
0000
0100
0000
0001
0000
,  // measure 33
1000
0100
1000
0100
0000
0010
0001
0000
,  // measure 34
1000
0000
1000
0010
0100
0001
0001
0000
,  // measure 35
1000
0000
0010
0100
0001
1000
1000
0001
,  // measure 36
0100
0100
0010
0010
1000
0000
1000
0001
,  // measure 37
0100
0010
1000
0000
1000
0001
0100
0001
,  // measure 38
2000
3000
0200
0300
,  // measure 39
0020
0000
0030
0000
0002
0000
0003
1000
,  // measure 40
0020
0000
0000
0000
0000
0000
0030
0100
,  // measure 41
0002
0000
0000
0000
0003
1000
0001
0000
,  // measure 42
0100
0000
0000
0100
0001
0000
0000
0001
1000
0000
1000
0000
1000
0000
0000
0000
,  // measure 43
0010
0000
0000
0010
1000
0000
0000
1000
0001
0000
0001
0000
0001
0000
1000
0000
,  // measure 44
0100
0000
0000
0100
0020
0000
0000
0000
0000
0000
0001
0000
0031
0000
0000
0000
,  // measure 45
2000
0100
0100
0000
3000
0001
1001
0000
,  // measure 46
0100
0000
0000
0100
0001
0000
0000
0001
1000
0000
0100
0000
1000
0000
0000
0000
,  // measure 47
0010
0000
0000
0010
0100
0000
0000
0100
0001
0000
1000
0000
0001
0000
0001
0000
,  // measure 48
0200
0000
0000
0000
,  // measure 49
0000
0000
0000
0300
;

//---------------dance-double - ----------------
#NOTES:
     dance-double:
     :
     Challenge:
     10:
     0.316909,0.403766,0.009645,0.183256,0.081983,230.000000,229.000000,1.000000,19.000000,0.000000,0.000000,0.316909,0.403766,0.009645,0.183256,0.081983,230.000000,229.000000,1.000000,19.000000,0.000000,0.000000:
00000000
00000000
00000000
00000000
,
00000000
00000000
00000000
00000000
,
00000001
00000000
00001000
00000000
,
00010000
00000000
10000000
00000000
,
10000000
00000000
00010000
00000000
,
00001000
00000000
00000001
00000000
,
00000200
00000000
00000301
00000001
00000002
00000000
00001003
00001000
,
00000010
00000100
00000010
00000000
00000100
00000010
00010000
00001000
,
02000000
00000000
03010000
00010000
00020000
00000000
00030000
10000000
,
00010000
01000000
00100000
00000000
01000000
00100000
10000000
00010000
,
01000000
01000000
01000000
00000000
00010000
00010000
00010000
00000000
,
00001000
00001000
00001000
00001000
00000010
00000010
00000010
00000000
,
00000100
00000000
00000100
00000000
00000001
00000000
00000000
00000001
00000100
00000000
00000010
00000000
00000010
00000000
00000000
00000000
,
00010000
00000000
00010000
00000000
00000010
00000000
00000000
00000010
00010000
00000000
00001000
00000000
00010000
00000000
01000000
00000000
,
00200000
00010000
00000000
00010000
,
00000000
00000000
00010000
00000000
00300000
00000000
00010000
10000000
,
00100000
01000000
00010000
00000010
,
00000002
00000000
00000000
00000003
,
00000100
00000010
00001000
00000001
00000100
00000010
00001000
00000001
,
00002000
00000000
00003010
00001000
00000100
00000100
00000100
00000000
,
00010000
00000010
00010000
00000100
00010000
00001000
00001000
00001000
,
02000000
00000000
00000000
00000000
00000000
00000000
03010000
00010000
,
10000000
01000000
00010000
01000000
10000000
01000000
00010000
01000000
,
10000000
01000000
00010000
00001000
00000100
00000100
00000100
00000000
,
00000001
00000100
00001000
00000100
00000001
00000100
00001000
00000100
,
00000001
00000100
00001000
00010000
01000000
01000000
01000000
00000000
,
20020000
00000000
00000000
00000000
,
00000000
00000000
00000000
30030000
,
00000000
00000000
01000000
00000000
,
00000000
00000000
00000010
00000000
,
00000002
00000000
00000000
00000000
,
00000000
00000000
00000100
00000103
,
00002000
00003100
00000002
00000103
,
00002000
00000000
00003100
00000000
00000000
00010000
00001000
00000000
,
01000000
00000000
00000000
01000000
00010000
00000000
00000000
00010000
00000000
00000000
10000000
00000000
10000000
00000000
00000000
00000000
,
00100000
00000000
00000000
00100000
01000000
00000000
00000000
01000000
00000000
00000000
00001000
00000000
00001000
00000000
00000000
00000000
,
00010000
00000000
00000000
00010000
00000010
00000000
00000000
00000010
00000000
00000000
00001000
00000000
00001000
00000000
00000001
00000000
,
00000100
00000010
00000010
00000100
00000001
00001000
00000001
00000001
,
00000100
00000000
00000000
00000100
00000010
00000000
00000000
00000010
00000000
00000000
00000000
00000000
00000000
00000000
00010000
00000000
,
00002000
00000000
01003000
00000000
01000000
00100000
10000000
00010000
,
10000000
00000000
01000000
00000000
00010000
00000000
00000000
01000000
00000000
00000000
00000000
00000000
00000000
00000000
10000000
00000000
,
01000000
00000000
00010000
00000000
00010000
00000000
01000000
00000000
00000000
00000000
00001000
00000000
00000010
00000000
00000000
00000100
,
00002000
00000000
00000000
00000000
00003001
00000000
00000000
00000001
00000000
00000000
00000100
00000000
00000010
00000000
00000000
00000000
,
00002000
00000000
00003200
00000000
00000300
00010000
00100000
00100000
,
01000000
01000000
01000000
01000000
01000000
01000000
00100000
00000000
,
10000000
10000000
10000000
10000000
10000000
10000000
00010000
00000000
,
01000000
00000000
00000000
01000000
00001000
00000000
00000000
00001000
00000000
00000000
00010000
00000000
00010000
00000000
00000000
00000000
,
00000010
00000000
00000000
00000010
00001000
00000000
00000000
00001000
00000000
00000000
00000001
00000000
00000001
00000000
00000100
00000000
,
00000020
00000000
00000000
00000000
,
00000000
00000030
00000000
00000000
,
00000000
00000000
00000000
00000000
;

//---------------dance-single - ----------------
#NOTES:
     dance-single:
     :
     Edit:
     16:
     0.841876,0.887707,0.337577,0.154321,1.369599,611.000000,576.000000,35.000000,16.000000,0.000000,0.000000,0.841876,0.887707,0.337577,0.154321,1.369599,611.000000,576.000000,35.000000,16.000000,0.000000,0.000000:
// measure 0
0000
0000
0000
0000
,  // measure 1
0000
0000
0000
0000
,  // measure 2
1000
0010
0100
0010
1000
0000
0001
1000
0000
0001
0010
0100
0000
0000
1000
0001
,  // measure 3
0000
0100
0001
0010
1000
0000
0010
0001
0100
0000
0010
1000
0010
0100
0001
0000
,  // measure 4
0100
1000
0100
0001
0010
0000
0100
0001
0000
0100
1000
0001
0010
0000
0101
0000
,  // measure 5
0000
1000
0100
0010
0001
0100
0001
0000
1000
0010
0100
0010
0000
0000
1000
0001
,  // measure 6
0100
0010
0100
0010
1000
0100
0000
0011
0000
0001
0100
1000
0100
0001
0010
0100
,  // measure 7
0000
1000
0010
0001
0010
1000
0100
0010
0001
0100
0010
0100
0001
0010
0000
0000
,  // measure 8
0100
1000
0010
0100
0010
0100
0001
0010
0000
0001
0010
1000
0001
0100
1000
0001
,  // measure 9
0000
0100
0010
1000
0010
0100
0001
0010
0000
0001
0010
0100
1000
0001
0010
0100
,  // measure 10
1000
0000
0010
0000
0100
0000
0010
0000
1000
0100
1000
0000
0001
0000
0010
0000
0001
0000
0100
0000
0010
0000
0000
0000
1000
0100
1000
0000
0010
0000
0100
0000
,  // measure 11
0001
0000
0010
0000
0001
0000
0000
0000
0100
0010
0100
0000
0010
0000
1000
0000
0100
0000
0010
0000
0001
0000
1000
0000
0001
0010
0001
0000
0100
0000
0010
0000
,  // measure 12
0000
0000
1000
0000
0010
0000
1000
0000
0100
0000
0010
0001
0010
0000
0100
0000
0010
0000
0000
0000
0001
0000
0100
0000
0010
1000
0001
0000
0010
0000
0100
0000
,  // measure 13
1000
0010
0100
0001
0010
0001
0100
0010
1000
0100
0001
0010
0001
0100
1000
0010
,  // measure 14
0101
0000
0000
0000
0001
0010
1000
0010
0001
0100
1000
0100
0002
0000
0000
0000
,  // measure 15
0103
0010
1000
0010
0200
0000
0000
0000
0301
0010
0100
0000
2100
0000
0000
0000
,  // measure 16
3001
0100
0010
0000
1010
0000
0000
1000
0100
0001
0100
1000
0010
0100
0001
0100
,  // measure 17
0020
0000
0000
0000
1030
0000
0000
1000
0100
0010
0000
0011
0000
0101
0000
0100
,  // measure 18
0010
1000
0010
0100
0001
0010
0001
1000
0100
0000
0010
0001
0100
0010
0000
1010
,  // measure 19
0000
1000
0100
0001
0100
1000
0000
1001
0000
0000
0100
0001
0010
0100
0000
1000
,  // measure 20
0010
0001
0010
1000
0100
0010
0000
0011
0000
0100
0010
1000
0001
0010
0001
0100
,  // measure 21
0000
0001
1000
0010
1000
0100
0010
0001
0000
0100
0010
1000
0010
0100
0002
0000
,  // measure 22
1003
0000
1000
0000
0010
0000
0000
0000
0100
0000
0000
0000
0002
0000
0000
0000
0013
0000
0100
0000
1000
0000
0100
0000
0010
0001
0010
0000
0002
0000
0000
0000
,  // measure 23
0103
0000
0010
0000
1000
0000
0010
0000
0100
0001
0100
0000
0020
0000
0000
0000
1030
0000
0100
0000
0001
0000
0100
0000
1000
0010
1000
0000
0020
0000
0000
0000
,  // measure 24
0130
0000
0001
0000
0010
0000
0100
0000
1000
0010
1000
0000
0012
0000
0000
0000
0103
0000
0010
0000
1000
0000
0010
0000
0100
0001
0100
0000
0020
0000
0000
0000
,  // measure 25
1030
0000
0100
0000
0001
0000
0100
0000
1000
0001
1000
0000
0002
0000
0000
0000
0013
0000
0100
0000
0010
0000
0100
0000
2002
0000
0000
0000
0000
0000
3003
0000
,  // measure 26
0010
1100
1000
1001
0001
0101
0100
0110
,  // measure 27
0000
1010
1000
1100
0000
0110
0010
0011
,  // measure 28
0000
0100
0000
0100
0000
0010
1000
0001
0000
1000
0001
0010
0000
0100
0000
0010
,  // measure 29
0000
0001
0000
0100
0000
0001
0000
0010
0000
1100
0000
1001
0000
0101
0000
0110
,  // measure 30
0000
1010
0000
1100
0000
0000
0010
0001
0100
0010
0100
0000
0001
0010
1000
0000
,  // measure 31
0010
0001
0000
0100
0010
0000
1000
0100
0000
0010
0001
0000
0100
0000
0010
0000
,  // measure 32
1000
0100
0000
1000
0010
0001
0000
0010
0000
1000
0000
0100
0000
0001
0100
0000
,  // measure 33
1000
0001
0010
0001
0100
0010
1000
0100
0000
0000
0110
0000
1001
0000
0000
0000
,  // measure 34
0001
0010
1000
0010
0001
0000
0100
0010
1000
0010
0100
0001
0010
0000
0100
1000
,  // measure 35
0100
0010
0001
0010
0100
0000
1000
0001
0010
0001
0000
0000
0100
0110
0000
0000
,  // measure 36
1010
0000
0000
0000
1000
0001
0010
0001
0100
0000
0010
1000
0100
1000
0010
0000
,  // measure 37
0100
0001
0010
0001
1000
0000
0010
0000
0100
0001
0000
0001
1000
0000
0010
0000
,  // measure 38
0100
0010
0000
0010
1000
0000
0100
0001
0000
0100
1000
0000
0010
0000
0001
0000
,  // measure 39
0010
1000
0001
0000
0100
0000
0010
1000
0000
0001
0000
0000
0100
0101
0000
0000
,  // measure 40
0010
1000
0001
1000
0010
0000
0100
0001
0000
0010
0100
0010
1000
0010
0001
0000
,  // measure 41
0100
0010
1000
0000
1001
0000
0001
0000
0100
0010
0000
1000
0010
0000
0100
0001
,  // measure 42
0000
0000
0010
0000
0100
0000
0010
0000
0001
0000
0000
0000
1000
0000
0001
0000
0100
0000
0001
0000
0010
0000
0001
0000
1000
0100
1000
0000
0010
0000
0100
0000
,  // measure 43
0001
0000
0010
0000
0001
0000
1000
0000
0010
0100
0010
0000
0100
0000
0001
0000
0010
0000
1000
0000
0010
0000
0001
0000
1000
0100
1000
0000
0100
0000
0010
0000
,  // measure 44
0001
0000
0100
0000
0010
0000
1000
0000
0001
0010
0001
0000
0100
0000
0010
0000
1000
0000
0010
0000
0100
0000
0001
0000
0010
0100
0010
0000
0100
0000
1000
0000
,  // measure 45
0010
0000
0100
0000
0001
0000
0010
0000
0001
1000
0001
0000
0100
0000
0010
0000
0100
0000
0010
0000
0100
0000
0001
0000
0010
0001
0010
0000
0001
0000
0010
0000
,  // measure 46
0100
0000
1000
0000
0100
0000
0010
0000
0001
1000
0001
0000
1000
0000
0001
0000
0000
0000
0100
0000
0001
0000
0000
0000
0010
0000
0000
0000
0100
0000
0000
0000
,  // measure 47
1000
0010
0001
0000
0010
1000
0100
0000
0001
0101
0000
1000
0010
0110
0000
0000
,  // measure 48
2002
0000
0000
0000
,  // measure 49
0000
0000
0000
3003
;
