#TITLE:VEGA;
#SUBTITLE:;
#ARTIST:REDALiCE;
#TITLETRANSLIT:;
#SUBTITLETRANSLIT:;
#ARTISTTRANSLIT:;
#GENRE:;
#CREDIT:;
#BANNER:VEGA.png;
#BACKGROUND:VEGA-bg.png;
#LYRICSPATH:;
#CDTITLE:;
#MUSIC:VEGA.ogg;
#OFFSET:0.000000;
#SAMPLESTART:54.030998;
#SAMPLELENGTH:15.000000;
#SELECTABLE:YES;
#DISPLAYBPM:191.000000;
#BPMS:0.000000=191.000000
;
#STOPS:
;
#BGCHANGES:;
#KEYSOUNDS:;
#ATTACKS:;

//---------------dance-single - ----------------
#NOTES:
     dance-single:
     :
     Beginner:
     3:
     0.158230,0.274954,0.049227,0.016409,0.000000,135.000000,129.000000,6.000000,2.000000,0.000000,0.000000,0.158230,0.274954,0.049227,0.016409,0.000000,135.000000,129.000000,6.000000,2.000000,0.000000,0.000000:
0000
0000
0000
0000
,
0000
0000
0000
0000
,
0000
0000
0000
0000
,
0000
0000
0000
0000
,
0000
0000
0000
0000
,
0000
0000
0000
0000
,
0000
0000
0000
0000
,
0000
0000
0000
0000
,
0000
0000
0000
0000
,
0000
0000
0000
0000
,
1000
0000
0000
0000
,
0001
0000
0000
0000
,
1000
0000
0000
0000
,
0001
0000
0000
0000
,
0100
0000
0000
0000
,
0010
0000
0000
0000
,
0100
0000
0100
0000
,
0100
0000
0000
0000
,
0000
0000
0001
0001
,
0001
0000
0000
0000
,
0000
0000
0000
0000
,
1000
0000
0000
0000
,
0000
0000
0000
0000
,
0001
0000
0000
0000
,
0000
0000
0000
0000
,
0100
0000
0000
0000
,
0100
0000
0000
0000
,
0001
0000
0000
0000
,
0100
0000
0000
0000
,
0010
0000
0000
0000
,
1000
0000
0000
0000
,
0001
0000
0000
0000
,
1000
0000
0000
0000
,
0001
0000
0000
0000
,
1000
0000
0000
0000
,
1001
0000
0000
0000
,
1001
0000
0000
0000
,
1001
0000
0000
0000
,
0110
0000
0000
0000
,
0001
0000
0001
0000
,
1000
0000
1000
0000
,
0010
0000
0010
0000
,
0100
0100
0100
0000
,
0001
0000
1000
0000
,
0001
0000
1000
0000
,
0010
0000
0100
0000
,
0010
0000
0000
0000
,
0001
0000
0100
0000
,
0001
0000
0100
0000
,
0010
0000
0000
0000
,
0010
0000
0000
0000
,
0100
0000
0100
0000
,
0010
0000
0010
0000
,
0001
0000
1000
0000
,
0001
0000
0000
0000
,
0010
0010
0010
0000
,
0100
0100
0100
0000
,
0001
0000
0100
0000
,
0010
0000
1000
0000
,
1001
0000
0000
0000
,
0000
0000
0000
0000
,
0100
0000
0100
0000
,
0001
0000
0000
0000
,
1000
0000
1000
0000
,
0010
0000
0000
0000
,
0100
0000
0001
0000
,
0100
0000
0000
0000
,
1000
0000
1000
0000
,
0100
0100
0100
0000
,
0001
0000
0000
0000
,
0001
0000
0000
0000
,
1000
0000
0000
0000
,
1000
0000
0000
0000
,
0001
0000
0010
0000
,
0100
0000
1000
0000
,
0001
0000
1000
0000
,
0010
0000
0100
0000
,
0001
0001
0001
0000
,
0001
0000
1000
0000
,
0001
0000
1000
0000
,
0010
0000
0100
0000
,
0010
0000
0000
0000
,
0001
0000
0100
0000
,
0001
0000
0100
0000
,
0010
0000
0000
0000
,
0010
0000
0000
0000
,
0100
0000
0100
0000
,
0010
0000
0010
0000
,
0001
0000
1000
0000
,
0001
0000
1000
0000
,
0010
0010
0010
0000
,
0100
0100
0100
0000
,
0001
0000
0100
0000
,
0010
0000
1000
0000
,
2002
0000
0000
0000
,
0000
0000
0000
3003
;

//---------------dance-single - ----------------
#NOTES:
     dance-single:
     :
     Easy:
     7:
     0.366859,0.471965,0.139477,0.164090,0.000000,313.000000,296.000000,17.000000,20.000000,0.000000,0.000000,0.366859,0.471965,0.139477,0.164090,0.000000,313.000000,296.000000,17.000000,20.000000,0.000000,0.000000:
0000
0000
0000
0000
,
0000
0000
0000
0000
,
0000
0000
0000
0000
,
0000
0000
0000
0000
,
0000
0000
0000
0000
,
0000
0000
0000
0000
,
1000
0001
0101
0000
,
0010
1000
1010
0000
,
0001
0010
0100
1000
,
0010
0100
0002
2003
,
3001
0100
0001
0001
,
1000
0010
1000
0000
,
0001
0001
0100
0100
,
0001
1000
0100
0100
,
0001
1000
0001
0000
,
0010
1000
0010
0100
,
0001
0000
0000
1000
0000
0000
0100
0000
,
0010
0000
0000
2002
0000
0000
0000
0000
,
3003
0000
0020
0130
,
0001
0000
0001
0000
,
0100
0000
0100
0000
,
0001
1000
0010
0000
,
0100
0001
1000
0000
,
0100
0000
0100
0000
,
0010
0000
0010
0000
,
0001
0010
0100
0000
,
1000
0010
0100
0000
,
0002
0003
0010
0000
,
2000
3000
0010
0000
,
0200
0300
0001
0000
,
0200
0300
1000
0000
,
0001
0100
1000
0000
,
1000
0100
0001
0000
,
0010
0010
0001
1000
,
0010
0100
0001
0000
,
0012
0000
0003
1000
,
1200
0000
0300
0010
,
1001
0000
0110
0000
,
0001
1000
0010
0100
,
0001
0001
0001
0001
,
1000
1000
1000
1000
,
0011
0000
1100
0000
,
0010
0010
0010
1001
,
0001
0100
0001
1000
,
0010
0100
0010
1000
,
0001
0001
0100
0001
,
1000
1000
0010
0100
,
0001
1000
0001
0100
,
0010
1000
0010
0100
,
0001
0000
0001
1000
0001
0000
0010
0000
,
0001
0000
1000
0001
2000
0000
3000
0000
,
0010
0001
0100
0100
,
0010
1000
0010
0010
,
0100
0001
1000
0100
,
0010
0001
0100
0010
,
1000
0000
0001
0100
0001
0000
0000
0000
,
0100
0000
0010
1000
0010
0000
0000
0000
,
1000
0010
0001
0010
,
1000
0100
0001
0010
,
1002
0000
0000
0000
,
0100
0100
0103
0000
,
0001
0000
0001
0000
,
1000
0000
1000
0000
,
0100
0010
1000
0001
,
1000
0100
0010
0000
,
0001
0000
0101
0000
,
1000
0000
1010
0000
,
1000
0000
0000
0010
0000
0000
0100
0000
,
0001
0000
0000
2002
0000
0000
3003
0000
,
0010
0010
0001
1000
,
0100
0200
0300
1000
,
0100
0010
0001
0001
,
1000
0020
0030
0100
,
0001
1000
0001
0000
,
0100
0010
0100
0000
,
0001
0001
1000
1000
,
0010
0100
0001
0000
,
0010
0010
0010
1001
,
0001
0100
0001
1000
,
0010
0100
0010
1000
,
0001
0001
0100
0001
,
1000
1000
0010
0100
,
0001
1000
0001
0100
,
0010
1000
0010
0100
,
0001
0000
1000
0010
1000
0000
0100
0000
,
0010
0000
0001
0100
0002
0000
0003
0000
,
0100
0001
0100
0100
,
0010
1000
0010
0010
,
0100
0001
1000
0100
,
0010
0001
0100
0110
,
1000
0000
0001
1000
0001
0000
0100
0000
,
0001
0000
1000
0001
1000
0000
0010
0000
,
1000
0001
0100
0010
,
1000
0010
0001
0100
,
2002
0000
0000
0000
,
0000
0000
0000
0000
0000
0000
0000
3003
;

//---------------dance-single - ----------------
#NOTES:
     dance-single:
     :
     Medium:
     11:
     0.571972,0.668617,0.237931,0.196909,0.024614,488.000000,459.000000,29.000000,24.000000,0.000000,0.000000,0.571972,0.668617,0.237931,0.196909,0.024614,488.000000,459.000000,29.000000,24.000000,0.000000,0.000000:
0000
0000
0000
0000
,
0000
0000
0000
0000
,
0000
0000
0000
0000
,
0000
0000
0000
0000
,
0000
0000
0000
0000
,
0000
0000
0000
0000
,
0010
0000
0010
0000
0010
0100
0000
0100
,
0010
0000
0010
0000
1000
0001
1000
0001
,
1000
0000
1000
0000
0010
0100
0001
0000
,
0110
0110
2000
3002
,
0103
0010
1000
0000
0100
0000
0100
0000
,
0010
0001
1000
0010
,
0001
0100
0010
0000
1000
0000
1000
0000
,
0001
0010
1100
0101
,
1000
0100
0010
0000
0001
0000
1000
0000
,
0010
0000
0001
0000
0010
0001
0100
0010
,
0100
0000
0000
0001
0000
0000
1000
0000
0000
0010
0000
0000
1000
0000
0100
0000
,
0010
0000
0000
0002
0000
0000
2000
0000
0000
0000
0000
0000
0000
0000
0000
0000
,
3003
0000
0002
0103
,
1000
0000
1000
0100
0001
0000
0001
0000
,
0001
0100
1000
0000
0100
0000
0010
0000
,
1000
0000
0200
0000
0000
0310
0000
0000
,
0001
0000
0200
0000
0000
0310
0000
0000
,
0001
0000
0001
0100
1000
0000
1000
0000
,
1000
0100
0001
0000
0100
0000
0010
0000
,
0001
0000
0200
0000
0000
0310
0000
0000
,
1000
0000
0200
0000
0000
0310
0000
0000
,
0002
0000
0003
1000
0100
0000
0010
0000
,
2000
0000
3000
0001
0100
0000
0000
0000
,
0002
0000
0003
1000
0010
0000
0100
0000
,
0001
0000
1100
0000
0000
0100
0010
0000
,
2000
0000
3000
0001
0100
0000
0001
0000
,
0020
0000
0030
0100
1000
0000
0001
0000
,
0100
0000
0010
0100
0000
0100
0001
0000
,
0001
1000
0100
1000
0000
0001
0000
0000
,
0010
0000
0010
0000
0010
0000
0010
0100
,
0001
0000
0001
0000
0001
0000
0001
1000
,
0100
0000
0100
0010
0001
0000
0001
1000
,
0010
1000
0001
0100
,
0101
1000
1100
0001
,
0011
1000
1010
0001
,
0110
1100
0101
1001
,
0010
0010
0010
1001
,
0010
0100
0010
0100
0010
0100
0010
0100
,
0010
0100
0010
0100
0010
0000
0110
0000
,
1000
0001
1000
0001
1000
0001
1000
0001
,
1000
0001
1000
0001
1000
0000
1001
0000
,
0001
0100
0001
0100
0001
0100
0001
0100
,
0001
0100
0001
0100
0001
0000
0101
0000
,
1000
0010
1000
0010
1000
0010
1000
0010
,
1000
0010
1000
0010
1000
0000
1010
0000
,
0010
0100
0010
0100
0010
0100
0010
0100
,
0001
0100
0001
0100
0001
0000
1001
0000
,
0010
0100
0010
0100
0010
0100
0010
0100
,
1000
0100
1000
0100
1000
0000
1001
0000
,
0010
0100
0010
0100
0010
0000
1000
0000
,
0100
0010
0100
0010
0100
0000
0001
0000
,
1000
0000
0010
1000
0000
0001
0010
0001
,
1000
0000
0100
1000
0000
0001
0100
0001
,
1000
0000
0001
0000
,
1000
0002
2000
3003
,
0010
1000
0100
0000
0010
0000
0001
0000
,
0100
0000
0011
0000
1000
0100
0001
0000
,
0100
1000
0010
0000
0100
0000
0001
0000
,
0010
0000
1100
0000
0001
0010
1000
0000
,
0010
0001
0000
0100
0000
0100
0010
0000
,
0010
1000
0000
0100
0000
0100
1000
0001
,
1000
0000
0000
0010
0000
0000
0100
0000
0000
0001
0000
0000
1000
0000
0100
0000
,
0010
0000
0000
0002
0000
0000
2000
0000
0000
0000
0000
0000
3003
0000
0000
0000
,
0001
0100
0001
0000
,
0010
0000
0010
0200
0000
0000
0000
0300
,
0001
0000
0001
1000
0000
0000
0100
0000
,
0010
0000
0100
2000
0000
0000
0000
3000
,
0001
0000
0001
0100
0001
0000
1000
0000
,
1000
0000
1000
0010
1000
0000
0100
0010
,
0001
0000
0001
0010
0000
0010
0001
0010
,
0100
1000
0010
0100
0000
0220
0000
0000
,
0000
0330
0110
1001
,
0010
0100
0010
0100
0010
0100
0010
0100
,
0010
0100
0010
1000
0010
0000
1001
0000
,
0100
0010
0100
0010
0100
0010
0100
0010
,
0100
0010
0100
1000
0100
0000
1001
0000
,
0001
0100
0001
0100
0001
0100
0001
0100
,
0010
0100
0010
0100
0001
0000
1001
0000
,
0010
1000
0010
1000
0000
0001
0100
0000
,
0001
0010
0001
0010
0000
0100
1000
0000
,
0010
0100
0010
0100
0010
0100
0010
1000
,
0010
0100
0010
0100
0010
0100
0001
0100
,
0010
0100
0010
0100
0010
1000
0001
0100
,
0010
1000
0100
1000
0100
1000
0100
0010
,
0001
0000
0001
0100
0010
0000
0100
0000
,
0001
0000
1000
0100
0010
0000
0100
0000
,
0010
0001
0010
0001
0000
1000
0010
0000
,
1000
0100
1000
0100
0000
0010
0000
0220
,
0000
0000
0000
0000
,
0000
0000
0000
0000
0000
0000
0000
0330
;

//---------------dance-single - ----------------
#NOTES:
     dance-single:
     :
     Hard:
     14:
     0.780602,0.865269,0.500476,0.278954,0.242033,666.000000,605.000000,61.000000,34.000000,0.000000,0.000000,0.780602,0.865269,0.500476,0.278954,0.242033,666.000000,605.000000,61.000000,34.000000,0.000000,0.000000:
// measure 0
0000
0000
0000
0000
,  // measure 1
0000
0000
0000
0000
,  // measure 2
0000
0000
0000
0000
,  // measure 3
0000
0000
0000
0000
,  // measure 4
0000
0000
0000
0000
,  // measure 5
0000
0000
0000
0000
,  // measure 6
0010
0000
0010
0000
0010
0100
0001
0100
,  // measure 7
0010
0000
0010
0000
0010
1000
0100
1000
,  // measure 8
0010
0100
0010
0100
0001
0100
0001
0100
,  // measure 9
0010
0100
0000
0001
0010
0001
0000
1000
0100
0000
0000
0000
1001
0000
0000
0000
,  // measure 10
0001
0100
0001
0010
0100
0010
0000
0010
,  // measure 11
0001
0010
0100
1000
0100
0010
0000
0010
,  // measure 12
0001
0100
0010
1000
0100
0010
0100
0001
,  // measure 13
0100
1000
0100
0010
0110
0000
1001
0000
,  // measure 14
0010
1000
0001
0100
0010
0100
0001
1000
,  // measure 15
0100
1000
0010
0100
0001
0010
0100
1000
,  // measure 16
1100
0000
0000
0110
0000
0000
0101
0000
0000
0110
0000
0000
1100
0000
0100
0000
,  // measure 17
0101
0000
0000
0110
0000
0000
2002
0000
0000
0000
0000
0000
0000
0000
0000
0000
,  // measure 18
3003
0000
0000
0000
0000
0000
0000
0000
0001
1000
0100
1000
0001
0000
0000
0000
,  // measure 19
0100
0001
1000
0100
0001
0000
1000
0100
,  // measure 20
0001
0100
1000
0000
0101
0000
1100
0000
,  // measure 21
0001
0000
1000
0010
0000
0200
0000
0000
,  // measure 22
0301
0000
1000
0100
0000
0020
0000
0030
,  // measure 23
0100
1000
0001
0100
1000
0000
0001
0100
,  // measure 24
1000
0100
0001
0000
0110
0000
1100
0000
,  // measure 25
1000
0001
0010
0001
0000
1000
0001
0100
,  // measure 26
0010
0000
1000
0000
0001
0000
0010
0000
0000
0000
0100
0000
1000
0100
1000
0100
,  // measure 27
0020
0000
0000
0031
0101
0000
0010
0100
,  // measure 28
0020
0000
0000
0000
0000
0000
1030
0000
0001
0000
1100
0000
0000
0000
0010
0100
,  // measure 29
0020
0000
0000
0031
0101
0000
0010
0100
,  // measure 30
0020
0000
0000
0000
0031
0000
2000
0000
0000
0000
3100
0000
0010
0000
0001
0010
,  // measure 31
0001
0000
0100
0000
0010
0000
0100
0000
0001
0000
0000
0000
1000
0100
0010
0001
,  // measure 32
1000
0000
0010
0000
0100
0000
0010
0000
1000
0000
0000
0000
0001
0100
0010
1000
,  // measure 33
0002
0000
0103
0010
0000
1000
0100
0010
,  // measure 34
0001
0000
0000
0000
1000
0000
0020
0000
0000
0000
0230
0000
0300
2002
0000
0000
,  // measure 35
0000
0000
0000
0000
0000
0000
0000
0000
3003
0000
0000
0000
0010
0100
0001
1000
,  // measure 36
0020
0000
0000
0000
0000
0000
0000
0000
0000
0000
0000
0000
0130
0001
1000
0010
,  // measure 37
0200
0000
0000
0000
0310
1000
0001
0100
0020
0000
0000
0000
1030
0001
0100
0010
,  // measure 38
1000
0100
0010
0001
0010
0100
1000
0100
,  // measure 39
0010
0010
0100
0100
1000
1000
0001
0001
,  // measure 40
0100
0100
0010
0010
1000
1000
0001
0001
,  // measure 41
1000
0000
0100
0000
0010
0000
0001
0000
1000
0010
1000
0001
1000
0010
1000
0001
,  // measure 42
0010
0010
0010
1001
,  // measure 43
1000
0000
0001
0010
0001
0000
0100
0000
0010
0000
1000
0000
0001
0000
1000
0010
,  // measure 44
1000
0100
0010
0001
0011
0000
1010
0000
,  // measure 45
0001
1000
0010
0200
0000
0320
0100
0000
,  // measure 46
1030
0000
0010
0000
0100
0000
0002
0000
0000
0000
0103
0000
0010
0000
1000
0010
,  // measure 47
1000
0000
0001
0010
0001
0000
0100
0000
0010
0000
1000
0000
0001
0000
1000
0010
,  // measure 48
1000
0100
0010
0001
0011
0000
0110
0000
,  // measure 49
1000
0001
0000
0100
0001
0010
0000
0001
,  // measure 50
1000
0010
0100
0010
1000
0220
0000
0330
,  // measure 51
1000
0100
0001
0100
0010
1000
0100
0001
,  // measure 52
0010
0001
0100
0010
0001
0100
0010
1000
,  // measure 53
1001
0000
1000
0100
0000
0110
0000
0000
,  // measure 54
1001
0000
0001
0100
0000
1001
0000
0000
,  // measure 55
1000
0000
0001
0000
1000
0000
0100
0000
0010
0000
0000
0000
0001
0100
0010
1000
,  // measure 56
0001
0000
1000
0000
0010
0000
0100
0000
0010
0000
0000
0000
1000
0010
0100
0001
,  // measure 57
1000
0000
0010
0100
0000
0001
0100
0010
,  // measure 58
1010
0010
1000
1100
0000
0011
0000
2002
,  // measure 59
0000
0003
3001
0001
0010
0010
0100
0100
,  // measure 60
1000
0100
0010
0001
0100
0001
1001
0000
,  // measure 61
1000
0100
1000
0010
0100
0010
0000
0010
,  // measure 62
1000
0010
0100
0001
0100
0010
0000
0010
,  // measure 63
1000
0100
0010
0001
0100
0010
0100
1000
,  // measure 64
0100
0001
0100
0010
0110
0000
1001
0000
,  // measure 65
0010
0001
1000
0100
0010
0100
1000
0001
,  // measure 66
0100
0001
0010
0100
1000
0010
0100
0001
,  // measure 67
0101
0000
0000
0110
0000
0000
1100
0000
0000
0110
0000
0000
0101
0000
0100
0000
,  // measure 68
1100
0000
0000
0110
0000
0000
2002
0000
0000
0000
0000
0000
0000
0000
3003
0000
,  // measure 69
0010
0000
0010
0000
1000
0001
1000
0010
,  // measure 70
0110
0000
1000
0200
0000
0000
0000
0300
,  // measure 71
0010
0010
0001
0100
0000
0010
0100
0010
,  // measure 72
1000
0000
0001
0200
0000
0000
0000
0300
,  // measure 73
0010
1000
0100
0010
0001
0000
1001
0000
,  // measure 74
0010
1000
0100
0010
0001
0000
1001
0000
,  // measure 75
0001
0100
1000
1000
0100
0010
0010
1000
,  // measure 76
0001
0010
1000
1000
0010
0100
0100
1000
,  // measure 77
0010
0010
0010
1001
,  // measure 78
1000
0000
0001
0010
0001
0000
0100
0000
0010
0000
1000
0000
0001
0000
1000
0010
,  // measure 79
1000
0100
0010
0001
0011
0000
1100
0000
,  // measure 80
0001
1000
0010
0200
0000
0310
0100
0001
,  // measure 81
1000
0000
0010
0000
0100
0000
0002
0000
0000
0000
0103
0000
0010
0000
1000
0010
,  // measure 82
1000
0000
0001
0010
0001
0000
0100
0000
0010
0000
1000
0000
0001
0000
1000
0010
,  // measure 83
1000
0001
0100
0010
1010
0000
0110
0000
,  // measure 84
0101
0001
1000
1100
0000
0010
1000
0001
,  // measure 85
1000
0010
0100
0110
0000
2002
0000
3003
,  // measure 86
0010
0000
1000
0000
0100
0000
0010
0000
0001
0010
0100
0010
0001
0000
0100
0000
,  // measure 87
0010
0000
1000
0000
0001
0000
0100
0000
0010
1000
0001
1000
0010
0000
1000
0000
,  // measure 88
0100
0010
0001
0100
0010
0001
1000
0100
,  // measure 89
0001
0000
0100
0000
0010
0000
1000
0000
0100
0010
0001
0000
0100
0010
1000
0000
,  // measure 90
0001
0000
1000
0001
0010
0000
0100
0000
0010
0000
0000
0000
0001
0100
0010
1000
,  // measure 91
0001
0000
1000
0001
0010
0000
0100
0000
0010
0000
0000
0000
0001
0010
0100
1000
,  // measure 92
0001
0100
0010
0110
0000
0001
0100
0010
,  // measure 93
1010
0010
1000
1001
0000
0110
0000
2001
,  // measure 94
0000
0000
0000
0000
,  // measure 95
0002
0000
0000
0000
0000
0000
0000
3003
;

//---------------dance-double - ----------------
#NOTES:
     dance-double:
     :
     Easy:
     7:
     0.348106,0.471965,0.106659,0.164090,0.000000,297.000000,284.000000,13.000000,20.000000,0.000000,0.000000,0.348106,0.471965,0.106659,0.164090,0.000000,297.000000,284.000000,13.000000,20.000000,0.000000,0.000000:
00000000
00000000
00000000
00000000
,
00000000
00000000
00000000
00000000
,
00000000
00000000
00000000
00000000
,
00000000
00000000
00000000
00000000
,
00000000
00000000
00000000
00000000
,
00000000
00000000
00000000
00000000
,
00010000
00001000
00010000
00000000
,
00000100
00001000
00000100
00000000
,
00000010
00000001
00000100
00000000
,
00000001
00001000
00000020
00000230
,
00000310
00001000
00000100
00000000
,
00010000
00001000
00100000
00000000
,
00010000
01000000
00010000
00000000
,
10000000
00100000
10000000
00000000
,
00010000
00100000
00001000
00000000
,
00010000
00000100
00001000
00000000
,
00000100
00000000
00000000
00000010
00000000
00000000
00000001
00000000
,
00001000
00000000
00000000
00002002
00000000
00000000
00000000
00000000
,
00003003
00000000
00000020
00000130
,
00000001
00000000
00000001
00000000
,
00000100
00000000
00000100
00000000
,
00000010
00001000
00000100
00000000
,
00010000
00001000
00100000
00000000
,
00010000
00000000
00010000
00000000
,
10000000
00000000
10000000
00000000
,
00100000
01000000
00010000
00000000
,
00100000
00001000
00011000
00000000
,
00000200
00000300
00001000
00000000
,
00000020
00000030
00000100
00000000
,
00000002
00000003
00000010
00000000
,
00000200
00000300
00010000
00000000
,
00001000
00010000
00100000
00000000
,
00100000
00010000
00001000
00000000
,
00001000
00010000
00000100
00000100
,
00001000
00000001
00000100
00000000
,
00000120
00000000
00000030
00001000
,
00001200
00000000
00000300
00010000
,
00001000
00100000
00010000
10000000
,
01000000
00100000
00001000
00010000
,
00011000
00001000
00001000
00000000
,
00010000
00010000
00010000
00000000
,
00010100
00000000
00001100
00000000
,
00000010
00000010
00000010
00001001
,
00000100
00000010
00000001
00000100
,
00000010
00001000
00000100
00000100
,
00010000
00001000
00010000
00000100
,
00010000
00001000
00100000
00000000
,
00010000
10000000
01000000
00100000
,
00001000
00010000
00001000
00100000
,
00010000
00000000
01000000
00100000
01000000
00000000
00010000
00000000
,
00100000
00000000
00001000
00010000
00002000
00000000
00003000
00000000
,
00010000
00000100
00001000
00001000
,
00000010
00000100
00000001
00000001
,
00001000
00000100
00010000
00010000
,
00001000
01000000
00100000
00000000
,
10000000
00000000
00010000
01000000
00010000
00000000
00000000
00000000
,
00100000
00000000
00001000
00010000
00001000
00000000
00000000
00000000
,
00010000
00000100
00000010
00000001
,
00000010
00000100
00001000
00000100
,
00020100
00000000
00000000
00000000
,
00001000
00001000
00031000
00000000
,
00001000
00001000
00001000
00000000
,
00100000
00000000
00100000
00000000
,
00001000
00010000
00000100
00000000
,
00001000
00000010
00000100
00000000
,
00000100
00000000
00000100
00000000
,
00000010
00000000
00000010
00000000
,
00001000
00000000
00000000
00000001
00000000
00000000
00000100
00000000
,
00000010
00000000
00000000
00000220
00000000
00000000
00000330
00000000
,
00000001
00001000
00000001
00000000
,
00000100
00000200
00000300
00000000
,
00000010
00001000
00000100
00000000
,
00010000
00020000
00030000
00000000
,
00001000
00100000
00010000
00000000
,
01000000
00100000
10000000
00000000
,
00010000
00010000
10000000
00100000
,
01000000
00010000
10000000
00000000
,
00100000
00100000
00100000
10010000
,
00100000
01000000
00010000
00010000
,
00100000
00001000
00010000
00010000
,
00000100
00001000
00000100
00000010
,
00000001
00000100
00000010
00000000
,
00001000
00000100
00010000
00001000
,
00100000
00100000
00010000
10000000
,
01000000
00000000
00100000
00010000
00100000
00000000
00001000
00000000
,
00010000
00000000
00000100
00001000
00000200
00000000
00000300
00000000
,
00001000
00001000
00000010
00000100
,
00000001
00001000
00000010
00000100
,
00001000
00010000
00001000
00100000
,
00010000
01000000
00100000
10100000
,
01000000
00000000
00010000
00100000
00010000
00000000
01000000
00000000
,
00010000
00000000
00100000
00001000
00100000
00000000
00010000
00000000
,
00100000
00001000
00010000
00000100
,
00001000
00000001
00000010
00001000
,
00022000
00000000
00000000
00000000
,
00000000
00000000
00000000
00000000
00000000
00000000
00000000
00033000
;

//---------------dance-double - ----------------
#NOTES:
     dance-double:
     :
     Medium:
     11:
     0.532122,0.668617,0.295363,0.426635,0.028716,454.000000,418.000000,36.000000,52.000000,0.000000,0.000000,0.532122,0.668617,0.295363,0.426635,0.028716,454.000000,418.000000,36.000000,52.000000,0.000000,0.000000:
00000000
00000000
00000000
00000000
,
00000000
00000000
00000000
00000000
,
00000000
00000000
00000000
00000000
,
00000000
00000000
00000000
00000000
,
00000000
00000000
00000000
00000000
,
00000000
00000000
00000000
00000000
,
00001000
00000100
00001000
00000010
,
00000100
00001000
00010000
01000000
,
10000000
00010000
00100000
00001000
,
00020000
00000000
00031000
00001000
,
00001000
00000010
00000001
00000100
,
00000010
00010000
00001000
00000000
00010000
00000000
01000000
00000000
,
10000000
00100000
01000000
00001000
,
00010000
00000100
00000010
00000000
00000002
00000000
00002003
00000000
,
00003010
00000100
00001000
00010000
,
00100000
01000000
10000000
00000000
01000000
00000000
00010000
00000000
,
00100000
00000000
00000000
00100000
00000000
00000000
00001000
00000000
00000000
00001000
00000000
00000000
00010000
00000000
00000100
00000000
,
00010000
00000000
00000000
00001000
00000000
00000000
00022000
00000000
00000000
00000000
00000000
00000000
00033000
00000000
00000000
00000000
,
00000000
00000000
00000000
00000000
00010000
01000000
10000000
00000000
,
10000000
00100000
20000000
00000000
,
30010000
01000000
00000000
00000000
,
00001000
00000000
00000020
00000000
00000000
00000130
00000000
00000000
,
00000001
00000000
00000020
00000000
00000000
00000130
00000000
00000000
,
00001000
00000010
00002000
00000000
,
00003001
00000100
00000010
00010000
,
00001000
00000000
00000000
00100000
00000000
00000000
00010000
00100000
,
00010000
00000000
00000000
10000000
00000000
10000000
00200000
00000000
,
02300000
00000000
03010000
00100000
,
00002000
00013000
00010010
00000110
,
00000102
00000000
00000013
00000100
,
00010000
00000000
00011000
00000000
00000000
00011000
00000000
00000000
,
01002000
00000000
00103000
00010000
,
21000000
00000000
30100000
01000000
,
01001000
00000000
00010000
00000000
00100000
00000000
01000000
00010000
,
00001000
00010000
00001000
00010000
00000000
00000000
00000000
00000000
,
00002100
00000000
00000000
00000000
00000000
00000000
00000000
00000000
00000001
00003000
00000000
00000000
00000110
00000000
00000000
00000000
,
00001020
00000000
00010030
00011000
,
01020000
10030000
20100000
30010000
,
20000000
32000000
03020000
00032000
,
00003100
00000010
00000100
00001010
,
00000001
00000100
00000001
00010100
,
00021000
00000100
00032000
00100000
,
00013000
00001000
00010000
00011000
,
00001000
00010000
00001000
00010000
00001000
00010000
00001000
00010000
,
00001000
00010000
00001000
00010000
00002000
00000000
00023000
00000000
,
00030100
00010000
00000100
00010000
00000100
00010000
00000100
00010000
,
00000100
00010000
00000100
00010000
00000100
00000000
00011000
00000000
,
00001000
01000000
00001000
01000000
00001000
01000000
00001000
01000000
,
00001000
01000000
00001000
01000000
00002000
00000000
00203000
00000000
,
00301000
00010000
00001000
00010000
00000000
00010000
00000010
00000000
,
00010000
00001000
00010000
00001000
00000000
00001000
00100000
00000000
,
00100000
01000000
00100000
01000000
00100000
01000000
00100000
01000000
,
00100000
01000000
00100000
01000000
00100000
00000000
00101000
00000000
,
00001000
00010000
00001000
00010000
00001000
00010000
00001000
00010000
,
00001000
00010000
00001000
00010000
00001000
00000000
00010010
00000000
,
00000010
00001000
00000010
00010000
00001000
00000000
01001000
00000000
,
00100000
00010000
00100000
00001000
00010000
00000000
00010100
00000000
,
00001000
00000100
00001000
00000100
00000000
00000010
00000001
00000000
,
00000100
00000000
00001000
00010000
00000000
00100000
00000000
20000000
,
00000000
00000000
00000000
00000000
,
00010000
00010000
00010000
30010000
,
10000000
01000000
00010000
00001000
,
00010000
00000010
00001000
00000000
00000100
00000000
00000101
00000000
,
00000001
00000100
00001000
00010000
,
00001000
00100000
00010000
00000000
00020000
00000000
20030000
00000000
,
30010000
00000000
00000000
01000000
00000000
00100000
00010000
00000000
,
00001000
00000000
00000000
00000010
00000000
00000001
00000100
00000000
,
00000001
00000000
00000000
00000001
00000000
00000000
00000100
00000000
00000000
00000100
00000000
00000000
00000010
00000000
00010000
00000000
,
00001000
00000000
00000000
00010000
00000000
00000000
00022000
00000000
00000000
00000000
00000000
00000000
00033000
00000000
00000000
00000000
,
00010000
01000000
21000000
00000000
,
30010000
00000000
01000000
00200000
00000000
00000000
00000000
00000000
,
01300000
00000000
00001000
00020000
00000000
00000000
00030010
00000000
,
00001000
00000000
00000001
00000020
00000000
00000000
00000000
00000000
,
00000130
00010000
00000010
00001001
,
00000010
00000100
00001000
00011000
,
00020000
00000000
00000000
00000000
02030000
00000000
00000000
20000000
03000000
00000000
00000000
30000000
02000000
00000000
00000000
00000000
,
03020000
00001000
00030020
00000000
,
00010030
00001000
00010000
00011000
,
00001000
00010000
00001000
00010000
00001000
00010000
00001000
00010000
,
00001000
00010000
00000010
00010000
00000020
00000000
00002030
00000000
,
00003100
00000010
00000100
00000010
00000100
00000010
00000100
00000010
,
00000001
00000010
00000001
00000010
00000001
00000000
00001001
00000000
,
00000010
00000100
00000010
00000100
00000010
00000100
00000010
00000100
,
00000010
00010000
00000010
00010000
00002000
00000000
00203000
00000000
,
00310000
01000000
00010000
01000000
00000000
00100000
10000000
00000000
,
10000000
01000000
10000000
01000000
00000000
00100000
00001000
00000000
,
00010000
00001000
00010000
00001000
00010000
00000010
00010000
00000010
,
00001000
00000010
00001000
00000010
00010000
00000100
00010000
00000100
,
00010000
00001000
01000000
00010000
01000000
00010000
01000000
00100000
,
10000000
01000000
00100000
00001000
00010000
00000100
00000010
00000001
,
00001000
00001010
00000201
00001300
,
00010000
00101000
02010000
13000000
,
10000000
00000000
01000000
00000000
00000000
00010000
00100000
00000000
,
00100000
01000000
00010000
00001000
00000000
00010000
00000000
00022000
,
00000000
00000000
00000000
00000000
,
00000000
00000000
00000000
00000000
00000000
00000000
00000000
00033000
;

//---------------dance-double - ----------------
#NOTES:
     dance-double:
     :
     Hard:
     14:
     0.725514,0.825939,0.352794,0.246136,0.147681,619.000000,576.000000,43.000000,30.000000,0.000000,0.000000,0.725514,0.825939,0.352794,0.246136,0.147681,619.000000,576.000000,43.000000,30.000000,0.000000,0.000000:
00000000
00000000
00000000
00000000
,
00000000
00000000
00000000
00000000
,
00000000
00000000
00000000
00000000
,
00000000
00000000
00000000
00000000
,
00000000
00000000
00000000
00000000
,
00000000
00000000
00000000
00000000
,
00010000
00000000
00010000
00000000
00001000
00000000
00010000
00000100
,
00001000
00000000
00001000
00000000
00000001
00000000
00001000
00000100
,
00000010
00000001
00000100
00001000
00010000
00000100
00010000
01000000
,
10000000
01000000
00000000
00100000
00010000
00100000
00000000
00010000
10000000
00000000
00000000
00000000
10010000
00000000
00000000
00000000
,
10000000
00100000
10000000
01000000
00010000
00001000
00000000
00001000
,
00010000
00001000
00000100
00000001
00001000
00000100
00000000
00000100
,
00010000
00001000
01000000
00100000
10000000
00010000
00000000
00010000
,
00100000
00000000
00001000
00000000
00000000
00000000
00010000
00001000
00010000
00000000
00000000
00000000
00010100
00000000
00000000
00000000
,
00001000
00000100
00000010
00000001
00000100
00001000
00000000
00001000
,
00010000
01000000
00100000
00010000
01000000
00010000
00000000
00010000
,
00110000
00000000
00000000
00011000
00000000
00000000
00010100
00000000
00000000
00001100
00000000
00000000
00000110
00000000
00000010
00000000
,
00001000
00000000
00000000
00011000
00000000
00000000
00020200
00000000
00000000
00000000
00000000
00000000
00000000
00000000
00000000
00000000
,
00030300
00000000
00000000
00000000
00000000
00000000
00000000
00000000
00000010
00010000
00001000
00010000
00000010
00000000
00000000
00000000
,
00001000
00000100
00001000
00000001
00000000
00001000
00000100
00000000
,
00010000
00000100
00010000
00001000
00000000
00100000
00010000
00000000
,
10000000
01000000
00010000
00001000
00010000
00100000
01000000
00000000
,
00010000
00100000
01000000
00010000
00001000
00000100
00000010
00000000
,
00001000
00000100
00001000
00000010
00000000
00000100
00000001
00000000
,
00001000
00000100
00010000
00000100
00000000
00010000
01000000
00000000
,
10000000
01000000
00010000
00001000
00010000
00100000
01000000
00001000
,
00200000
00000000
00000000
00000000
00000000
00000000
00000000
00000000
01300000
00000000
00000000
00000000
10000000
01000000
10000000
01000000
,
00100000
00010000
00100000
00001000
00100000
00000000
00100000
10000000
,
00100000
01000000
00100000
00000000
00110000
00000000
10100000
00000000
,
10000000
01000000
00100000
00001000
00000000
00000010
00000000
00000000
,
00000001
00000100
00000010
00010000
00000000
00100000
00000000
00000000
,
10000000
00010000
01000000
00100000
00010000
00000000
00001000
00000100
,
00000001
00001000
00000100
00000010
00001000
00000000
00010000
01000000
,
10000000
00000000
00010000
00100000
00000000
00001000
00010000
00001000
,
00000100
00000000
00000001
00000100
00000000
00001000
00000000
00020000
,
00000000
00000000
00000000
00000000
00000000
00000000
00000000
00000000
00000000
00000000
00000000
00000000
00030100
00010000
00001000
00010000
,
00000200
00000000
00000000
00000000
00000000
00000000
00000000
00000000
00000000
00000000
00000000
00000000
00010300
00001000
01000000
00001000
,
00020000
00000000
00000000
00000000
00031000
00100000
00010000
00100000
00002000
00000000
00000000
00000000
01003000
00010000
10000000
00010000
,
01000000
00100000
10000000
01000000
00100000
00001000
01000000
00100000
,
10000000
10000000
01000000
01000000
00010000
00010000
00001000
00001000
,
00000100
00000100
00000001
00000001
00000010
00000010
00000100
00000100
,
00001000
00000001
00000100
00001000
00010000
01000000
10000000
00010000
,
00100000
00100000
00100000
10010000
,
00100000
00010000
00001000
00010000
00100000
00001000
00000010
00000100
,
00001000
00000100
00000010
00000000
00000101
00000000
00001001
00000000
,
00000001
00000100
00000010
00001000
00000010
00010000
00001000
00000000
,
01000000
00100000
01000000
00010000
00100000
00001000
01000000
00000000
,
00100000
00010000
00001000
00010000
00100000
00001000
00000010
00000100
,
00001000
00000100
00000010
00000000
00000101
00000000
00001001
00000000
,
00000010
00001000
00000000
00001000
00100000
00010000
00000000
00010000
,
00001000
00000100
00000001
00000010
00000001
00002002
00000000
00003003
,
00000100
00001000
00010000
00001000
00000100
00010000
01000000
00100000
,
00010000
00100000
01000000
00000000
10100000
00000000
10010000
00000000
,
10000000
00100000
00010000
00001000
00100000
01000000
00010000
00001000
,
01000000
00100000
00010000
00001000
00000000
00022000
00000000
00033000
,
00010000
00000000
00100000
00000000
01000000
00000000
00100000
00000000
00010000
00000000
00000000
00000000
00001000
00100000
00010000
10000000
,
01000000
00000000
00100000
00000000
00010000
00000000
00100000
00000000
01000000
00000000
00000000
00000000
10000000
00010000
01000000
00001000
,
00020000
00000000
01030000
10000000
00000000
10000000
01000000
00010000
,
00002000
00000000
00003100
00000010
00000000
00000110
00000000
00002002
,
00000000
00000003
00003010
00000010
00000100
00000100
00001000
00001000
,
00010000
00010000
00100000
00100000
01000000
01000000
10010000
00000000
,
10000000
01000000
10000000
00100000
00010000
00001000
00000000
00001000
,
00010000
00001000
00000010
00000001
00001000
00000010
00000000
00000010
,
00010000
00001000
00100000
01000000
10000000
00010000
00000000
00010000
,
01000000
00000000
00001000
00000000
00000000
00000000
00010000
00001000
00010000
00000000
00000000
00000000
00010010
00000000
00000000
00000000
,
00001000
00000010
00000100
00000001
00000010
00001000
00000000
00001000
,
00010000
00100000
01000000
00010000
00100000
00010000
00000000
00010000
,
01010000
00000000
00000000
00011000
00000000
00000000
00010010
00000000
00000000
00001010
00000000
00000000
00000110
00000000
00000100
00000000
,
00001000
00000000
00000000
00011000
00000000
00000000
00020200
00000000
00000000
00000000
00000000
00000000
00000000
00000000
00030300
00000000
,
00000010
00000000
00000010
00000000
00000100
00001000
00010000
00100000
,
01000000
00000000
10000000
20020000
00000000
00000000
00000000
30030000
,
01000000
00001000
00100000
00110000
00000000
00010000
00001000
00000100
,
00000010
00001000
00000100
00000220
00000000
00000000
00000000
00000330
,
00000001
00000000
00001000
00000000
00000100
00000000
00010000
00000000
00000100
00000000
00000000
00000000
00010000
00001000
00100000
00010000
,
10000000
00000000
00010000
00000000
00100000
00000000
00001000
00000000
00100000
00000000
00000000
00000000
00001000
00010000
00000100
00001000
,
00000001
00000010
00000100
00001000
00000000
00000010
00000100
00001000
,
00010000
00100000
00010000
00001000
00000000
00000100
00000010
00001000
,
00000010
00000010
00000010
00001001
,
00000100
00001000
00010000
00001000
00000100
00010000
01000000
00100000
,
00010000
00100000
01000000
00000000
10100000
00000000
10010000
00000000
,
10000000
00100000
00010000
00001000
00000010
00000100
00001000
00000000
,
00000001
00000010
00001000
00010000
00000010
00000100
00000001
00000000
,
00000100
00001000
00010000
00001000
00000100
00010000
01000000
00100000
,
00010000
00100000
01000000
00000000
10100000
00000000
10010000
00000000
,
10000000
00010000
01000000
01010000
00000000
00100000
00001000
00010000
,
00000100
00000010
00000001
00001001
00000000
00000202
00000000
00000303
,
00000001
00000100
00001000
00010000
00001000
01000000
10000000
01000000
,
00010000
00100000
00010000
00000010
00000001
00000010
00000100
00001000
,
00000001
00000010
00001000
00010000
00100000
01000000
00010000
00100000
,
00010000
00000010
00001000
00000010
00000001
00000100
00001000
00000100
,
00000001
00000000
00000010
00000000
00000100
00000000
00000010
00000000
00000002
00000000
00000000
00000000
00001003
00000100
00010000
00001000
,
00100000
00000000
01000000
00000000
10000000
00000000
01000000
00000000
00200000
00000000
00000000
00000000
00301000
00010000
00000100
00001000
,
00000010
00000100
00000001
00002000
00000000
00003001
00000010
00000100
,
00001000
00000000
00010000
00000000
00100000
00000000
02000000
00000000
00000000
00000000
03200000
00000000
00000000
00300000
20020000
00000000
,
00000000
00000000
00000000
00000000
,
00000000
00000000
00000000
00000000
00000000
00000000
00000000
30030000
;

//---------------dance-single - ----------------
#NOTES:
     dance-single:
     :
     Challenge:
     16:
     0.895465,0.945161,0.574317,0.402022,0.406124,764.000000,694.000000,70.000000,49.000000,0.000000,1.000000,0.895465,0.945161,0.574317,0.402022,0.406124,764.000000,694.000000,70.000000,49.000000,0.000000,1.000000:
// measure 0
0000
0000
0000
0000
,  // measure 1
0000
0000
0000
0000
,  // measure 2
0000
0000
0000
0000
,  // measure 3
0000
0000
0000
0000
,  // measure 4
0000
0000
0000
0000
,  // measure 5
0000
0000
0000
0000
,  // measure 6
1000
0000
0010
0000
0001
0000
0010
0000
1000
0001
0100
0000
0001
0000
0100
0000
,  // measure 7
0010
1000
0100
0000
1000
0000
0001
0000
1000
0100
0010
0000
0001
0000
0010
0000
,  // measure 8
1000
0000
0100
0000
0010
0000
0001
0000
0100
0010
1000
0000
1000
0001
0010
0000
,  // measure 9
0010
0001
0000
0100
0010
0100
0000
0010
1000
0000
0000
0000
1001
0000
0000
0000
,  // measure 10
0001
0000
0100
0000
0010
0000
0100
0000
0001
0010
0001
0000
0100
0000
1000
0000
,  // measure 11
0100
0001
0100
0000
0010
0000
1000
0000
0100
0010
0100
0000
0010
0000
0100
0000
,  // measure 12
1000
0000
0100
0000
0001
0000
1000
0000
0001
0100
1000
0000
0010
0000
0100
0000
,  // measure 13
0001
0010
0001
0100
1001
0000
0110
0000
,  // measure 14
1000
0000
0010
0000
0100
0000
0010
0000
1000
0100
0010
0000
0010
0000
0100
0000
,  // measure 15
1000
0000
0001
0000
0100
0000
0001
0000
0100
0010
0100
0000
0010
0000
1000
0000
,  // measure 16
1001
0000
0000
0101
0000
0000
0110
0000
0000
1010
0000
0000
1001
0000
0101
0000
,  // measure 17
0110
0000
0000
1010
0000
0000
2002
0000
0000
0000
0000
0000
3003
0000
0000
0000
,  // measure 18
1000
0010
1000
0010
1000
0010
1000
0000
0001
0100
0001
0100
0010
0000
0000
0000
,  // measure 19
1010
0100
0010
0100
0001
0000
0101
0010
,  // measure 20
0100
0001
1000
1000
0020
0000
0230
0000
,  // measure 21
0301
0001
1000
0010
0000
0200
0010
0000
,  // measure 22
0310
0010
1000
0001
0000
0200
0010
0300
,  // measure 23
1010
0100
0010
1000
0010
0000
0101
0010
,  // measure 24
1000
0000
0010
0000
0100
0000
0100
0000
0010
1000
0010
0000
1000
0010
1000
0000
,  // measure 25
0002
0000
0103
0001
0000
1000
0010
0100
,  // measure 26
0110
0000
0000
0000
0001
1000
0001
0000
0100
0000
0010
0000
1000
0100
1000
0100
,  // measure 27
0020
0000
0000
0130
0101
0000
1000
1000
,  // measure 28
0010
0000
0100
0000
0010
0000
1000
0000
1002
0000
0000
0000
1003
0000
0010
0100
,  // measure 29
0020
0100
0000
0130
0101
0000
0100
0010
,  // measure 30
1000
0000
0010
0000
0100
0000
0002
0000
0000
0000
0103
0000
0010
0000
1000
0001
,  // measure 31
1000
0000
0001
0000
0100
0000
0010
0000
1000
0000
0000
0000
1000
0100
0010
0001
,  // measure 32
1000
0000
0010
0000
0100
0000
0010
0000
1000
0000
0000
0000
0001
0100
0010
1000
,  // measure 33
0002
0000
0100
0000
0103
0000
0010
1000
0010
0000
0100
0000
0001
0000
0010
0000
,  // measure 34
0100
0000
1001
0000
1001
0000
2001
0000
0000
0000
3201
0000
0300
2002
0000
0000
,  // measure 35
0000
0000
0000
0000
0000
0000
0000
0000
3003
0000
0000
0000
1000
0001
0100
0001
,  // measure 36
2000
0000
0000
0000
0010
0000
0000
0000
0010
0000
0000
0000
3010
0100
0001
0100
,  // measure 37
0020
0000
0000
0000
1030
0010
0100
0010
2000
0000
0000
0000
3001
0100
0010
0100
,  // measure 38
0001
1000
0001
0000
0010
1000
0010
0000
0100
0001
0100
0000
0010
0100
0010
0000
,  // measure 39
1000
1000
0001
0001
0100
0100
0010
1000
,  // measure 40
1000
1000
1000
0001
0100
0100
0010
0010
,  // measure 41
1000
0000
0001
0000
0100
0000
0001
0000
1000
0010
0100
0010
1000
0001
0100
0001
,  // measure 42
1000
0110
1001
0110
,  // measure 43
0001
0000
0100
0000
0010
0000
0100
0000
0002
0000
0000
0000
1003
0000
0010
0100
,  // measure 44
0010
0100
0001
1000
2002
3003
0220
0330
,  // measure 45
1001
0000
1000
0020
0000
0230
0010
0300
,  // measure 46
0010
0000
1000
0000
0001
0000
1000
0000
0010
0000
0100
0000
0010
0000
1000
0001
,  // measure 47
1000
0000
0100
0010
0100
0000
1000
0000
0002
0000
0010
0000
0103
0000
0010
1000
,  // measure 48
0010
0100
0001
1000
1001
0000
0110
1000
,  // measure 49
0001
0000
0100
0000
0000
0000
0010
1000
0010
0000
0100
0000
0000
0000
0001
0100
,  // measure 50
0001
1000
0100
0010
0001
2002
0000
3003
,  // measure 51
0110
0001
1000
0010
1000
0000
0101
0010
,  // measure 52
1000
0001
1000
0010
0100
0001
0100
0010
,  // measure 53
2000
0000
3001
0100
0000
0101
0000
0000
,  // measure 54
1001
0000
0001
1000
0000
1010
0000
0000
,  // measure 55
0010
0000
0100
0000
0001
0000
0100
0000
0110
0000
0000
0000
1000
0010
0100
0010
,  // measure 56
1000
0000
0001
0000
0100
0000
0010
0000
0101
0000
0000
0000
1000
0010
0100
0010
,  // measure 57
1000
0010
0100
0010
0000
0100
0001
1000
,  // measure 58
0001
0100
0010
0100
0000
0001
0010
0200
,  // measure 59
0000
0000
1300
1000
0001
0001
0100
0100
,  // measure 60
0010
0010
0200
0320
2030
0000
3001
0000
,  // measure 61
0010
0100
0010
0000
1000
0001
1000
0000
0001
0000
0100
0000
0010
0000
0100
0000
,  // measure 62
0001
0010
0001
0000
1000
0000
0100
0000
0001
0100
0001
0000
0100
0000
1000
0000
,  // measure 63
0100
0010
0100
0000
0010
0000
0001
0000
0100
0001
0100
0000
0010
0000
1000
0000
,  // measure 64
0100
1000
0100
0000
0001
0000
0100
0000
1000
0000
0010
0000
0001
0000
0010
0000
,  // measure 65
1000
0001
1000
0000
0100
0000
0010
0000
0100
0000
1001
0000
0100
0000
0010
0000
,  // measure 66
0001
0010
0001
0000
0100
0000
0010
0000
1000
0000
0010
0000
0100
1000
0001
1000
,  // measure 67
0100
0000
0000
0110
0000
0000
0101
0000
0000
1001
0000
0000
1010
0000
0010
0000
,  // measure 68
0110
0000
0000
1001
0000
0000
0220
0000
0000
0000
0330
0000
1000
0001
1000
0000
,  // measure 69
0001
0100
0010
0100
0001
0001
1000
0010
,  // measure 70
0110
0000
0100
0000
0001
0000
1000
0001
1000
0000
0001
1000
0001
0000
1000
0000
,  // measure 71
0001
0001
0100
0010
0100
0010
0010
1000
,  // measure 72
0001
0100
0010
0100
0100
0001
0001
0100
,  // measure 73
0010
0000
1001
0000
0100
0000
0010
0000
0100
0000
0000
0000
0001
0100
0001
0000
,  // measure 74
1000
0010
0100
0010
1000
0001
0101
0000
,  // measure 75
1010
0000
0100
0101
0000
0010
1000
0001
,  // measure 76
1000
0010
0100
0010
1000
0100
0010
0001
,  // measure 77
0100
0000
0000
0000
0010
0100
0010
0000
0010
0000
1000
0001
1000
0000
0000
0000
,  // measure 78
1010
0000
0100
0001
0100
0000
0010
0000
1000
0000
0000
0000
1000
0000
0010
0100
,  // measure 79
0010
0100
0001
1000
2020
3030
0220
0330
,  // measure 80
0101
0001
0100
0010
1000
0020
0000
0030
,  // measure 81
0100
0000
0001
0000
0010
0000
1000
0000
0010
0000
0001
0000
0100
0000
0010
1000
,  // measure 82
0010
0000
0100
0001
0100
0000
0001
0000
1000
0000
0010
0000
0100
0000
0001
1000
,  // measure 83
0001
0100
0010
1000
2020
3030
0220
0330
,  // measure 84
0101
0001
1000
1100
0000
0110
0100
0001
,  // measure 85
1000
0001
0100
0110
0000
2002
0000
3003
,  // measure 86
0010
0000
0100
0000
0001
0000
1000
0000
0010
1000
0010
1000
0001
0000
0101
0000
,  // measure 87
0010
1000
0010
0000
0100
0000
0010
0000
1000
0001
0100
0001
1000
0000
0001
0000
,  // measure 88
0100
0010
0100
0001
0010
0100
1000
0001
,  // measure 89
0100
0000
0010
0000
0100
0000
0001
0000
1000
0100
0010
0000
0001
0000
1000
0000
,  // measure 90
0010
0000
0100
0010
1000
0000
0001
0000
1000
0000
0001
0100
0001
0000
1000
0000
,  // measure 91
0010
0000
0100
0001
1000
0000
0010
0000
0100
0000
0010
0000
0010
0100
0001
0100
,  // measure 92
0010
1000
0001
0101
0000
1010
0010
0100
,  // measure 93
0001
0000
0100
0000
0010
0000
1010
0000
0000
0000
1001
0000
0000
0000
0001
1000
,  // measure 94
0002
0000
0000
0000
,  // measure 95
2000
0000
0000
0000
,  // measure 96
3003
0000
0000
0000
;
