#TITLE:Unreal;
#SUBTITLE:;
#ARTIST:Black Rose Garden;
#TITLETRANSLIT:;
#SUBTITLETRANSLIT:;
#ARTISTTRANSLIT:;
#GENRE:;
#CREDIT:;
#BANNER:Unreal.png;
#BACKGROUND:Unreal-bg.png;
#LYRICSPATH:;
#CDTITLE:;
#MUSIC:Unreal.ogg;
#OFFSET:0.000000;
#SAMPLESTART:27.999996;
#SAMPLELENGTH:15.000000;
#SELECTABLE:YES;
#DISPLAYBPM:90.000000:180.000000;
#BPMS:0.000000=180.000000
,184.000000=90.000000
,200.000000=180.000000
;
#STOPS:
;
#BGCHANGES:0.000=Unreal.avi=1.000=0=0=0=StretchNoLoop====,
99999=-nosongbg-=1.000=0=0=0 // don't automatically add -songbackground-
;
#KEYSOUNDS:;
#ATTACKS:;

//---------------dance-single - ----------------
#NOTES:
     dance-single:
     :
     Challenge:
     16:
     0.886905,1.029297,0.322917,0.083333,0.635417,596.000000,565.000000,31.000000,8.000000,0.000000,0.000000,0.886905,1.029297,0.322917,0.083333,0.635417,596.000000,565.000000,31.000000,8.000000,0.000000,0.000000:
// measure 0
0000
0000
0000
0000
,  // measure 1
0000
0000
0000
0000
,  // measure 2
0000
0000
0000
0000
,  // measure 3
0000
0000
0000
0000
,  // measure 4
0000
0000
0000
0000
,  // measure 5
0000
0000
0000
0000
0000
0000
0000
0000
0000
0000
0000
0000
0000
0000
1000
0100
,  // measure 6
1000
0000
0001
0000
0100
0000
0001
0000
0010
0100
0010
0000
0100
0000
1000
0001
,  // measure 7
1000
0000
0100
0000
1000
0100
1000
0000
0001
0100
0001
0000
0010
0000
1000
0001
,  // measure 8
1000
0000
0010
0000
1000
0001
1000
0000
0100
0000
0001
0100
0001
0000
0100
0000
,  // measure 9
1000
0000
0100
0000
0001
0010
0001
0000
0001
1000
0001
0000
0001
0010
0001
0000
,  // measure 10
1000
0000
1010
0000
0100
0001
0100
1000
,  // measure 11
1010
0000
0001
0100
0001
1000
0000
1001
,  // measure 12
0000
0101
0000
0010
0110
0000
1010
0000
,  // measure 13
1000
0000
0001
0000
0100
0000
0000
0000
0001
0010
0001
0000
1000
0000
1010
0000
,  // measure 14
0000
0000
1001
0000
0010
0100
0001
0100
,  // measure 15
0010
1000
0010
0011
0000
1010
0000
0110
,  // measure 16
0000
0001
0100
0001
1001
0000
1010
0000
,  // measure 17
0110
0000
0001
1000
0001
0100
0001
1000
,  // measure 18
0020
0000
0130
0002
0000
0000
0000
1003
,  // measure 19
0001
0000
1000
0010
0000
0100
0001
0100
,  // measure 20
0010
1000
0010
0100
0000
0001
0101
0000
,  // measure 21
1000
1010
0000
0010
0110
0000
0001
1000
,  // measure 22
0001
0000
0100
0000
1000
0100
1000
0000
0100
0000
0010
0000
0001
0000
0010
0000
,  // measure 23
0001
0100
0001
0000
1000
0000
0100
1000
0100
0000
1000
0000
0010
0100
0010
0000
,  // measure 24
0001
0000
1000
0000
1100
0000
0000
0000
1000
0000
0100
0000
0010
0100
1000
0000
,  // measure 25
0010
0001
0010
1000
0100
0001
0100
1000
,  // measure 26
0010
0100
0010
0000
1000
0000
0100
0000
0010
0000
0010
0000
1000
0000
0010
0000
,  // measure 27
0001
0100
0001
0000
1000
0000
0010
1000
0001
0000
0100
0010
1000
0000
0001
1000
,  // measure 28
0001
0010
0001
1000
0010
1000
0100
0010
,  // measure 29
0100
0010
0001
0000
1000
0000
0001
0000
0010
0000
1000
0000
0010
0000
0001
0000
,  // measure 30
0010
0100
0010
0000
0100
0000
1000
0000
0001
0000
0100
0000
0001
0100
0001
0000
,  // measure 31
1000
0100
1000
0000
0001
0000
0100
0000
0010
0000
1000
0000
0010
1000
0010
0000
,  // measure 32
0001
0010
0001
0000
0100
0000
0010
0000
1000
0000
0010
0000
1000
0001
1000
0000
,  // measure 33
0001
0100
0001
0000
0010
0000
0100
0000
0010
0000
0100
0000
0010
0000
0001
0000
,  // measure 34
1000
0010
0001
0010
1000
0100
0001
0100
,  // measure 35
1000
0010
0100
1000
0100
0010
0001
1000
,  // measure 36
0010
0100
0010
0000
0100
0000
0100
0000
0001
0000
0001
0000
1000
0000
0100
0000
,  // measure 37
1000
0001
1000
0000
0010
0000
0110
0000
0000
0000
1001
0000
0001
0000
1000
0000
,  // measure 38
0010
0000
0100
0001
0100
0000
0100
0000
0010
1000
0010
0000
0010
0000
0100
1000
,  // measure 39
0100
0000
0010
0000
0100
0000
0001
0000
0010
0000
0100
0000
1000
0000
0001
1000
,  // measure 40
0001
0000
0100
0000
0001
0000
0100
1000
0100
0000
0010
0000
1000
0001
1000
0000
,  // measure 41
0001
0000
0100
0010
0100
0000
0001
0000
0100
0010
1000
0000
0010
0000
1000
0001
,  // measure 42
1000
0000
0010
0000
1000
0000
0001
0000
0100
0001
0100
0000
0001
0000
0010
0000
,  // measure 43
0100
1000
0100
1000
0001
0000
0100
0000
1000
0000
0100
0000
0001
0000
0010
0001
,  // measure 44
0010
0001
0100
0000
0001
0010
0001
0010
0001
0000
0100
0010
0100
0010
0100
0000
,  // measure 45
0001
0010
0001
0010
0100
1000
0100
1000
0010
0100
0010
0100
0001
1000
0001
1000
,  // measure 46
0200
0000
0320
0000
0032
0000
1003
0010
1000
0000
0001
0100
0000
0001
0100
0000
,  // measure 47
1010
0000
0110
0000
0101
0000
1000
0010
0100
0000
0010
1000
0000
0001
1000
0000
,  // measure 48
1020
0000
0230
0000
0302
0000
0103
0010
1000
0010
0100
0000
1001
0000
0010
0000
,  // measure 49
0100
0000
0010
0000
0101
0000
1000
0010
0100
0000
0010
1000
0000
0001
1000
0000
,  // measure 50
0101
0010
1000
0100
0001
0100
1000
0000
,  // measure 51
0001
0010
0001
0000
1000
0000
0010
0000
0001
0000
0010
0000
1000
0100
1000
0000
,  // measure 52
0100
0000
0010
0000
0001
0000
0001
0000
1000
0000
0010
0000
1000
0001
1000
0000
,  // measure 53
0100
0010
0100
0000
0010
0000
0001
0100
0001
0000
1000
0100
1000
0000
0010
0000
,  // measure 54
1000
0010
0001
0010
1000
0100
0001
0000
,  // measure 55
0100
1000
0010
0100
0010
1000
0001
1000
,  // measure 56
0010
1000
0010
0000
1010
0000
1000
0000
0100
0000
0010
0000
0001
0000
0100
0000
,  // measure 57
0001
1000
0001
0000
1000
0000
1010
0000
0000
0000
0110
0000
0000
0000
0000
0000
,  // measure 58
0010
0100
0010
0100
0001
0000
0010
1000
0010
1000
0010
0000
0001
0100
0001
0100
,  // measure 59
0010
0000
1000
0100
1000
0100
0010
0001
0010
0001
0100
0010
0100
0000
0001
1000
,  // measure 60
0001
1000
0001
0000
0100
0010
0100
0010
1000
0000
0100
0001
0100
0001
0100
0000
,  // measure 61
1000
0010
1000
0010
1000
0001
1000
0001
1000
0100
1000
0100
1000
0000
0001
0100
,  // measure 62
0001
0010
0001
0000
0100
0010
0100
1000
0100
0010
0001
0000
0010
0000
1000
0100
,  // measure 63
0010
0100
1000
0000
0001
0100
0010
0100
0001
1000
0001
1000
0100
0000
0010
0001
,  // measure 64
0010
0100
1000
0000
0010
0000
1000
0001
0010
0001
0100
0000
0010
0000
1000
0100
,  // measure 65
1000
0010
0100
0001
0100
0010
1000
0100
0010
0001
0100
0010
1000
0000
1001
0000
;

//---------------dance-single - ----------------
#NOTES:
     dance-single:
     :
     Beginner:
     4:
     0.150298,0.236523,0.041667,0.000000,0.000000,101.000000,97.000000,4.000000,0.000000,0.000000,0.000000,0.150298,0.236523,0.041667,0.000000,0.000000,101.000000,97.000000,4.000000,0.000000,0.000000,0.000000:
0000
0000
0000
0000
,
0000
0000
0000
0000
,
0000
0000
0000
0000
,
0000
0000
0000
0000
,
0000
0000
0000
0000
,
0000
0000
0000
0000
0000
0000
0000
1000
,
0000
0000
0000
0000
0000
0000
0000
0100
,
0000
0000
0000
0000
0000
0000
0000
1000
,
0000
0000
0000
0000
0000
0000
0000
0100
,
0000
0000
0000
0000
,
1000
0000
1001
0000
,
0100
0000
0000
0000
,
0001
0000
1001
0000
,
0100
0000
0000
0000
,
0100
0000
0010
0000
,
0001
0000
0000
0000
,
0100
0000
0100
0000
,
1000
0000
1001
0000
,
0100
0000
0000
0000
,
1000
0000
0000
0000
,
0001
0000
0000
0010
,
0010
0000
0000
0001
,
1000
0000
0000
0000
,
0001
0000
0000
1000
,
1000
0000
0010
0000
,
0001
0000
0100
0000
,
0001
0001
0001
0000
,
1000
1000
1000
0000
,
0001
0000
0001
0000
,
1000
0000
1000
0000
,
1000
0001
0000
0001
,
0000
1000
0000
1000
,
0000
0001
0000
0001
,
0000
1000
0000
0001
,
0010
0000
0000
0000
,
0100
0100
0100
0000
,
0100
0000
0010
0000
,
0100
0000
0000
0000
,
0010
0000
0000
0000
,
0010
0000
0001
0000
,
0100
0000
0001
0000
,
0100
0000
0000
0000
0000
0000
0000
0100
,
0000
0000
0000
0000
0000
0000
0000
0010
,
0000
0000
0000
0000
0000
0000
0000
0001
,
0000
0000
0000
0000
0000
0000
0000
1000
,
0000
0000
0000
0000
,
0100
0000
0100
0000
,
0100
0000
0100
0000
,
0010
0000
0010
0000
,
0010
0000
0010
0000
,
0000
0001
0000
0001
,
0000
1000
0000
1000
,
0000
0100
0000
0100
,
0000
0010
0000
0010
,
0010
0000
0000
0000
,
1000
1000
1000
0000
,
0001
0000
1000
0000
,
1001
0000
0000
0000
,
0000
0000
0000
0000
,
0001
0000
1000
0000
,
1000
0000
0010
0000
,
0000
0000
0000
0000
0000
0000
0000
0100
,
0000
0000
0000
0000
0000
0000
0000
0001
,
0000
0000
0000
0000
0000
0000
0000
0010
,
0000
0000
0000
0000
0000
0000
0000
0100
,
0000
0000
0000
0000
;

//---------------dance-single - ----------------
#NOTES:
     dance-single:
     :
     Easy:
     8:
     0.464286,0.548958,1.041667,0.000000,0.000000,312.000000,212.000000,100.000000,0.000000,0.000000,0.000000,0.464286,0.548958,1.041667,0.000000,0.000000,312.000000,212.000000,100.000000,0.000000,0.000000,0.000000:
0000
0000
0000
0000
,
0000
0000
0000
0000
,
0000
0000
0000
0000
,
0000
0000
0000
0000
,
0000
0000
0000
0000
,
0000
0000
0000
0000
0000
0000
0000
0100
,
0000
1000
0000
1100
0000
0000
0000
0010
,
0000
0001
0000
0011
0000
0010
0000
1001
,
0000
0000
1100
0000
0000
1001
0000
0000
,
0011
0000
0000
0100
0000
1001
0000
0000
,
1000
0010
1001
0000
,
0100
0000
0000
0100
0000
1010
0000
0000
,
0001
0010
1001
0000
,
0100
0000
0000
0100
0000
0011
0000
0000
,
0100
1000
1010
0000
,
0001
0000
0000
1000
0000
1001
0000
0000
,
0100
0001
0011
0000
,
1000
0001
1001
0000
,
0100
0000
0000
0010
0000
0000
1100
0000
,
0100
0000
0000
0010
0000
0000
0101
0000
,
0010
0000
0000
0100
0000
0000
1010
0000
,
0010
0000
0000
0100
0000
0000
0101
0000
,
1000
1000
1010
0000
,
0001
0001
0011
0000
,
1000
0100
1010
0000
,
0001
0100
0011
0110
,
0001
0001
0101
0000
,
1000
1000
1100
0000
,
0001
0010
0101
0000
,
1000
0010
1100
0110
,
1000
1010
0001
1010
,
0001
0011
1000
0011
,
1000
1100
0001
1100
,
0001
0101
1000
0101
,
1000
1010
0100
0011
,
0001
0011
0100
1010
,
0100
1001
0010
1001
,
0100
0000
0000
0110
0000
0010
0000
1000
,
0000
0100
0000
1010
0000
0000
0000
1100
,
0000
1010
1001
0001
,
0100
0011
0000
0101
,
0000
0011
0000
1001
0000
0100
0000
1000
,
0000
0100
0000
1010
0000
0000
0000
1100
,
0000
0000
1010
0000
1001
0000
0000
0110
,
0000
0000
0101
0000
0000
0110
0000
0000
,
1100
0000
0000
0110
0000
1001
0000
0000
,
0100
0000
0010
0010
0100
0001
1001
0000
,
0100
0000
0010
0010
0100
1000
1001
0000
,
0010
0000
0100
0100
0010
0001
1001
0000
,
0010
0000
0100
0100
0010
1000
1001
0000
,
0001
0101
1000
0101
,
1000
1100
0001
1100
,
0001
0011
1000
0011
,
1000
1010
0001
1010
,
0001
0101
0010
1100
,
1000
1100
0010
0101
,
0010
1001
0100
1001
,
0010
0000
0000
0110
0000
0100
0000
0001
,
0000
0010
0000
0101
0000
0000
0000
0011
,
0000
0101
1001
1000
,
0010
1100
0000
1010
,
0000
1100
0000
1001
0000
0010
0000
0001
,
0000
0010
0000
0101
0000
0000
0000
0011
,
0000
0000
0101
0000
1001
0000
0000
0110
,
0000
0000
1010
0000
0000
0110
0000
0000
,
0011
0000
0000
0110
0000
1001
0000
0110
,
0000
0000
0000
0000
;

//---------------dance-single - ----------------
#NOTES:
     dance-single:
     :
     Medium:
     12:
     0.657738,0.789128,1.406250,0.000000,0.020833,442.000000,307.000000,135.000000,0.000000,0.000000,0.000000,0.657738,0.789128,1.406250,0.000000,0.020833,442.000000,307.000000,135.000000,0.000000,0.000000,0.000000:
0000
0000
0000
0000
,
0000
0000
0000
0000
,
0000
0000
0000
0000
,
0000
0000
0000
0000
,
0000
0000
0000
0000
,
0000
0000
0000
0000
0000
0000
0000
1000
,
0000
1100
0000
0001
0101
0000
0010
0110
,
0000
0001
0000
0110
0000
1000
0000
0100
,
0011
0000
0100
1010
0000
0100
1010
0000
,
0100
0011
0000
1001
0000
1100
0000
0011
,
0100
0001
0101
0001
,
0100
0000
0010
0100
0000
1000
0000
1100
,
0100
1000
1010
1000
,
0010
0000
0100
0010
0000
0001
0101
0000
,
0010
0001
0011
0001
,
0010
0000
0100
0010
0000
1000
0000
1010
,
0010
0001
0101
0001
,
0100
0000
0010
0100
0000
1000
1010
0000
,
0100
0000
0010
0001
0000
0000
1100
0000
,
0100
0000
0010
1000
0000
0001
0101
0000
,
0010
0000
0100
1000
0000
0000
0011
0000
,
0010
0000
0100
0001
0000
1000
1010
0000
,
0101
0000
0110
0000
0001
0100
1001
0000
,
1100
0000
0110
0000
1000
0100
1001
0000
,
0110
0000
1001
0000
0010
0100
1001
0000
,
0010
1000
1010
0000
0001
0100
1001
0000
,
1010
0000
0110
0000
0001
0100
1010
0000
,
0101
0000
0110
0000
1000
0100
0011
0000
,
0110
0000
1001
0000
0010
0100
1001
0000
,
0100
0000
1000
1010
0000
0001
0101
0000
,
1010
0000
0110
0000
1000
0010
1001
0000
,
0011
0000
0110
0000
0001
0010
1001
0000
,
0110
0000
1001
0000
0100
0010
1001
0000
,
0100
0001
0101
0000
1000
0010
1001
0000
,
0101
0000
0110
0000
1000
0010
0101
0000
,
1010
0000
0110
0000
0001
0010
1100
0000
,
0110
0000
1001
0000
0100
0010
1001
0000
,
0010
0000
0001
0101
0000
1000
0000
1010
,
1000
1100
0000
0001
0101
0000
1000
1100
,
0000
0100
0010
0000
0001
0000
1000
0010
,
1010
0000
0010
0011
0000
0010
1010
0000
,
0100
0010
0000
1001
0000
0110
0000
1001
,
0000
1100
0000
0010
0100
0000
0010
0001
,
0000
0110
0000
1000
0000
1001
0000
1000
,
1100
0000
0001
0101
0000
1000
1010
0000
,
0001
0011
0000
0110
0000
0010
0000
1001
,
0100
0000
0000
0000
1010
0000
0100
0001
0100
0000
1100
0000
1001
0000
0000
0000
,
0100
0000
0000
0000
0011
0000
0100
1000
0100
0000
0101
0000
0001
0000
0100
0000
,
0010
0000
0000
0000
1100
0000
0010
0001
0010
0000
1010
0000
1001
0000
0000
0000
,
0010
0000
0000
0000
0101
0000
0010
1000
0010
0000
0011
0000
0001
0000
0010
0000
,
1100
0000
0110
0000
1000
0100
1001
0000
,
0101
0000
0110
0000
0001
0100
1001
0000
,
0110
0000
1001
0000
0010
0100
1001
0000
,
0010
0001
0011
0000
1000
0100
1001
0000
,
0011
0000
0110
0000
1000
0100
0011
0000
,
1100
0000
0110
0000
0001
0100
1010
0000
,
0110
0000
1001
0000
0010
0100
1001
0000
,
0100
0000
0001
0011
0000
1000
0000
1100
,
1000
1010
0000
0001
0011
0000
1000
1010
,
0000
0010
0100
0000
0001
0000
1000
0100
,
1100
0000
0100
0101
0000
0100
1100
0000
,
0010
0100
0000
1001
0000
0110
0000
1001
,
0000
1010
0000
0100
0010
0000
0100
0001
,
0000
0110
0000
1000
0000
1001
0000
1000
,
1010
0000
0001
0011
0000
1000
1100
0000
,
0001
0101
0000
0110
0000
0100
0000
1001
;

//---------------dance-single - ----------------
#NOTES:
     dance-single:
     :
     Hard:
     15:
     0.736607,0.857747,1.010417,0.000000,0.052083,495.000000,398.000000,97.000000,0.000000,0.000000,0.000000,0.736607,0.857747,1.010417,0.000000,0.052083,495.000000,398.000000,97.000000,0.000000,0.000000,0.000000:
// measure 0
0000
0000
0000
0000
,  // measure 1
0000
0000
0000
0000
,  // measure 2
0000
0000
0000
0000
,  // measure 3
0000
0000
0000
0000
,  // measure 4
0000
0000
0000
0000
,  // measure 5
0000
0000
0000
0000
0000
0000
0000
1000
,  // measure 6
1000
1100
0000
0001
0101
0000
1000
0001
,  // measure 7
0001
1001
1000
0100
0010
1001
0000
0010
,  // measure 8
0110
0000
1000
1001
0000
0001
0110
0000
,  // measure 9
0100
1000
0010
0100
0001
0010
0100
1000
,  // measure 10
0100
0000
0010
0000
0001
0100
0001
0000
,  // measure 11
1100
0000
0010
0001
0000
1100
0000
1001
,  // measure 12
0100
0000
0010
0000
1000
0100
1000
0000
,  // measure 13
0101
0000
0010
1000
0000
1000
0001
1001
,  // measure 14
0100
0000
0010
0000
0001
0100
0010
0000
,  // measure 15
1100
0000
0010
0001
0000
0110
0000
1010
,  // measure 16
0100
0000
1010
0000
1000
0100
0010
0000
,  // measure 17
0101
0000
0010
1000
0000
0100
0010
1010
,  // measure 18
0100
0000
0010
0001
0000
0011
0000
0100
,  // measure 19
1000
0000
0001
0010
0000
1000
0100
1000
,  // measure 20
0010
0000
0100
1000
0000
1100
0000
0010
,  // measure 21
0001
0000
1000
0100
0000
0010
0100
1000
,  // measure 22
0001
0100
0110
0000
1000
0100
0110
0000
,  // measure 23
0001
0100
1010
0000
1000
0100
0011
0000
,  // measure 24
1000
0100
1010
0000
0001
0100
0011
0000
,  // measure 25
1000
0100
0010
0001
0010
0100
1001
0000
,  // measure 26
0010
1000
1010
0000
0010
0001
0011
0000
,  // measure 27
0100
1000
1100
0000
0100
0001
0101
0000
,  // measure 28
0010
1000
0101
0000
0010
0001
1010
0000
,  // measure 29
0100
0000
0010
0001
0000
1000
0100
1000
,  // measure 30
0001
0010
0110
0000
1000
0010
0110
0000
,  // measure 31
0001
0010
1100
0000
1000
0010
0101
0000
,  // measure 32
1000
0010
1100
0000
0001
0010
0101
0000
,  // measure 33
1000
0010
0100
0001
0100
0010
1001
0000
,  // measure 34
0100
1000
1100
0000
0100
0001
0101
0000
,  // measure 35
0010
1000
1010
0000
0010
0001
0011
0000
,  // measure 36
0100
1000
0011
0000
0100
0001
1100
0000
,  // measure 37
0010
0000
0100
0001
0000
1000
0000
0010
,  // measure 38
1000
1100
0000
0001
0101
0000
0010
1001
,  // measure 39
0000
1000
0100
0001
0100
0010
0001
1000
,  // measure 40
1010
0010
0001
0011
0010
1000
1010
0010
,  // measure 41
1000
0100
0001
0100
1000
0010
1001
0100
,  // measure 42
0010
0101
0100
0010
0100
1010
0010
1000
,  // measure 43
1100
0100
0010
0011
0001
0100
0110
0001
,  // measure 44
0110
0100
1000
0110
0100
0001
0110
0100
,  // measure 45
0010
1000
0100
0001
0100
1000
0010
1001
,  // measure 46
0100
0000
0100
0000
0011
0000
0100
0010
0100
1000
0100
0000
0011
0000
0100
0000
,  // measure 47
0100
0000
0100
0000
1010
0000
0100
0001
0100
0000
0010
1000
0000
0001
1000
0000
,  // measure 48
0010
0000
0010
0000
0101
0000
0010
0100
0010
1000
0010
0000
0101
0000
0010
0000
,  // measure 49
0010
0000
0010
0000
1100
0000
0010
0001
0010
0000
0100
1000
0000
0001
1000
0000
,  // measure 50
0001
0100
0110
0000
1000
0100
0110
0000
,  // measure 51
0001
0100
1010
0000
1000
0100
0011
0000
,  // measure 52
1000
0100
1010
0000
0001
0100
0011
0000
,  // measure 53
1000
0100
0010
0001
0010
0100
1001
0000
,  // measure 54
0010
1000
1010
0000
0010
0001
0011
0000
,  // measure 55
0100
1000
1100
0000
0100
0001
0101
0000
,  // measure 56
0010
1000
0101
0000
0010
0001
1010
0000
,  // measure 57
0100
0000
0010
0001
0000
1000
0000
0100
,  // measure 58
1000
1010
0000
0001
0011
0000
0100
1001
,  // measure 59
0000
1000
0010
0001
0010
0100
0001
1000
,  // measure 60
1100
0100
0001
0101
0100
1000
1100
0100
,  // measure 61
1000
0010
0001
0010
1000
0100
1001
0010
,  // measure 62
0100
0011
0010
0100
0010
1100
0100
1000
,  // measure 63
1010
0010
0100
0101
0001
0010
0110
0001
,  // measure 64
0110
0010
1000
0110
0010
0001
0110
0010
,  // measure 65
0100
1000
0010
0001
0010
1000
0100
1001
;

//---------------dance-double - ----------------
#NOTES:
     dance-double:
     :
     Easy:
     8:
     0.473214,0.548958,1.104167,0.000000,0.000000,318.000000,212.000000,106.000000,0.000000,0.000000,0.000000,0.473214,0.548958,1.104167,0.000000,0.000000,318.000000,212.000000,106.000000,0.000000,0.000000,0.000000:
00000000
00000000
00000000
00000000
,
00000000
00000000
00000000
00000000
,
00000000
00000000
00000000
00000000
,
00000000
00000000
00000000
00000000
,
00000000
00000000
00000000
00000000
,
00000000
00000000
00000000
00000000
00000000
00000000
00000000
00100000
,
00000000
00001000
00000000
00011000
00000000
00000000
00000000
00010000
,
00000000
00000100
00000000
00000110
00000000
00000001
00000000
00000110
,
00000000
00000000
00010010
00000000
00000000
00011000
00000000
00000000
,
00110000
00000000
00000000
01000000
00000000
10010000
00000000
00000000
,
01000000
10000000
10100000
00000000
,
00010000
00000000
00000000
00001000
00000000
00011000
00000000
00000000
,
00000100
00000001
00000011
00000000
,
00000100
00000000
00000000
00010000
00000000
00011000
00000000
00000000
,
00100000
10000000
11000000
00000000
,
00010000
00000000
00000000
00001000
00000000
00011000
00000000
00000000
,
00000010
00000001
00000101
00000000
,
00000010
00000000
00000000
00010000
00000000
00011000
00000000
00000000
,
01000000
00000000
00000000
00100000
00000000
00000000
10010000
00000000
,
01000000
00000000
00000000
00100000
00000000
00000000
01001000
00000000
,
00010000
00000000
00000000
00000100
00000000
00000000
00001010
00000000
,
00000100
00000000
00000000
00000010
00000000
00000000
00001001
00000000
,
00000100
00001000
00011000
00000000
,
00010000
01000000
01100000
00000000
,
10000000
00100000
10010000
00000000
,
01000000
01010000
00011000
00001100
,
00000010
00001000
00011000
00000000
,
00010000
00100000
01100000
00000000
,
10000000
01000000
10010000
00000000
,
00100000
00110000
00011000
00001010
,
00000100
00000101
00000010
00010010
,
00001000
01010000
00100000
10010000
,
01000000
11000000
00100000
00101000
,
00010000
00001100
00000010
00001001
,
00000100
00001100
00010000
00011000
,
01000000
01100000
00100000
10100000
,
01100000
01001000
00011000
00010010
,
00000100
00000000
00000000
00001001
00000000
00000010
00000000
00001000
,
00000000
00010000
00000000
00011000
00000000
00000000
00000000
01010000
,
00000000
10100000
01100000
00010000
,
00001000
00011000
00000000
00001100
,
00000000
00000011
00000000
00000110
00000000
00001000
00000000
00000001
,
00000000
00000100
00000000
00001100
00000000
00000000
00000000
00011000
,
00000000
00000000
10100000
00000000
10010000
00000000
00000000
01100000
,
00000000
00000000
01010000
00000000
00000000
00011000
00000000
00000000
,
00001010
00000000
00000000
00000110
00000000
00001001
00000000
00000000
,
00000100
00000000
00000010
00000010
00000001
00000100
00000110
00000000
,
00001000
00000000
00010000
00010000
01000000
10000000
10010000
00000000
,
00100000
00000000
00010000
00010000
00001000
00000100
00000110
00000000
,
00000010
00000000
00010000
00010000
00001000
01000000
10010000
00000000
,
01000000
11000000
00100000
00101000
,
00010000
00001100
00000010
00001001
,
00000100
00000101
00000010
00010010
,
00001000
01010000
00100000
10010000
,
01000000
01010000
00001000
00011000
,
00000100
00000110
00000010
00000011
,
00000110
00010100
00011000
00101000
,
01000000
00000000
00000000
10010000
00000000
00100000
00000000
00010000
,
00000000
00001000
00000000
00011000
00000000
00000000
00000000
00001100
,
00000000
00000011
00000110
00001000
,
00010000
00011000
00000000
01010000
,
00000000
10100000
00000000
01100000
00000000
00010000
00000000
10000000
,
00000000
01000000
00000000
01010000
00000000
00000000
00000000
00011000
,
00000000
00000000
00000011
00000000
00001001
00000000
00000000
00000110
,
00000000
00000000
00001100
00000000
00000000
00011000
00000000
00000000
,
00110000
00000000
00000000
01100000
00000000
10010000
00000000
01100000
,
00000000
00000000
00000000
00000000
;

//---------------dance-double - ----------------
#NOTES:
     dance-double:
     :
     Medium:
     12:
     0.608631,0.686198,1.020833,0.000000,0.020833,409.000000,311.000000,98.000000,0.000000,0.000000,0.000000,0.608631,0.686198,1.020833,0.000000,0.020833,409.000000,311.000000,98.000000,0.000000,0.000000,0.000000:
00000000
00000000
00000000
00000000
,
00000000
00000000
00000000
00000000
,
00000000
00000000
00000000
00000000
,
00000000
00000000
00000000
00000000
,
00000000
00000000
00000000
00000000
,
00000000
00000000
00000000
00000000
00000000
00000000
00000000
10000000
,
00000000
11000000
00000000
00010000
01010000
00000000
00001000
00000100
,
00000000
00000110
00000000
00000001
00000000
00001001
00000000
00000010
,
00000110
00000000
00001000
00001100
00000000
00000010
00011000
00000000
,
00100000
00101000
00000000
01000000
00000000
00110000
00000000
11000000
,
00100000
10010000
01000000
11000000
,
00010000
00000000
00001000
00010000
00000000
00001000
00000000
00010100
,
00000010
00001001
00000100
00000101
,
00001000
00000000
00010000
00001000
00000000
00010000
00101000
00000000
,
01000000
10010000
00100000
10100000
,
00010000
00000000
00001000
00010000
00000000
00001000
00000000
00010010
,
00000100
00001001
00000010
00000011
,
00001000
00000000
00010000
00001000
00000000
00010000
00101000
00000000
,
01000000
00000000
00100000
00010000
00000000
00000000
11000000
00000000
,
00100000
00000000
10000000
01000000
00000000
01000000
00010000
00000000
,
00001000
00000000
00010000
00000100
00000000
00000000
00000011
00000000
,
00001000
00000000
00000001
00000100
00000000
00000100
00000010
00000000
,
00001000
00000000
00000101
00000000
00000100
00001000
00010000
00000000
,
00001000
00000000
01010000
00000000
00100000
10000000
01000000
00000000
,
00010000
00000000
00011000
00000000
00000100
00000010
00001000
00000000
,
00000001
00000100
00000010
00000000
00001000
00000100
00010000
00000000
,
00001000
00000000
01010000
00000000
00100000
10000000
00010000
00000000
,
01000000
00000000
00101000
00000000
00010000
00000010
00000100
00000000
,
00000001
00000000
00001010
00000000
00010000
00001000
00100000
00000000
,
00001000
00000000
01000000
01100000
00000000
00010000
10010000
00000000
,
00010000
00000000
11000000
00000000
01000000
00010000
00001000
00000000
,
00010000
00000000
00001100
00000000
00000010
00000001
00000100
00000000
,
00001000
00000000
00011000
00000000
01000000
00100000
00010000
00000000
,
10000000
01000000
00100000
00000000
00010000
01000000
00001000
00000000
,
00010000
00000000
00001100
00000000
00000010
00000001
00001000
00000000
,
00000100
00000000
00010010
00000000
00001000
00100000
01000000
00000000
,
10000000
00000000
00110000
00000000
00001000
00010000
00000010
00010000
,
00011000
00000000
00000100
00000110
00000000
00001000
00000000
00001001
,
00000010
00000110
00000000
00000100
00010100
00000000
00001000
00011000
,
00000000
00010000
01010000
00000000
00100000
00000000
10010000
00100000
,
01100000
00000000
01000000
01001000
00000000
00010000
00011000
00000000
,
00001000
00001100
00000000
00000010
00000000
00001001
00000100
00000010
,
00000000
00001100
00000000
00010000
00011000
00000000
00001000
01010000
,
00000000
00100000
00000000
10010000
00000000
01000000
00000000
10000000
,
11000000
00000000
00100000
00110000
00000000
01000000
00101000
00000000
,
00010000
00011000
00000000
00001100
00000000
00000110
00000000
00001001
,
00000100
00000000
00000000
00000000
00000100
00000000
00001000
00010000
00001000
00000000
00001000
00000000
00110000
00000000
00000000
00000000
,
01000000
00000000
00000000
00000000
01000000
00000000
00100000
01000000
10000000
00000000
10010000
00000000
01000000
00000000
00110000
00000000
,
01000000
00000000
00000000
00000000
01000000
00000000
00010000
00001000
00010000
00000000
00010000
00000000
00001010
00000000
00000000
00000000
,
00000100
00000000
00000000
00000000
00000100
00000000
00000010
00000100
00000001
00000000
00001001
00000000
00000100
00000000
00001010
00000000
,
00001000
00000000
00000011
00000000
00000010
00001000
00010000
00000000
,
00001000
00000000
00110000
00000000
01000000
10000000
00100000
00000000
,
00010000
00000000
00011000
00000000
00000010
00000100
00001000
00000000
,
00000001
00000010
00000100
00000000
00001000
00000010
00010000
00000000
,
00001000
00000000
00110000
00000000
01000000
10000000
00010000
00000000
,
00100000
00000000
01001000
00000000
00010000
00000100
00000010
00000000
,
00000001
00000000
00001100
00000000
00010000
00001000
01000000
00001000
,
00011000
00000000
00100000
01100000
00000000
00010000
00000000
10010000
,
01000000
01100000
00000000
00100000
00101000
00000000
00010000
00011000
,
00000000
00001000
00001010
00000000
00000100
00000000
00001001
00000100
,
00000110
00000000
00000010
00010010
00000000
00001000
00011000
00000000
,
00010000
00110000
00000000
01000000
00000000
10010000
00100000
01000000
,
00000000
00110000
00000000
00001000
00011000
00000000
00010000
00001010
,
00000000
00000100
00000000
00001001
00000000
00000010
00000000
00000001
,
00000011
00000000
00000100
00001100
00000000
00000010
00010100
00000000
,
00001000
00011000
00000000
00110000
00000000
01100000
00000000
10010000
,
00000000
00000000
00000000
00000000
;

//---------------dance-double - ----------------
#NOTES:
     dance-double:
     :
     Hard:
     14:
     0.702381,0.857747,0.791667,0.000000,0.052083,472.000000,396.000000,76.000000,0.000000,0.000000,0.000000,0.702381,0.857747,0.791667,0.000000,0.052083,472.000000,396.000000,76.000000,0.000000,0.000000,0.000000:
00000000
00000000
00000000
00000000
,
00000000
00000000
00000000
00000000
,
00000000
00000000
00000000
00000000
,
00000000
00000000
00000000
00000000
,
00000000
00000000
00000000
00000000
,
00000000
00000000
00000000
00000000
00000000
00000000
00000000
10000000
,
01000000
10000000
00000000
01000000
00010000
00000000
00100000
01000000
,
10000000
00100000
00010000
00001000
00010000
00011000
00000000
00000100
,
00010100
00000000
00000100
00001100
00000000
00000100
00000110
00000000
,
00000010
00000001
00000010
00001000
00010000
00001000
00000010
00000001
,
00000100
00000000
00001000
00000000
00010000
00001000
00000100
00000000
,
00001000
00000000
00010000
00100000
00000000
11000000
00000000
00100000
,
01000000
00000000
00010000
00000000
00001000
00010000
01000000
00000000
,
00010000
00000000
00001000
00000100
00000000
00000010
00000100
00000001
,
00000010
00000000
00001000
00000000
00010000
00001000
00000010
00000000
,
00001000
00000000
00010000
01000000
00000000
10100000
00000000
01000000
,
00100000
00000000
00010000
00000000
00001000
00010000
00100000
00000000
,
00010000
00000000
00001000
00000010
00000000
00000100
00000010
00000001
,
00000100
00000000
00001000
00010000
00000000
00011000
00000000
01000000
,
00100000
00000000
00010000
10000000
00000000
01000000
00010000
00001000
,
00011000
00000000
00000100
00000010
00000000
00000001
00000000
00000100
,
00001000
00000000
00001000
00010000
00000000
01000000
00100000
00010000
,
10000000
01000000
01100000
00000000
00010000
00001000
00011000
00000000
,
00001000
00000100
00000110
00000000
00000001
00000100
00000101
00000000
,
00000100
00001000
00011000
00000000
00010000
00001000
00001100
00000000
,
00000100
00000001
00000010
00000001
00000100
00000010
00001000
00000000
,
00000001
00000100
00000110
00000000
00001000
00010000
00011000
00000000
,
00010000
01000000
01100000
00000000
10000000
01000000
11000000
00000000
,
01000000
00010000
00011000
00000000
00001000
00010000
01010000
00000000
,
01000000
00000000
00100000
10000000
00000000
00010000
00100000
01000000
,
10000000
00100000
01100000
00000000
00010000
00001000
00011000
00000000
,
00001000
00000010
00000110
00000000
00000001
00000010
00000011
00000000
,
00000010
00001000
00011000
00000000
00010000
00001000
00001010
00000000
,
00000010
00000001
00000100
00000001
00000010
00000100
00001000
00000000
,
00000001
00000010
00000110
00000000
00001000
00010000
00011000
00000000
,
00010000
00100000
01100000
00000000
10000000
00100000
10100000
00000000
,
00100000
00010000
00001000
00010000
00001000
00100000
00110000
00000000
,
00100000
00000000
01000000
10000000
00000000
00010000
01000000
00100000
,
10000000
11000000
00000000
00100000
00101000
00000000
00010000
00010100
,
00000000
00000010
00000100
00000010
00000001
00000100
00001000
00000010
,
00000100
00000110
00001000
00010000
00011000
01000000
00100000
01100000
,
10000000
01000000
00010000
01000000
00100000
00001000
00011000
00100000
,
10000000
11000000
00000000
00100000
00101000
00000000
00010000
00010100
,
00000000
00000010
00000100
00000010
00000001
00000100
00001000
00000010
,
00000100
00000110
00001000
00010000
00011000
01000000
00100000
01100000
,
10000000
01000000
00010000
01000000
00100000
00001000
00010000
00011000
,
00000100
00000000
00000100
00000000
00000110
00000000
00000100
00000001
00001000
00000100
00000010
00000000
00001001
00000000
00000100
00000000
,
00001000
00000000
00010000
00000000
00011000
00000000
01000000
00100000
10000000
00000000
01000000
00100000
00000000
00001000
00010000
00000000
,
01000000
00000000
01000000
00000000
01100000
00000000
01000000
10000000
00010000
01000000
00100000
00000000
10010000
00000000
01000000
00000000
,
00010000
00000000
00001000
00000000
00011000
00000000
00000100
00000010
00000001
00000000
00000100
00000010
00000000
00010000
00001000
00000000
,
00000001
00000010
00000110
00000000
00001000
00010000
00011000
00000000
,
00010000
00100000
01100000
00000000
10000000
00100000
10100000
00000000
,
00100000
00010000
00011000
00000000
00001000
00010000
00110000
00000000
,
00100000
10000000
01000000
10000000
00100000
01000000
00010000
00000000
,
10000000
00100000
01100000
00000000
00010000
00001000
00011000
00000000
,
00001000
00000010
00000110
00000000
00000001
00000010
00000011
00000000
,
00000010
00001000
00010000
00001000
00010000
00000010
00001010
00000000
,
00000010
00000000
00000100
00000001
00000000
00001000
00000100
00000010
,
00000001
00000101
00000000
00000010
00010010
00000000
00001000
01001000
,
00000000
00100000
01000000
00100000
10000000
01000000
00010000
00100000
,
01000000
01100000
00010000
00001000
00011000
00000100
00000010
00000110
,
00000001
00000100
00001000
00000100
00000010
00010000
00011000
00000010
,
00000001
00000101
00000000
00000010
00010010
00000000
00001000
01001000
,
00000000
00100000
01000000
00100000
10000000
01000000
00010000
00100000
,
01000000
01100000
00010000
00001000
00011000
00000100
00000010
00000110
,
00000001
00000100
00001000
00000100
00000010
00010000
00001000
00011000
,
00000000
00000000
00000000
00000000
;
