#TITLE:Twin Bee -Generation X-;
#SUBTITLE:;
#ARTIST:FinalOffset;
#TITLETRANSLIT:;
#SUBTITLETRANSLIT:;
#ARTISTTRANSLIT:;
#GENRE:;
#CREDIT:;
#BANNER:Twin Bee -Generation X-.png;
#BACKGROUND:Twin Bee -Generation X--bg.png;
#LYRICSPATH:;
#CDTITLE:;
#MUSIC:Twin Bee -Generation X-.ogg;
#OFFSET:0.000000;
#SAMPLESTART:21.313000;
#SAMPLELENGTH:15.000000;
#SELECTABLE:YES;
#DISPLAYBPM:169.000000;
#BPMS:0.000000=169.014008
;
#STOPS:
;
#BGCHANGES:0.000=Twin Bee -Generation X-.avi=1.000=0=0=0=StretchNoLoop====,
99999=-nosongbg-=1.000=0=0=0 // don't automatically add -songbackground-
;
#KEYSOUNDS:;
#ATTACKS:;

//---------------dance-single - ----------------
#NOTES:
     dance-single:
     :
     Beginner:
     3:
     0.151869,0.227113,0.027612,0.000000,0.000000,77.000000,75.000000,2.000000,0.000000,0.000000,0.000000,0.151869,0.227113,0.027612,0.000000,0.000000,77.000000,75.000000,2.000000,0.000000,0.000000,0.000000:
0000
0000
0000
0000
,
0000
0000
0000
0000
,
0000
0000
0000
0000
,
0000
0000
0000
0000
,
0000
0000
0000
0000
,
0000
0000
0000
0000
,
0010
0000
0000
0000
,
0000
0001
0000
0000
,
0100
0000
0000
0000
,
0000
1000
0000
0000
,
0001
0000
0000
0000
,
0000
0100
0000
0000
,
1000
0000
0000
0000
,
0000
0100
0000
0000
,
0010
0000
0010
0000
,
1000
0000
0100
0000
,
0001
0000
0001
0000
,
0010
0000
0010
0000
,
0100
0100
0000
0000
,
0010
0000
0100
0000
,
0010
0000
0001
0000
,
0010
0000
0100
0000
,
0010
0000
1000
0000
,
0001
0000
0100
0000
,
1000
0000
1000
0000
,
0010
0000
0010
0000
,
0100
0100
0000
0000
,
0010
0000
0010
0000
,
0100
0000
0100
0000
,
1000
0000
0001
0000
,
1000
0000
0001
0000
,
0010
0000
0100
0000
,
0010
0000
1000
0000
,
0001
0000
1000
0000
,
0010
0000
0100
0000
,
0010
0000
0100
0000
,
0010
0000
0001
0000
,
1000
0000
0001
0000
,
0010
0000
0100
0000
,
1000
1000
0000
0000
,
0001
0001
0000
0000
,
0010
0010
0000
0000
,
0100
0000
0100
0000
,
0010
0010
0000
0000
,
0100
0100
0000
0000
,
1001
0000
0000
0000
,
0100
0100
0100
0000
,
1001
0000
0000
0000
,
0000
0000
0000
0000
;

//---------------dance-single - ----------------
#NOTES:
     dance-single:
     :
     Easy:
     5:
     0.234706,0.295108,0.096644,0.055225,0.000000,119.000000,112.000000,7.000000,4.000000,0.000000,0.000000,0.234706,0.295108,0.096644,0.055225,0.000000,119.000000,112.000000,7.000000,4.000000,0.000000,0.000000:
0000
0000
0000
0000
,
0000
0000
0000
0000
,
0000
0000
0000
0000
,
0000
0000
0000
0000
,
0000
0000
0000
0000
,
0000
0000
0000
0000
,
0010
0010
0010
0000
,
0000
0001
0000
0001
,
0100
0100
0100
0000
,
0000
1000
0000
1000
,
0010
1000
0010
0000
,
0000
0100
0000
0100
,
0010
0001
0010
0000
,
0000
0100
0000
0100
,
0010
0010
0010
0010
,
1000
0100
1000
0100
,
0001
0001
0001
0000
,
0010
0000
0010
0000
,
0100
0100
0000
1001
,
0010
0000
0100
0000
,
0010
0000
0001
1000
,
0010
0000
0100
0000
,
0010
0000
1000
0001
,
0001
0100
0001
0100
,
1000
1000
1000
0000
,
0010
0000
0010
0000
,
0100
0100
0000
1001
,
0010
0000
0010
0000
,
0100
0000
0100
0000
,
1000
0000
0001
0000
,
1000
0000
0001
0000
,
0010
0000
0100
1000
,
0010
0010
1000
0000
,
0002
0003
2000
3000
,
0010
0010
0100
0100
,
0010
0000
0100
0001
,
0010
0010
0001
0000
,
1000
0000
0100
0000
,
0001
0000
0100
0100
,
1000
1000
0001
0000
,
0001
0001
1000
0000
,
0110
0000
1001
0000
,
0100
0100
0100
0000
,
0010
0010
0100
0000
,
0100
0100
0010
0000
,
1001
0000
0110
0000
,
0100
0100
0100
0000
,
2002
0000
3003
0000
,
0000
0000
0000
0000
;

//---------------dance-single - ----------------
#NOTES:
     dance-single:
     :
     Medium:
     8:
     0.384602,0.494436,0.303737,0.124256,0.000000,195.000000,173.000000,22.000000,9.000000,0.000000,0.000000,0.384602,0.494436,0.303737,0.124256,0.000000,195.000000,173.000000,22.000000,9.000000,0.000000,0.000000:
0000
0000
0000
0000
,
0000
0000
0000
0000
,
0000
0000
0000
0000
,
0000
0000
0000
0000
,
0000
0000
0000
0000
,
0000
0000
0000
0000
,
0010
0010
0100
0100
,
1000
0001
1000
0001
,
0001
0001
1000
1000
,
0010
0100
0010
0100
,
0100
0100
0010
0010
,
0001
1000
0001
1000
,
1000
1000
0001
0001
,
0100
0010
0100
0010
,
1001
0100
0100
0100
,
0010
0000
0001
1000
0000
0010
1000
0200
,
0000
0310
1000
0001
,
1000
0000
0000
0001
0100
0000
0010
0000
,
0110
0110
0000
1001
,
0010
1001
0100
1001
,
0010
1000
0001
0100
,
0010
0101
0010
1100
,
0001
1000
0010
0100
,
0010
0000
1000
0001
0000
0010
0001
0200
,
0000
0310
0001
1000
,
0001
0100
0000
1000
0100
0000
0001
0100
,
0000
1000
0100
0000
0010
0000
0010
0000
,
1000
0001
1000
0101
,
0001
1000
0001
1100
,
1000
0101
0001
1100
,
0010
0110
0101
1100
,
0010
0001
0010
1000
,
0001
0100
1000
0100
,
1001
0000
0110
0000
,
1000
0000
0001
0000
0010
0100
0100
0100
,
0010
1000
0010
0001
,
1000
0100
0001
0100
,
1000
0010
0100
0000
0001
0010
0100
0000
,
1000
0001
0100
0000
0001
1000
0010
0000
,
1000
0001
2000
3100
,
0001
1000
0002
0103
,
2000
3001
0002
1003
,
0010
0100
0000
0001
1000
0000
1001
0000
,
0010
0100
0020
1030
,
0100
0010
0200
0301
,
1010
0000
0101
0000
,
0110
0000
1001
0000
0010
0100
0010
1000
,
0200
0000
0000
0300
,
0000
0000
0000
0000
;

//---------------dance-single - ----------------
#NOTES:
     dance-single:
     :
     Hard:
     11:
     0.518720,0.577964,0.289931,0.234706,0.027612,263.000000,242.000000,21.000000,17.000000,0.000000,0.000000,0.518720,0.577964,0.289931,0.234706,0.027612,263.000000,242.000000,21.000000,17.000000,0.000000,0.000000:
// measure 0
0000
0000
0000
0000
,  // measure 1
0000
0000
0000
0000
,  // measure 2
0000
0000
0000
0000
,  // measure 3
0000
0000
0000
0000
,  // measure 4
0000
0000
0000
0000
,  // measure 5
0010
0010
0100
0100
,  // measure 6
1000
0001
1000
0001
1000
0001
0000
0100
,  // measure 7
0002
1000
0000
1003
,  // measure 8
0001
1000
0001
1000
0001
1000
0000
0010
,  // measure 9
2000
0001
0000
3001
,  // measure 10
0010
0100
0010
0100
0010
0100
0000
0001
,  // measure 11
0200
0010
0000
0310
,  // measure 12
0100
0010
0100
0010
0100
0010
0000
1000
,  // measure 13
0020
0100
0000
0130
,  // measure 14
0010
1001
1001
1001
,  // measure 15
0010
1000
0100
1000
0010
0100
0001
0100
,  // measure 16
0001
0010
0001
0010
0100
1000
0010
0100
,  // measure 17
0002
0000
0000
1000
2000
0000
3003
0000
,  // measure 18
0110
0110
0000
1001
,  // measure 19
0001
0100
0000
1000
0100
0000
0001
0010
,  // measure 20
0000
1000
0100
0000
0001
0000
1001
0000
,  // measure 21
1000
0100
0000
0001
0100
0000
1000
0100
,  // measure 22
0000
0001
0010
0000
1000
0000
1001
0000
,  // measure 23
0010
0001
0100
0001
0010
0100
1000
0100
,  // measure 24
1000
0010
1000
0010
0100
0001
0010
0100
,  // measure 25
2000
0000
0000
0001
0002
0000
3003
0000
,  // measure 26
0110
0000
0110
0000
0001
1000
0001
1000
,  // measure 27
0000
0100
0001
1000
0001
0010
0000
0100
,  // measure 28
0000
0100
1000
0001
1000
0010
0000
0100
,  // measure 29
0000
0001
0010
0001
0100
1000
0000
0010
,  // measure 30
0100
0001
0100
0010
0100
1000
0100
0000
,  // measure 31
0001
0100
0001
0010
1000
0010
0001
0100
,  // measure 32
1000
0100
0001
1000
0100
0001
0100
0000
,  // measure 33
2002
3003
0220
0330
,  // measure 34
1001
0000
0110
0000
0001
1000
0010
0100
,  // measure 35
0001
1000
0001
0100
1000
0100
0001
0010
,  // measure 36
0001
0010
1000
0010
0001
1000
0100
0001
,  // measure 37
0000
1000
0100
0001
0000
1000
0100
0010
,  // measure 38
0000
1000
0010
0001
0000
1000
0010
0100
,  // measure 39
0001
0000
0101
0000
0100
0001
0000
1000
,  // measure 40
0010
0100
0010
2000
0000
3000
0001
0100
,  // measure 41
0001
0000
1001
0000
0100
0000
1000
0020
,  // measure 42
0100
0100
0000
0100
0100
0000
0130
0000
,  // measure 43
1000
0000
1100
0000
0100
1000
0000
0001
,  // measure 44
0010
0100
0010
0002
0000
0003
1000
0100
,  // measure 45
1000
1010
0001
0101
,  // measure 46
1100
0000
0011
0000
1000
0001
1000
0010
,  // measure 47
0200
0000
0000
0300
,  // measure 48
0010
0000
0100
0001
0100
0001
0100
0000
0010
2000
0000
0000
,  // measure 49
0000
3000
0000
0000
;

//---------------dance-double - ----------------
#NOTES:
     dance-double:
     :
     Easy:
     4:
     0.230761,0.327898,0.082837,0.055225,0.000000,117.000000,111.000000,6.000000,4.000000,0.000000,0.000000,0.230761,0.327898,0.082837,0.055225,0.000000,117.000000,111.000000,6.000000,4.000000,0.000000,0.000000:
00000000
00000000
00000000
00000000
,
00000000
00000000
00000000
00000000
,
00000000
00000000
00000000
00000000
,
00000000
00000000
00000000
00000000
,
00000000
00000000
00000000
00000000
,
00000000
00000000
00000000
00000000
,
10000000
10000000
10000000
00000000
,
00000000
00010000
00000000
00010000
,
00100000
00100000
00100000
00000000
,
00000000
00001000
00000000
00001000
,
00010000
00010000
00010000
00000000
,
00000000
00000010
00000000
00000010
,
00001000
00001000
00001000
00000000
,
00000000
00000001
00000000
00000001
,
00000100
00000100
00000100
00000100
,
00010000
00000000
00001000
00000000
,
00010000
00000000
00100000
00000000
,
00010000
00000000
01000000
00000000
,
10000000
10000000
00000000
10010000
,
00100000
00000000
01000000
00000000
,
00010000
00000000
00001000
00010000
,
00000010
00000000
00001000
00000000
,
00000010
00000000
00000001
00001000
,
00000010
00000000
00000010
00000000
,
00000100
00010000
00001000
00000000
,
00100000
00000000
00010000
00100000
,
00100000
00000000
01000000
01000000
,
10000000
00000000
00010000
00000000
,
10000000
00000000
00010000
00000000
,
01000000
00000000
00001000
00000000
,
00010000
00000100
00001000
00000001
,
00000010
00000010
00000010
00000000
,
00000100
00001000
00000100
00000000
,
00020000
00030000
00002000
00003000
,
00100000
00100000
00010000
00010000
,
10000000
10000000
10000000
00000000
,
00100000
00010000
00100000
00000000
,
00001000
00000000
00010000
00000000
,
00000100
00000000
00001000
00001000
,
00000001
00001000
00000001
00000000
,
00000010
00000100
00000010
00000000
,
00000110
00000000
00001001
00000000
,
00000100
00010000
00001000
00000000
,
00100000
00010000
00100000
00000000
,
01000000
10000000
01000000
00000000
,
10010000
00000000
01100000
00000000
,
00010000
00010000
10000000
10000000
,
20020000
00000000
30030000
00000000
,
00000000
00000000
00000000
00000000
;

//---------------dance-double - ----------------
#NOTES:
     dance-double:
     :
     Medium:
     7:
     0.360935,0.461474,0.262319,0.179481,0.000000,183.000000,164.000000,19.000000,13.000000,0.000000,0.000000,0.360935,0.461474,0.262319,0.179481,0.000000,183.000000,164.000000,19.000000,13.000000,0.000000,0.000000:
00000000
00000000
00000000
00000000
,
00000000
00000000
00000000
00000000
,
00000000
00000000
00000000
00000000
,
00000000
00000000
00000000
00000000
,
00000000
00000000
00000000
00000000
,
00000000
00000000
00000000
00000000
,
00100000
00100000
01000000
01000000
,
10000000
01000000
00010000
00001000
,
00000010
00000010
00000100
00000100
,
00000001
00000100
00001000
00010000
,
01000000
10000000
00100000
10000000
,
01000000
00010000
00001000
00000100
,
00000001
00000010
00000001
00001000
,
00000010
00000010
00000100
00000100
,
00000001
00001000
00010000
10000000
,
00100000
00000000
10000000
00010000
00000000
10000000
01000000
00020000
,
00000000
00030000
10000000
00010000
,
01000000
00000000
00000000
00001000
00010000
00000000
00000000
00000000
,
00001010
00001010
00000000
00000101
,
00002000
00000000
00000000
00003020
00000000
00000000
00000230
00000000
,
00000000
00002300
00000000
00000000
00013000
00000000
00100000
00000000
,
02000000
00000000
00000000
03020000
00000000
00000000
00230000
00000000
,
00000000
20300000
00000000
00000000
31000000
00000000
01000000
00000000
,
00100000
00000000
00001000
00010000
00000000
00001000
00000100
00000002
,
00000000
00000003
00000010
00000100
,
00000010
00001000
00000000
00010000
00001000
00000000
00100000
00010000
,
00000000
00010000
01000000
00000000
00100000
00000000
00100000
00000000
,
10000000
00010000
01000000
00011000
,
00000100
00000010
00000001
00001001
,
00001000
00000100
00000010
00000110
,
00001100
00011000
00100000
11000000
,
00100000
00100000
01000000
01000000
,
10000000
00010000
10000000
00010000
,
10010000
00000000
00011000
00000000
,
00000110
00000000
00001001
00000000
00000010
00000100
00000010
00000100
,
00000001
00000001
00001000
00001000
,
00000010
00000100
00000010
00000100
,
00001000
00010000
00100000
00010000
,
00100000
01000000
00010000
10010000
,
01000000
10000000
00100000
00010000
,
01000000
00001000
01000000
00002000
00000000
00000000
00003010
00000000
,
00000001
00000100
00001000
00010000
,
00001000
00010000
00000000
00100000
01000000
00000000
10010000
00000000
,
01000000
00010000
00001000
00010000
,
00000010
00000100
00000010
00000200
00000000
00000000
00000310
00000000
,
00001001
00000000
00011000
00000000
,
01100000
00000000
10010000
00000000
00100000
10000000
00100000
10000000
,
00020000
00000000
00000000
00030000
,
00000000
00000000
00000000
00000000
;

//---------------dance-double - ----------------
#NOTES:
     dance-double:
     :
     Hard:
     11:
     0.506886,0.577964,0.331350,0.165675,0.027612,257.000000,233.000000,24.000000,12.000000,0.000000,0.000000,0.506886,0.577964,0.331350,0.165675,0.027612,257.000000,233.000000,24.000000,12.000000,0.000000,0.000000:
00000000
00000000
00000000
00000000
,
00000000
00000000
00000000
00000000
,
00000000
00000000
00000000
00000000
,
00000000
00000000
00000000
00000000
,
00000000
00000000
00000000
00000000
,
10000000
00010000
00001000
00000001
,
00000010
00000000
00000010
00000000
00000001
00000100
00000000
00000100
,
00000001
00001100
00001000
00000101
,
00001000
00000000
00010000
00000000
00100000
01000000
00000000
00100000
,
10000000
10100000
00010000
00110000
,
10000000
00000000
10000000
00000000
00010000
01000000
00000000
00001000
,
00010000
00011000
00000100
00001100
,
00000001
00000000
00000001
00000000
00001000
00000100
00000000
00010000
,
00001000
00011000
01000000
11000000
,
00100000
00100000
01000000
01000000
,
10000000
00010000
10000000
00010000
01000000
00100000
01000000
00100000
,
10000000
01000000
00010000
00001000
00000010
00000100
00000010
00000100
,
00002000
00000000
00000000
00000001
00000002
00000000
00003003
00000000
,
00001001
00000110
00000000
00011000
,
01000000
00010000
00000000
00100000
10000000
00000000
01000000
00100000
,
00000000
10000000
01000000
00000000
00010000
00000000
00011000
00000000
,
00000100
00001000
00000000
00000010
00000001
00000000
00000100
00000010
,
00000000
00000001
00000100
00000000
00001000
00000000
00011000
00000000
,
00100000
01000000
00100000
01000000
00010000
10000000
00010000
10000000
,
00100000
01000000
00010000
01000000
00001000
00010000
01000000
10000000
,
00200000
00000000
00000000
01000000
02000000
00000000
03300000
00000000
,
01010000
00000000
00011000
00000000
00000010
00000100
00000001
00001000
,
00000000
00000001
00000100
00001000
00000100
00001000
00000000
00010000
,
00000000
01000000
10000000
00100000
10000000
00100000
00000000
10000000
,
00000000
01000000
00010000
00001000
00010000
00001000
00000000
00000010
,
00000001
00001000
00000001
00000100
00000001
00000100
00001000
00000000
,
00010000
01000000
10000000
01000000
00000000
00100000
00010000
01000000
,
00000000
00010000
10000000
01000000
00000000
10000000
01000000
00010000
,
00002000
00003000
00000220
00000330
,
00001001
00000000
00000110
00000000
00000001
00001000
00000010
00000100
,
00000001
00000100
00000001
00000100
00000000
00001000
00010000
00100000
,
00000000
00100000
00010000
00001000
00000000
00001000
00010000
01000000
,
00000000
00001000
00010000
01000000
00000000
01000000
10000000
00100000
,
00000000
00100000
10000000
01000000
00000000
01000000
00010000
00001000
,
00010000
00000000
00011000
00000000
00000100
00000001
00000000
00001000
,
00000001
00000100
00000001
00002000
00000000
00003000
00000001
00000100
,
00001000
00000000
00010000
00000000
00000010
00000000
00010000
00002000
,
00010000
00010000
00000000
00010000
00010000
00000000
00013000
00000000
,
00001000
00000000
00011000
00000000
01000000
10000000
00000000
00010000
,
10000000
01000000
10000000
00020000
00000000
00030000
10000000
01000000
,
00010000
00011000
00000010
00000110
,
00001010
00000000
00001100
00000000
00000001
00000100
00000001
00000100
,
00000020
00000000
00000000
00000030
,
00000100
00000000
00001000
00010000
00001000
00010000
00001000
00000000
00100000
00020000
00000000
00000000
,
00000000
00030000
00000000
00000000
,
00000000
00000000
00000000
00000000
;

//---------------dance-single - ----------------
#NOTES:
     dance-single:
     :
     Challenge:
     14:
     0.818513,0.883945,0.925018,0.469412,0.427994,415.000000,348.000000,67.000000,34.000000,0.000000,0.000000,0.818513,0.883945,0.925018,0.469412,0.427994,415.000000,348.000000,67.000000,34.000000,0.000000,0.000000:
// measure 0
0000
0000
0000
0000
,  // measure 1
0000
0000
0000
0000
,  // measure 2
0000
0000
0000
0000
,  // measure 3
0000
0000
0000
0000
,  // measure 4
0000
0000
0000
0000
,  // measure 5
0100
0000
0000
0000
0100
0000
0000
0000
0001
1000
0001
1000
0001
1000
0001
1000
,  // measure 6
0010
0110
0100
0101
0001
1001
0000
1000
,  // measure 7
1010
0110
0101
1001
,  // measure 8
1000
1100
0100
0110
0010
0011
0000
0001
,  // measure 9
1001
0000
0000
0000
1100
0000
1000
0000
0100
0010
0001
0010
0001
0000
1000
0000
,  // measure 10
0100
0110
0010
0110
0100
1100
0000
0001
,  // measure 11
0011
0000
0000
0000
0101
0000
0000
0000
1100
0000
0100
0000
0001
1000
0001
0000
,  // measure 12
1000
0000
1010
0000
0010
0000
0110
0000
0100
0001
0100
0000
0000
0000
0010
0000
,  // measure 13
1000
0001
1000
0000
1010
0000
0000
0000
0100
0001
0100
0001
0100
0001
0100
0000
,  // measure 14
1001
1010
0110
0101
,  // measure 15
0001
0000
1000
0000
0010
0000
1000
0000
0100
0000
0010
0000
0001
0000
1000
0001
,  // measure 16
1000
0000
0100
0000
1000
0000
0010
0000
0100
0001
0100
0000
0100
1000
0100
0000
,  // measure 17
0100
0001
0100
0000
0001
0000
0010
0100
0020
0000
0000
0000
0030
0000
0000
0000
,  // measure 18
1001
0000
1010
0000
0110
0100
0101
0000
,  // measure 19
0001
1000
0001
0000
1000
0000
0010
1000
0010
0000
0100
0000
0001
0100
0001
0000
,  // measure 20
1000
0000
0010
1000
0010
0000
1000
0000
0001
1000
0001
0000
0001
1000
0001
0000
,  // measure 21
0100
0010
0100
0000
0010
0000
1000
0100
1000
0000
0100
0000
0010
0001
0010
0000
,  // measure 22
0001
0000
0100
0010
0100
0000
0010
0000
1000
0100
1000
0100
0010
0001
0010
0001
,  // measure 23
0100
0000
0010
0000
1000
0000
0010
0100
0001
0000
1000
0000
1000
0000
0010
0100
,  // measure 24
0010
0000
0100
0000
0001
0000
0000
0000
1000
0010
1000
0000
0001
1000
0001
0000
,  // measure 25
0100
0101
0000
0010
1010
0000
1000
1100
,  // measure 26
0000
0001
0101
0000
0100
0100
0010
0010
,  // measure 27
1000
0100
0001
0100
1000
0100
0000
1000
,  // measure 28
0001
0001
0100
0100
0010
0010
1000
1000
,  // measure 29
0001
0100
1000
0100
0001
0010
0001
1000
,  // measure 30
1100
0000
0000
0100
0010
0000
0000
0010
0001
0000
0000
0001
0100
0000
0000
0000
,  // measure 31
0100
0000
0100
0000
1000
0100
0001
0000
0010
0000
0010
0000
1000
0010
0001
0000
,  // measure 32
0010
0000
0100
0000
1000
0001
1000
0000
0010
0000
0100
0000
0001
0010
0001
0000
,  // measure 33
0022
0000
0000
0033
2002
0000
0000
3003
2200
0000
0000
3300
0220
0000
0000
0330
,  // measure 34
0022
0000
0000
0033
0202
0000
0000
0303
0110
0000
0100
0000
0110
0000
0010
0000
,  // measure 35
1010
0000
1000
0000
0100
0000
0010
0001
0100
0000
0001
0000
0010
0000
0100
0000
,  // measure 36
1000
0001
0100
0000
0001
0000
0010
0000
0001
1000
0001
0000
1000
0100
1000
0000
,  // measure 37
0010
0100
0010
0000
0100
0001
0100
0000
0001
1000
0001
0000
1000
0001
1000
0000
,  // measure 38
0010
0100
0001
0000
0001
0100
0010
0000
1000
0100
0001
0000
0001
0100
1000
0000
,  // measure 39
1010
0000
0010
0000
0100
0000
0001
0000
0001
0010
1000
0000
0000
0000
1000
0000
,  // measure 40
0010
0001
0100
0001
0010
0000
0220
0000
0000
0000
0330
0000
1100
0000
1000
0000
,  // measure 41
2002
0000
0000
3003
0202
0000
0000
0303
0220
0000
0000
0330
0010
0000
1000
0000
,  // measure 42
1100
1100
0000
1001
1001
0000
0101
0000
,  // measure 43
0001
0010
0100
0001
0100
1000
0010
1000
,  // measure 44
0001
1000
0001
0000
0101
0000
0100
0000
0110
0000
0000
0000
1010
0000
1000
0000
,  // measure 45
2002
0000
0000
3003
0202
0000
0000
0303
0220
0000
0000
0330
1010
0000
1100
0000
,  // measure 46
2200
0000
0000
3300
0022
0000
0000
0033
0101
0000
0100
0000
0110
0000
0010
0000
,  // measure 47
2020
0000
0000
3030
,  // measure 48
0001
0000
0100
0001
1000
0001
0100
0000
0010
2000
0000
0000
,  // measure 49
0000
3000
0000
0000
;
