#TITLE:Trust -DanceDanceRevolution mix-;
#SUBTITLE:;
#ARTIST:Tatsh feat.ヨーコ;
#TITLETRANSLIT:;
#SUBTITLETRANSLIT:;
#ARTISTTRANSLIT:Tatsh feat.Yoko;
#GENRE:;
#CREDIT:;
#BANNER:Trust -DanceDanceRevolution mix-.png;
#BACKGROUND:Trust -DanceDanceRevolution mix--bg.png;
#LYRICSPATH:;
#CDTITLE:;
#MUSIC:Trust -DanceDanceRevolution mix-.ogg;
#OFFSET:0.000000;
#SAMPLESTART:53.750000;
#SAMPLELENGTH:15.000000;
#SELECTABLE:YES;
#DISPLAYBPM:164.000000;
#BPMS:0.000000=164.384003
,4.000000=164.009003
;
#STOPS:
;
#BGCHANGES:0.000=Trust -DanceDanceRevolution mix-.avi=1.000=0=0=0=StretchNoLoop====,
99999=-nosongbg-=1.000=0=0=0 // don't automatically add -songbackground-
;
#KEYSOUNDS:;
#ATTACKS:;

//---------------dance-single - ----------------
#NOTES:
     dance-single:
     :
     Beginner:
     3:
     0.105861,0.193437,0.019247,0.000000,0.000000,77.000000,75.000000,2.000000,0.000000,0.000000,0.000000,0.105861,0.193437,0.019247,0.000000,0.000000,77.000000,75.000000,2.000000,0.000000,0.000000,0.000000:
0000
0000
0000
0000
,
0000
0000
0000
0000
,
0000
0000
0000
0000
,
0000
0000
0000
0000
,
0000
0000
1000
0000
,
1000
0000
0000
0000
,
0000
0000
0000
0000
,
0001
0000
0000
0000
,
0000
0000
0000
0000
,
1000
0000
0000
0000
,
0100
0000
0000
0000
,
0001
0000
0000
0000
,
0100
0000
0000
0000
,
1000
0000
0000
0000
,
0100
0000
0000
0000
,
0001
0000
0000
0000
,
0100
0000
0000
0000
,
0000
0000
0000
0000
,
1000
0000
0000
0000
,
0001
0000
0000
0000
,
1000
0000
0000
0000
,
1000
0000
0000
0000
,
0001
0000
0000
0000
,
0001
0000
0000
0000
,
0100
0000
0000
0000
,
0010
0000
0000
0000
,
0100
0000
0000
0000
,
0100
0000
0000
0000
,
1000
0000
1000
0000
,
0000
0000
0000
0000
,
0001
0000
0001
0000
,
0000
0000
0000
0000
,
1000
0000
1000
0000
,
0000
0000
0000
0000
,
0100
0000
0100
0000
,
0010
0000
0000
0000
,
1001
0000
0000
0000
,
1000
0000
1000
0000
,
0001
0000
0001
0000
,
0010
0000
0100
0000
,
0010
0000
0100
0000
,
0001
0000
0000
0000
,
1000
0000
0000
0000
,
0001
0001
0000
0000
,
1000
1000
0000
0000
,
0001
0000
0001
0000
,
1000
0000
1000
0000
,
0010
0000
0100
0000
,
0010
0000
0100
0000
,
0001
0000
0000
0000
,
1000
0000
0000
0000
,
0001
0001
0000
0000
,
1000
1000
0000
0000
,
0010
0000
0000
0000
,
0000
0000
0000
0000
,
0100
0000
0100
0000
,
0000
0000
0000
0000
,
1000
0000
0000
0000
,
0100
0000
0000
0000
,
0001
0000
0000
0000
,
0100
0000
0000
0000
,
1000
0000
0000
0000
,
0010
0000
0000
0000
,
0001
0000
0000
0000
,
0010
0000
0000
0000
,
1000
1000
0000
0000
,
0001
0001
0000
0000
,
1001
0000
0000
0000
,
0000
0000
0000
0000
;

//---------------dance-single - ----------------
#NOTES:
     dance-single:
     :
     Easy:
     5:
     0.226845,0.260803,0.144356,0.048119,0.000000,165.000000,150.000000,15.000000,5.000000,0.000000,0.000000,0.226845,0.260803,0.144356,0.048119,0.000000,165.000000,150.000000,15.000000,5.000000,0.000000,0.000000:
0000
0000
0000
0000
,
0000
0000
0000
0000
,
0000
0000
0000
0000
,
0000
0000
0000
0000
,
0000
0000
1000
0001
,
0001
0000
0100
0000
,
0010
0000
1000
0100
,
0010
0000
0001
0000
,
1001
0000
0110
0000
,
0001
0100
1000
0000
,
0001
0010
1000
0000
,
0001
0000
0010
0000
,
0100
0000
1000
0001
,
1000
0000
0010
0000
,
0100
0000
0001
0000
,
0010
0000
0100
0000
,
1000
0000
1001
0000
,
0001
0000
0000
0000
,
0100
0000
0110
0000
,
0010
0000
1000
0001
,
1000
0000
1000
0000
,
0010
1000
0001
0000
,
0100
0000
0100
0000
,
0001
0100
1000
0100
,
0001
0000
0001
0010
,
0001
0000
1000
0010
,
1000
0000
0100
0000
,
0001
0000
0010
0010
,
0020
0000
0000
0030
,
0100
0000
0001
0000
,
0020
0000
0000
0030
,
0001
0000
0100
0000
,
0020
0000
0000
0030
,
1000
0000
0001
0001
,
0010
0000
0100
1000
,
0010
0000
0001
0000
,
0100
0000
1000
0000
,
0110
0000
0001
0000
,
0110
0000
1000
0000
,
0001
0100
0001
0100
,
0010
0000
1000
0000
,
0100
0000
0001
0000
,
0010
1000
0010
0000
,
0001
0000
0100
0000
,
1000
0010
1000
0000
,
0110
0000
0001
0000
,
0110
0000
1000
0000
,
0100
1000
0100
1000
,
0010
0000
0100
0000
,
0001
1000
0001
0000
,
0010
0000
0100
0000
,
0110
0000
0110
0000
,
1001
0000
0000
0000
,
0001
0100
0001
0100
,
0010
0000
1000
0000
,
0100
1000
0100
1000
,
0001
0000
1000
0000
,
0001
0000
0100
0000
,
1000
0000
0100
0001
,
0010
0000
0010
0001
,
0100
0000
0100
0010
,
1000
0000
0100
0000
,
0001
0000
0100
0000
,
1001
0000
0110
0000
,
1001
0000
0000
0000
,
0010
0000
0100
0000
,
1000
0010
0100
0001
,
2002
0000
0000
3003
,
0000
0000
0000
0000
;

//---------------dance-single - ----------------
#NOTES:
     dance-single:
     :
     Medium:
     8:
     0.328581,0.398422,0.202098,0.144356,0.000000,239.000000,218.000000,21.000000,15.000000,0.000000,0.000000,0.328581,0.398422,0.202098,0.144356,0.000000,239.000000,218.000000,21.000000,15.000000,0.000000,0.000000:
0000
0000
0000
0000
,
0000
0000
0000
0000
,
0000
0000
0000
0000
,
0000
0000
0000
0000
,
0000
0000
1000
0100
,
0001
0000
0000
0100
0000
0000
0100
0000
,
0000
0000
0001
1000
,
0100
0000
0000
0000
,
1100
0000
0000
0000
0011
0000
0000
1001
,
0000
0000
0010
0000
1000
0000
0010
0100
,
0000
0001
1000
0001
,
0000
0000
0010
0000
0010
0000
0001
0100
,
0000
0000
1000
0000
0100
0000
0001
1000
,
0000
0000
0010
0000
0100
0000
0010
0100
,
0000
0001
1000
0001
,
0000
0100
0100
0010
,
1001
0000
0000
0000
0110
0000
0000
0100
,
0100
0000
0000
0000
,
1100
0000
0000
0000
0101
0000
0000
0001
,
1000
0000
1010
1100
,
0101
0000
0100
1000
,
0010
0100
0001
1000
,
0000
1000
0100
0010
,
0001
1000
0010
0000
,
0100
0000
0001
0010
,
0001
0000
1000
0100
,
1000
1000
0001
0001
,
0100
0000
0010
0000
1000
0100
1000
0001
,
0100
0000
0010
0200
0000
0000
0000
0000
,
0301
0000
0100
0010
,
1000
0000
0001
2000
0000
0000
0000
0000
,
3100
0000
1000
0001
,
0100
0000
0100
0002
0000
0000
0000
0000
,
1003
0000
0000
1000
0001
1000
0001
0100
,
0001
0000
0000
0000
0100
0000
1000
0001
,
0000
0100
1000
0010
,
0001
0000
0010
0000
1000
0000
0100
0010
,
0000
0000
0001
0000
1000
0100
0000
0000
,
0010
0000
0001
0000
1000
0001
0000
0000
,
0100
0001
0100
1000
,
0010
0100
0001
0000
,
1100
0000
0101
0000
0001
1000
0000
0020
,
0000
0030
1000
0000
,
0011
0000
0101
0000
0001
0100
0000
0020
,
0000
0000
0030
0000
0100
0000
0001
1000
,
0000
0000
0100
0000
1000
0100
0000
0000
,
0010
0000
0100
0000
1000
0001
0000
0000
,
0001
0100
1000
0100
,
0001
0001
1000
0000
,
0101
1100
0201
0000
,
1000
0001
0301
0000
,
0020
0030
0200
0300
,
0220
0000
0330
0000
0000
0100
0100
0000
,
1000
0010
0001
0010
,
1000
0001
1000
0001
,
1000
0100
0001
0100
,
1000
0000
0001
0000
1000
0000
0001
1000
,
0000
0000
0010
0000
0100
0000
0001
0100
,
0000
0000
0010
0000
1000
0000
0100
1000
,
0001
0100
0010
1000
,
0010
0100
0001
0010
,
0200
0010
1000
0310
,
0002
0100
1000
0103
,
0011
0000
1100
0000
,
2002
0000
3003
1000
,
0001
0001
0010
0010
,
0100
0000
0100
1000
0010
1000
0100
0010
,
0002
0000
0000
0000
,
0000
0000
0000
0000
,
0003
0000
0000
0000
,
0000
0000
0000
0000
;

//---------------dance-single - ----------------
#NOTES:
     dance-single:
     :
     Hard:
     10:
     0.464688,0.597633,0.481186,0.298335,0.000000,338.000000,288.000000,50.000000,31.000000,0.000000,0.000000,0.464688,0.597633,0.481186,0.298335,0.000000,338.000000,288.000000,50.000000,31.000000,0.000000,0.000000:
0000
0000
0000
0000
,
0000
0000
0000
0000
,
0000
0000
0000
0000
,
0000
0000
0000
0000
,
0000
0000
1100
0110
,
1001
0000
0000
0101
0000
0000
0101
0000
,
0000
0000
0001
1000
,
0011
0100
0100
0100
,
0002
0000
0003
0000
1000
0100
1000
0001
,
0000
0100
0001
0000
1000
0000
0001
1000
,
0000
0100
0010
0000
0001
0000
1000
0010
,
0000
0100
0010
0100
0010
1000
0001
1000
,
0000
0000
0100
0000
0100
1000
0001
0010
,
0000
0100
1000
0000
0001
0010
0001
1000
,
0000
0010
0100
0000
0001
0000
1000
0010
,
0000
0100
0001
0100
0010
0000
1000
0100
,
2000
0000
0000
0000
0001
0000
0000
0010
,
3010
0000
1100
1001
,
0102
0000
0000
0000
1000
0000
0000
0010
,
0013
0000
0001
1100
,
0100
0000
0100
0000
0100
1000
0001
0100
,
0010
0000
0001
1000
0100
0000
0010
0100
,
1000
0000
1000
0000
1000
0010
1000
0001
,
0100
0000
0100
1000
0100
0000
0010
0100
,
2000
0000
0000
0000
3001
0000
0001
0010
,
0002
0000
0000
0000
1003
0000
1000
0001
,
2000
0001
0100
3001
,
0010
0000
0010
0000
1000
0001
0100
0010
,
1000
0000
0001
2000
0000
0000
3000
0000
,
0100
0000
0000
1000
0010
0100
0010
1000
,
0001
0000
1000
0002
0000
0000
0003
0000
,
0100
0000
0000
0220
0000
0000
0330
0000
,
0001
0000
0000
2002
0000
0000
3003
0000
,
0100
0000
1100
1001
,
0010
0100
0001
1000
0100
0010
0001
1000
,
0000
0001
1000
0000
0100
1000
0010
0100
,
0000
0001
1000
0000
0001
0100
0010
1000
,
0000
0010
1000
0010
0100
0001
0000
1100
,
0000
0000
0011
0000
0010
0100
0000
0001
,
1000
0100
0101
1100
,
1000
0010
1000
0000
0000
0000
0011
0000
,
1100
0000
1000
0001
0020
0000
0100
0130
,
0000
0000
1010
0000
0101
0000
0001
0100
,
0001
0000
0000
0000
0020
0000
0100
0130
,
0000
0001
1000
0000
0010
0100
0001
1000
,
0000
0000
0101
0000
1000
0001
0010
0001
,
0000
0000
1100
0000
0010
0100
0010
0000
,
1000
0000
1000
0000
0010
0001
1000
0100
,
1000
0001
1000
0001
0010
0000
0000
0001
,
0020
0100
1000
0031
,
1001
0110
1001
0000
,
0202
0303
2200
3300
,
0220
0000
0330
0100
0100
0000
1100
0000
,
0011
1001
1010
0101
,
0101
0110
1001
0011
,
1100
1100
1001
0000
,
0001
0010
0001
0100
0010
0100
0001
2000
,
0000
0000
0001
0000
3001
0000
0010
0002
,
0000
0000
0010
0000
0013
0000
1000
0001
,
1000
0010
0100
0010
1000
0000
0000
0000
,
1001
0000
0110
0000
1001
0000
0010
0100
,
0000
0000
0010
0000
0010
0100
0010
1000
,
0000
0000
0001
0000
1000
0001
0100
0000
,
0202
0303
2200
3300
,
2002
0000
3003
0000
0000
0110
0100
0000
,
0001
0010
0001
0010
0100
1000
0100
1000
,
0001
0010
0100
1000
0010
0100
0001
1000
,
0202
0000
0000
0000
,
0000
0000
0000
0000
,
0303
0000
0000
0000
;

//---------------dance-double - ----------------
#NOTES:
     dance-double:
     :
     Easy:
     4:
     0.210347,0.260803,0.144356,0.076990,0.000000,153.000000,138.000000,15.000000,8.000000,0.000000,0.000000,0.210347,0.260803,0.144356,0.076990,0.000000,153.000000,138.000000,15.000000,8.000000,0.000000,0.000000:
00000000
00000000
00000000
00000000
,
00000000
00000000
00000000
00000000
,
00000000
00000000
00000000
00000000
,
00000000
00000000
00000000
00000000
,
00000000
00000000
00000000
00000000
,
10000000
00000000
00010000
00000000
,
01000000
00000000
00001000
00000000
,
00010000
00000000
00001000
00000000
,
00011000
00000000
00000000
00000000
,
00000100
00000000
00000010
00000000
,
00000001
00001000
00000001
00000000
,
00000100
00000000
00001000
00000000
,
00010000
00000000
01000000
10000000
,
00010000
00000000
01000000
00000000
,
00100000
01000000
00100000
00000000
,
00010000
00000000
00001000
00000000
,
00000100
00000000
00000110
00000000
,
00000010
00000000
00000000
00000000
,
00001000
00000000
00001001
00000000
,
00000001
00000000
00000100
00001000
,
00010000
00000000
00001000
00000000
,
00100000
00001000
00010000
00000000
,
00001000
00000000
00010000
00000000
,
00000010
00010000
00001000
00100000
,
00010000
00000000
01000000
10000000
,
01000000
00000000
00010000
01000000
,
00010000
00000000
00100000
00000000
,
00001000
00000000
00010000
00000000
,
00011000
00000000
00000000
00000000
,
00001000
00000000
00000100
00000000
,
00000110
00000000
00000000
00000000
,
00000010
00000000
00001000
00000000
,
00021000
00000000
00030000
00000000
,
02000000
00000000
03000000
00000000
,
10000000
00000000
01000000
10000000
,
00100000
00000000
00010000
00000000
,
00001000
00000000
00000100
00000000
,
00001001
00000000
00000010
00000000
,
00001001
00000000
00000100
00000000
,
00001000
00000010
00001000
00000100
,
00010000
00000000
00001000
00000000
,
01000000
00010000
00100000
00000000
,
02000000
00000000
03000000
00000000
,
10000000
00100000
01000000
00000000
,
00020000
00000000
00030000
00000000
,
00011000
00000000
00000100
00000000
,
00011000
00000000
00100000
00000000
,
00001000
00010000
00001000
00010000
,
00001000
00000000
00000100
00000000
,
00000001
00000001
00000001
00000000
,
00001000
00000000
00000100
00000000
,
00020000
00030000
00002000
00003000
,
00011000
00000000
00000000
00001000
,
00010000
00000000
01000000
00000000
,
10000000
00000000
00100000
10000000
,
01000000
00000000
00010000
00000000
,
00001000
00000000
00000010
00000000
,
00000100
00000000
00010000
00000000
,
00001000
00000000
01000000
00000000
,
00100000
00010000
00001000
00000000
,
00000100
00001000
00010000
00000000
,
01000000
00000000
00010000
00000000
,
00001000
00000000
00000010
00000000
,
00000110
00000000
00001001
00000000
,
00000110
00000000
00000000
00000000
,
00000001
00000000
00000100
00000000
,
00001000
00010000
01000000
10000000
,
20020000
00000000
00000000
30030000
,
00000000
00000000
00000000
00000000
;

//---------------dance-double - ----------------
#NOTES:
     dance-double:
     :
     Medium:
     8:
     0.323082,0.398422,0.211722,0.144356,0.000000,235.000000,213.000000,22.000000,15.000000,0.000000,0.000000,0.323082,0.398422,0.211722,0.144356,0.000000,235.000000,213.000000,22.000000,15.000000,0.000000,0.000000:
00000000
00000000
00000000
00000000
,
00000000
00000000
00000000
00000000
,
00000000
00000000
00000000
00000000
,
00000000
00000000
00000000
00000000
,
00000000
00000000
00000000
00000000
,
00000100
00000001
00000100
00000001
,
00001000
00000100
00001000
00000100
,
00010000
00001000
00010000
00001000
,
00010100
00000000
00000000
00000000
00101000
00000000
00000000
00011000
,
00000000
00000000
01000000
00000000
00010000
00000000
00000000
00100000
,
00000000
00000000
01000000
00000000
10000000
00000000
00000000
10100000
,
00000000
01000000
00010000
00100000
,
00001000
00000000
00010000
00000000
00000010
00000000
00000000
00001010
,
00000000
00000000
00000101
00000000
00000001
00000000
00000000
00000010
,
00000000
00000000
00000100
00000000
00001000
00000000
00000000
00000001
,
00000000
00000100
00001000
00010000
,
00011000
00000000
00000000
00000000
00000100
00000000
00000000
00001000
,
00001000
00000000
00000000
00000000
,
00011000
00000000
00000000
00000000
00100000
00000000
00000000
00010000
,
00010000
00000000
00000000
00000000
01000000
00100000
01000000
00000000
,
01100000
00000000
00010000
10000000
,
00100000
10000000
01000000
00010000
,
00001000
00000000
00000100
00000001
,
00001000
00000001
00000100
00001000
,
00010000
00000000
00001000
00100000
,
00001000
00000000
00010000
00000100
,
00020000
00030000
00002000
00003000
,
02000000
00000000
03000000
00000000
00010000
01000000
00010000
01000000
,
00100000
00000000
00000000
10100000
00000000
00000000
00000000
00000000
,
10000000
00000000
00000000
11000000
00000000
00000000
01000000
00000000
,
00010000
00000000
00000000
00011000
00000000
00000000
00000000
00000000
,
00001000
00000000
00000000
00001100
00000000
00000000
00000100
00000000
,
00000001
00000000
00000000
00000011
00000000
00000000
00000000
00000000
,
00001100
00000000
00000000
00000000
00010000
00010000
00010000
00000000
,
00001000
00000000
00000100
00000000
00001000
00000000
00010000
00100000
,
00000000
10000000
00010000
00100000
,
01000000
00000000
10000000
00000000
00010000
00000000
01000000
00100000
,
00000000
00000000
00010000
00000000
00001000
00000000
00000000
00000010
,
00000000
00001000
00010000
00000000
01000000
00000000
00000000
00000000
,
10000000
00010000
01000000
00001000
,
00010000
00000100
00001000
00000001
,
00000010
00000000
00000100
00001000
00000100
00000000
00000000
00020000
,
00000000
00030000
00001000
01000000
,
00100000
00000000
01000000
00010000
01000000
00000000
00000000
00002000
,
00000000
00000000
00003000
00000000
00010000
00000000
00100000
01000000
,
00000000
00000000
00001000
00000000
00010000
00000000
00000000
00000010
,
00000000
00010000
00001000
00000000
01000000
00000000
00000000
00000000
,
00100000
01000000
00010000
00100000
,
00001000
00010000
00000100
00000000
,
00001100
00000000
00000011
00000000
00001200
00000000
00000000
00001000
,
00000000
00000010
00000000
00001300
00000000
00000010
00000000
00001000
,
00020000
00030000
00002000
00003000
,
00022000
00033000
00000000
00000000
,
00100000
00010000
10000000
00010000
,
01000000
01000000
00001000
00010000
,
00000010
00001000
00000001
00001000
,
00000100
00000000
00000100
00000000
00010000
00000000
00001000
00100000
,
00000000
00000000
00010000
00000000
01000000
00000000
00100000
10000000
,
00000000
00000000
01000000
00000000
00100000
00000000
00001000
00010000
,
00001000
00000100
00000010
00000100
,
00000001
00000100
00000010
00000100
,
00002000
00010000
00100000
00013000
,
00200000
00001000
00010000
00301000
,
00101000
00000000
01010000
00000000
,
20020000
00000000
30030000
00000000
,
10000000
01000000
00100000
00001000
,
00010000
00000000
00001000
00010000
00000100
00010000
00001000
01000000
,
00020000
00000000
00000000
00000000
,
00000000
00000000
00000000
00000000
,
00030000
00000000
00000000
00000000
,
00000000
00000000
00000000
00000000
;

//---------------dance-double - ----------------
#NOTES:
     dance-double:
     :
     Hard:
     11:
     0.475686,0.531229,0.394572,0.240593,0.000000,346.000000,305.000000,41.000000,25.000000,0.000000,0.000000,0.475686,0.531229,0.394572,0.240593,0.000000,346.000000,305.000000,41.000000,25.000000,0.000000,0.000000:
00000000
00000000
00000000
00000000
,
00000000
00000000
00000000
00000000
,
00000000
00000000
00000000
00000000
,
00000000
00000000
00000000
00000000
,
00000000
00000000
00000000
00000000
,
01100000
00000000
00000000
11000000
00000000
00000000
00110000
00000000
,
00000000
00000000
01001000
00011000
,
00010100
00000000
00000000
00000000
,
00000011
00000000
00000000
00000000
00001010
00000001
00000100
00000010
,
00000000
00000010
00000100
00000000
00000001
00000000
00000100
00001000
,
00000000
00001000
00010000
00000000
01000000
00000000
00100000
01100000
,
00000000
10000000
00010000
01000000
00100000
00000000
00100000
10000000
,
00000000
10000000
00010000
01000000
00001000
00010000
00000100
00000010
,
00000000
00000100
00000110
00000000
00001000
00000000
00000001
00000100
,
00000000
00000100
00001000
00000000
00010000
00000000
00100000
00010000
,
00000000
00001000
00000100
00001000
00010000
00000000
01000000
10000000
,
00100000
00000000
00000000
00000000
10010000
00000000
00000000
01000000
,
02000000
00000000
00000000
00000000
03000000
00000000
00000000
00010000
,
00001000
00000000
00000000
00000000
00011000
00000000
00000000
00000100
,
00000200
00000000
00000000
00000000
00000010
00000010
00000310
00000000
,
00000110
00000100
00000001
00000100
,
00001000
00010000
00000100
00000000
00010000
00001000
01000000
00000000
,
00010000
00000000
00100000
00000000
01000000
10000000
01000000
10000000
,
00100000
00000000
01000000
00001000
00010000
00000000
00000100
00010000
,
00002000
00000000
00100000
00000000
00100000
00000000
00103000
00001000
,
00020000
00000000
00000010
00000000
00000010
00000000
00030010
00001000
,
00000002
00000010
00000010
00000013
,
00000001
00000000
00000100
00000000
00001000
00010000
00001000
00010000
,
00011000
00000000
00000000
00022000
00000000
00000000
00033000
00000000
,
00101000
00000000
00000000
00220000
00000000
00000000
00330000
00000000
,
10010000
00000000
00000000
20020000
00000000
00000000
30030000
00000000
,
01010000
00000000
00000000
02002000
00000000
00000000
03003000
00000000
,
00011000
00000000
00010000
00021000
00000000
00000000
00000000
00000000
,
00030010
00000000
00000000
00001000
00000001
00001000
00000100
00000010
,
00000001
00000000
00001000
00000000
00000001
00000000
00001000
00000110
,
00000000
00000001
00000100
00000000
00001000
00010000
00000000
01000000
,
10000000
00010000
01000000
00000000
00001000
00010000
00000000
00011000
,
00000000
00001000
00000100
00000010
00000100
00000001
00000000
00001001
,
00000000
00000001
00000010
00000100
00000010
00001000
00000000
00010000
,
00001000
02000000
00000000
00100000
00000000
10000000
00000000
00100000
,
00000000
03010000
10000000
00000000
01000000
00000000
00100000
00010000
,
10000000
00000000
10000000
01000000
00010000
00001000
00000000
00010010
,
00000000
00001000
00000100
00000000
00010000
00000000
00000010
00001000
,
00000001
00000000
00000001
00000100
00001000
00010000
00000000
00101000
,
00000000
00010000
01000000
00000000
00100000
00010000
00001000
00011000
,
00000000
00001000
00000010
00000100
00000010
00000001
00000000
00001001
,
00000000
00000001
00000100
00000010
00000100
00001000
00000000
00010000
,
00001000
00200000
00000000
01000000
00000000
10000000
00000000
01000000
,
00000000
00310000
10000000
00000000
00100000
00000000
01000000
00020000
,
00100000
00000000
01000000
00000000
00130000
00000000
00001000
00010000
,
00000000
00000010
00000000
00001000
00000000
00000100
00000010
00000100
,
00001001
00000000
00001100
00000000
,
00011000
00000000
00000000
00000000
00010000
00001000
00010000
00000000
,
00100000
00010000
01000000
00010000
10000000
00000000
11000000
00000000
,
01000000
10000000
00100000
10000000
00010000
00000000
00110000
00000000
,
00001000
00010000
01000000
00000000
00010000
00001000
00000100
00000000
,
00001000
00010000
00000100
00010000
00001000
00100000
00001000
00011000
,
00000000
00010000
00000010
00000000
00001000
00000100
00001000
00000010
,
00000000
00000100
00000001
00000000
00000010
00000001
00000100
00000001
,
00001000
00000100
00010100
00000000
00010000
00001000
00100000
00000000
,
00001000
00010000
00000010
00000000
00010000
00001000
01000000
00010000
,
10000000
01000000
00010000
01000000
10000000
00100000
00010000
00100000
,
10000000
00000000
00010000
00000000
00100000
00010000
01000000
00000000
,
02002000
03003000
00022000
00033000
,
00020020
00000000
00030030
00000000
00001000
00000100
00001000
00000000
,
00000010
00000100
00000001
00000000
00000010
00000100
00001000
00000000
,
00000010
00010000
00001000
00100000
00010000
01000000
00001000
00010000
,
00022000
00000000
00000000
00000000
,
00000000
00000000
00000000
00000000
,
00033000
00000000
00000000
00000000
,
00000000
00000000
00000000
00000000
;

//---------------dance-single - ----------------
#NOTES:
     dance-single:
     :
     Edit:
     13:
     0.606294,0.664036,0.500433,0.394572,0.101049,441.000000,389.000000,52.000000,41.000000,0.000000,0.000000,0.606294,0.664036,0.500433,0.394572,0.101049,441.000000,389.000000,52.000000,41.000000,0.000000,0.000000:
// measure 0
0000
0000
0000
0000
,  // measure 1
0000
0000
0000
0000
,  // measure 2
0000
0000
0000
0000
,  // measure 3
0000
0000
0000
0000
,  // measure 4
0000
0000
0101
1001
,  // measure 5
2020
0000
3030
2200
0000
3300
0110
0000
,  // measure 6
0022
0033
1001
1100
,  // measure 7
0220
0000
0330
2002
0000
0000
3003
0000
,  // measure 8
0202
0000
0000
0303
0001
0010
0100
1000
,  // measure 9
0000
1000
0010
0000
0001
0000
0010
1000
,  // measure 10
0000
1000
0100
0000
0001
0000
0100
1000
,  // measure 11
0000
1000
0010
0000
0100
0000
0001
1001
,  // measure 12
0000
1000
0010
0000
0010
0100
0001
0012
,  // measure 13
0000
1003
1000
0000
0100
1000
0010
1000
,  // measure 14
0002
0100
0103
0000
0010
1000
0001
0020
,  // measure 15
0000
0031
1000
0100
2000
0000
3010
0010
,  // measure 16
0010
0000
0000
0000
1000
0001
1000
0000
0001
0000
0200
0000
0000
0000
0310
0000
,  // measure 17
1000
0002
0000
0103
0010
0000
1001
0000
,  // measure 18
1000
0000
0000
0001
0000
0000
1000
0000
0100
0000
0010
0000
0001
0000
0100
0000
0010
0000
1000
0000
0100
0000
0010
0000
,  // measure 19
0002
0000
0000
0000
0103
0100
0100
0000
,  // measure 20
0020
0000
0000
0000
1030
0001
0100
0001
,  // measure 21
0010
0000
0001
0100
1000
0000
1000
0100
,  // measure 22
0001
0000
1000
0010
0100
0010
1000
0010
,  // measure 23
0200
0000
0301
1000
0010
1000
0001
1000
,  // measure 24
0010
0000
0100
0000
0001
0010
0001
1000
,  // measure 25
0100
0000
1000
0010
0001
0010
1000
0001
,  // measure 26
1000
0000
0001
1000
0010
0000
1000
0001
,  // measure 27
0100
0001
0100
0000
0001
0000
1000
0000
0010
0000
0010
0000
0100
0000
0100
0000
,  // measure 28
0110
0000
0010
1000
0001
0000
0000
0000
,  // measure 29
0102
0000
0003
1000
0010
0100
0010
1000
,  // measure 30
0001
0010
0001
0100
0020
0000
1030
0000
,  // measure 31
1001
0000
0000
0001
1000
0010
1000
0100
,  // measure 32
2100
0000
3001
0022
0000
0000
0033
0000
,  // measure 33
0100
0001
1000
0001
0100
0010
1000
0001
,  // measure 34
0010
0100
1000
0001
0010
0001
0100
0110
,  // measure 35
0000
0000
0010
0000
1000
0000
0100
0000
1000
0000
0001
0000
0010
0000
0001
0100
,  // measure 36
0001
0000
1000
0000
0010
0000
1000
0001
1000
0000
0010
0000
0100
0000
0010
0000
,  // measure 37
0000
0100
0001
0010
0001
1000
0100
1100
,  // measure 38
0000
0000
1010
0000
0001
0100
1000
0100
,  // measure 39
0001
1000
0001
0000
0000
0000
1000
0000
0010
0000
0100
0000
0010
0000
0001
0000
,  // measure 40
0010
1000
0001
0000
0011
0000
0010
0001
,  // measure 41
2001
0000
3100
1000
0010
0100
0001
0012
,  // measure 42
0000
0003
1001
0000
1100
0000
0100
0001
,  // measure 43
0200
0000
1300
0001
0010
0002
0100
0103
,  // measure 44
0000
0010
1000
0001
0100
0001
1000
1010
,  // measure 45
0000
0000
1001
0000
0001
0101
0100
0010
,  // measure 46
0000
0000
1100
0000
0100
1000
0001
0010
,  // measure 47
0001
0100
0000
0110
0000
0010
1000
0001
,  // measure 48
1000
0010
0110
0100
0001
0000
0001
0010
,  // measure 49
1000
0000
1010
0000
0011
0000
0001
0100
,  // measure 50
1000
1100
0101
0011
,  // measure 51
0220
0000
0330
0000
2000
0001
3001
0100
,  // measure 52
0220
0000
0330
0001
0001
1000
1010
0000
,  // measure 53
0110
0101
0011
1010
,  // measure 54
0011
0101
1100
0101
,  // measure 55
2002
0000
3003
0010
1000
0001
0100
0000
,  // measure 56
0001
0000
1000
0000
0001
0000
1000
0001
1000
0000
0001
0000
1000
0001
1000
0000
,  // measure 57
0010
0100
0100
0000
0001
0000
1000
0001
,  // measure 58
0000
0000
1000
0000
0010
0100
0010
0000
1000
0001
1000
0000
0001
0100
0001
0000
,  // measure 59
0010
0001
1000
0000
0100
1000
0010
0200
,  // measure 60
0000
0000
0301
0000
0010
0001
0010
0000
0001
0000
1000
0000
0100
0000
1000
0000
,  // measure 61
0010
0100
0010
0000
1000
0000
0001
0000
1000
0000
0100
0000
0010
0000
0001
0000
,  // measure 62
0100
0010
0100
0000
0002
0000
0000
0000
1003
0000
0100
0000
1000
0000
0010
0000
,  // measure 63
0100
0001
0100
0000
0001
0000
1000
0000
0001
0010
0001
0000
0010
0000
0100
0000
,  // measure 64
1000
0010
1000
0100
1000
0001
1000
0000
,  // measure 65
0001
1000
0010
1000
0001
1000
0010
0000
,  // measure 66
1001
0000
1000
0100
0001
1000
0010
0001
,  // measure 67
2002
0000
0000
0000
,  // measure 68
0000
0000
0000
0000
,  // measure 69
3003
0000
0000
0000
;

//---------------dance-single - SIN----------------
#NOTES:
     dance-single:
     :
     Challenge:
     14:
     0.631041,0.929651,0.500433,0.394572,0.182851,459.000000,407.000000,52.000000,41.000000,0.000000,0.000000,0.631041,0.929651,0.500433,0.394572,0.182851,459.000000,407.000000,52.000000,41.000000,0.000000,0.000000:
// measure 0
0000
0000
0000
0000
,  // measure 1
0000
0000
0000
0000
,  // measure 2
0000
0000
0000
0000
,  // measure 3
0000
0000
0000
0000
,  // measure 4
0000
0000
0101
1001
,  // measure 5
2020
0000
3030
2200
0000
3300
0110
0000
,  // measure 6
0022
0033
1001
1100
,  // measure 7
0220
0000
0330
2002
0000
0000
3003
0000
,  // measure 8
0202
0000
0000
0303
0001
0010
0100
1000
,  // measure 9
0000
1000
0010
0000
0001
0000
0010
1000
,  // measure 10
0000
1000
0100
0000
0001
0000
0100
1000
,  // measure 11
0000
1000
0010
0000
0100
0000
0001
1001
,  // measure 12
0000
1000
0010
0000
0010
0100
0001
0012
,  // measure 13
0000
1003
1000
0000
0100
1000
0010
1000
,  // measure 14
0002
0100
0103
0000
0010
1000
0001
0020
,  // measure 15
0000
0031
1000
0100
2000
0000
3010
0010
,  // measure 16
0010
0000
0000
0000
1000
0001
1000
0000
0001
0000
0200
0000
0000
0000
0310
0000
,  // measure 17
1000
0002
0000
0103
0010
0000
1001
0000
,  // measure 18
1000
0000
0000
0001
0000
0000
1000
0000
0100
0000
0010
0000
0001
0000
0100
0000
0010
0000
1000
0000
0100
0000
0010
0000
,  // measure 19
0002
0000
0000
0000
0103
0100
0100
0000
,  // measure 20
0020
0000
0000
0000
1030
0001
0100
0001
,  // measure 21
0010
0000
0001
0100
1000
0000
1000
0100
,  // measure 22
0001
0000
1000
0010
0100
0010
1000
0010
,  // measure 23
0200
0000
0301
1000
0010
1000
0001
1000
,  // measure 24
0010
0000
0100
0000
0001
0010
0001
1000
,  // measure 25
0100
0000
1000
0010
0001
0010
1000
0001
,  // measure 26
1000
0000
0001
1000
0010
0000
1000
0001
,  // measure 27
0100
0001
0100
0000
0001
0000
1000
0000
0010
0000
0010
0000
0100
0000
0100
0000
,  // measure 28
0110
0000
0010
1000
0001
0000
0000
0000
,  // measure 29
0102
0000
0003
1000
0010
0100
0010
1000
,  // measure 30
0001
0010
0001
0100
0020
0000
1030
0000
,  // measure 31
1001
0000
0000
0001
1000
0010
1000
0100
,  // measure 32
2100
0000
3001
0022
0000
0000
0033
0000
,  // measure 33
0100
0001
1000
0001
0100
0010
1000
0001
,  // measure 34
0010
0100
1000
0001
0010
0001
0100
0110
,  // measure 35
0000
0000
0010
0000
1000
0000
0100
0000
1000
0000
0001
0000
0010
0000
0001
0100
,  // measure 36
0001
0000
1000
0000
0010
0000
1000
0001
1000
0000
0010
0000
0100
0000
0010
0000
,  // measure 37
0000
0100
0001
0010
0001
1000
0100
1100
,  // measure 38
0000
0000
1010
0000
0001
0100
1000
0100
,  // measure 39
0001
1000
0001
0000
0000
0000
1000
0000
0010
0000
0100
0000
0010
0000
0001
0000
,  // measure 40
0010
1000
0001
0000
0011
0000
0010
0001
,  // measure 41
2001
0000
3100
1000
0010
0100
0001
0012
,  // measure 42
0000
0003
1001
0000
1100
0000
0100
0001
,  // measure 43
0200
0000
1300
0001
0010
0002
0100
0103
,  // measure 44
0000
0010
1000
0001
0100
0001
1000
1010
,  // measure 45
0000
0000
1001
0000
0001
0101
0100
0010
,  // measure 46
0000
0000
1100
0000
0100
1000
0001
0010
,  // measure 47
0001
0100
0000
0110
0000
0010
1000
0001
,  // measure 48
1000
0010
0110
0100
0001
0000
0001
0010
,  // measure 49
1000
0000
1010
0000
0011
0000
0001
0100
,  // measure 50
1000
1100
0101
0011
,  // measure 51
0220
0000
0330
0000
2000
0001
3001
0100
,  // measure 52
0220
0000
0330
0001
0001
1000
1010
0000
,  // measure 53
0110
0101
0011
1010
,  // measure 54
0011
0101
1100
0101
,  // measure 55
2002
0000
3003
0010
1000
0001
0100
0000
,  // measure 56
0001
0000
1000
0000
0001
0000
1000
0001
1000
0001
1000
0001
1000
0001
1000
0000
,  // measure 57
0010
0100
0100
0000
0001
0000
1000
0001
,  // measure 58
0000
0000
1000
0000
0010
0100
0010
0000
1000
0001
1000
0000
0100
0010
0100
0000
,  // measure 59
0010
0001
0010
0000
0100
1000
0100
0000
1000
0010
1000
0000
0001
1000
0002
0000
,  // measure 60
0000
0000
1003
0000
0010
0001
0010
0000
1000
0000
0100
0000
1000
0001
1000
0000
,  // measure 61
0010
0100
0010
0100
0001
0010
0001
0010
0100
1000
0100
1000
0001
1000
0001
1000
,  // measure 62
0100
0010
0100
0000
0002
0000
0000
0000
0103
0000
1000
0000
0010
0000
0100
0000
,  // measure 63
0001
0010
0001
0010
0001
0010
0001
0000
1000
0010
1000
0010
1000
0000
0100
0000
,  // measure 64
1000
0010
1000
0100
1000
0001
1000
0000
,  // measure 65
0001
1000
0010
1000
0001
1000
0010
0000
,  // measure 66
1001
0000
1000
0100
0001
1000
0010
0001
,  // measure 67
2002
0000
0000
0000
,  // measure 68
0000
0000
0000
0000
,  // measure 69
3003
0000
0000
0000
;
