#TITLE:Truare!;
#SUBTITLE:;
#ARTIST:Akhuta;
#TITLETRANSLIT:;
#SUBTITLETRANSLIT:;
#ARTISTTRANSLIT:;
#GENRE:;
#CREDIT:;
#BANNER:Truare!.png;
#BACKGROUND:Truare!-bg.png;
#LYRICSPATH:;
#CDTITLE:;
#MUSIC:Truare!.ogg;
#OFFSET:0.000000;
#SAMPLESTART:69.180000;
#SAMPLELENGTH:15.000000;
#SELECTABLE:YES;
#DISPLAYBPM:183.000000;
#BPMS:0.000000=183.000000
;
#STOPS:
;
#BGCHANGES:;
#KEYSOUNDS:;
#ATTACKS:;

//---------------dance-single - ----------------
#NOTES:
     dance-single:
     :
     Beginner:
     3:
     0.216548,0.332895,0.036308,0.036308,0.000000,167.000000,163.000000,4.000000,4.000000,0.000000,0.000000,0.216548,0.332895,0.036308,0.036308,0.000000,167.000000,163.000000,4.000000,4.000000,0.000000,0.000000:
0000
0000
0000
0000
,
0000
0000
0000
0000
,
0000
0000
0000
0000
,
0000
0000
0000
0000
,
0000
0000
0000
0000
,
0001
0000
0001
0000
,
0010
0000
0010
0000
,
1000
0000
1000
0000
,
0000
0000
0000
0000
,
0000
0001
0000
0010
,
0000
1000
0000
0010
,
0000
0001
0000
0010
,
0010
0010
0010
0010
,
0000
0001
0000
0100
,
0000
1000
0000
0100
,
0000
0001
0000
0100
,
0100
0100
0100
0100
,
0100
0000
0100
0000
,
0010
0000
0010
0000
,
0100
0000
0100
0000
,
0010
0000
0010
0000
,
1000
1000
1000
0000
,
0001
0001
0001
0000
,
1000
1000
1000
0000
,
0001
0001
0001
0000
,
0010
0000
0010
0000
,
0100
0000
0100
0000
,
0010
0000
0010
0000
,
0100
0000
0100
0000
,
1000
1000
1000
0000
,
0001
0001
0001
0000
,
1000
1000
1000
0000
,
0001
0001
0001
0000
,
1000
0000
0010
0000
,
0100
0000
0001
0000
,
0010
0000
0100
0000
,
1000
0000
0000
0000
,
0001
0000
0100
0000
,
1000
0000
0010
0000
,
0001
0000
0100
0000
,
1000
1000
1000
0000
,
0001
0001
0001
0000
,
0000
0000
0000
0000
,
0010
0010
0010
0000
,
0000
0000
0000
0000
,
1000
0000
0010
0000
,
0001
0000
0100
0000
,
1000
0000
0010
0000
,
0001
0000
0100
0000
,
1000
0000
0001
0000
,
1000
0000
0001
0000
,
1001
0000
0000
0000
,
0000
0000
0000
0000
,
0010
0010
0010
0000
,
1000
1000
1000
0000
,
0001
0001
0001
0000
,
0010
0010
0010
0000
,
0100
0100
0100
0000
,
1000
1000
1000
0000
,
0001
0001
0001
0000
,
0010
0000
0000
0000
,
0001
0000
0010
0000
,
1000
0000
0010
0000
,
0001
0000
0010
0000
,
1000
1000
1000
0000
,
0001
0000
0010
0000
,
0100
0000
1000
0000
,
0010
0000
1000
0000
,
0001
0000
1000
0000
,
0001
0000
1000
0000
,
0000
0001
0000
0001
,
0000
0010
0000
0010
,
0000
1000
0000
1000
,
0000
0100
0000
0100
,
0200
0000
0300
0000
,
0020
0000
0030
0000
,
0002
0000
0003
0000
,
2000
0000
3000
0000
,
0001
0000
1000
0000
,
0010
0000
0100
0000
,
0001
0000
1000
0000
,
1001
1001
1001
0000
,
0000
0000
0000
0000
;

//---------------dance-single - ----------------
#NOTES:
     dance-single:
     :
     Easy:
     8:
     0.394196,0.554824,0.381229,0.054461,0.000000,304.000000,262.000000,42.000000,6.000000,0.000000,0.000000,0.394196,0.554824,0.381229,0.054461,0.000000,304.000000,262.000000,42.000000,6.000000,0.000000,0.000000:
0000
0000
0000
0000
,
0000
0000
0000
0000
,
0000
0000
0000
0000
,
0000
0000
0000
0000
,
0000
0000
0000
0000
,
0010
0001
0010
0100
,
0010
1000
0010
0100
,
0010
0001
0010
0100
,
0010
0000
0000
0000
,
0100
1001
0010
1001
,
0100
1001
0000
0001
,
0100
1001
0010
1001
,
1000
0001
1000
0001
,
1000
0110
0001
0110
,
1000
0110
0000
0100
,
1000
0110
0001
0110
,
1000
0100
0010
0001
,
1000
0001
0010
0010
,
0001
1000
0010
0010
,
1000
0001
0010
0010
,
1000
0010
0100
0001
,
0010
1000
0001
1001
,
0010
0001
1000
1001
,
0010
1000
0010
0110
,
1000
0010
0100
0001
,
0001
1000
0010
1000
,
0001
1000
0100
1000
,
0001
1000
0010
0100
,
0001
0001
0001
0001
,
0010
0001
1000
1001
,
0010
1000
0001
1001
,
0010
0001
0010
0110
,
1001
0110
1001
0110
,
0001
0100
0010
1000
,
0001
0010
0100
1000
,
0001
1000
0100
0000
,
1000
0000
0001
0000
,
1000
0100
0010
0100
,
1000
0010
0100
0001
,
1000
0001
0100
0000
,
0010
1000
0001
0100
,
0110
1001
0110
0000
,
0000
0000
0000
0000
,
1010
1001
0101
0000
,
0000
0000
0000
0000
,
0001
0010
1000
0100
,
0001
0010
1000
0100
,
0001
0010
1000
0100
,
0001
0010
1000
0100
,
0110
0000
1001
0000
,
0110
0000
1001
0000
,
0220
0000
0000
0330
,
0100
0100
0100
0000
,
0001
0010
1000
0001
,
1000
1000
1000
0010
,
0100
1000
0100
0001
,
1000
1000
0100
0100
,
0010
0001
0010
0100
,
1000
1000
1000
0010
,
0001
1000
0001
0000
,
1000
0000
0001
0000
,
1000
0010
0001
1000
,
0001
0001
0001
0010
,
0100
0001
0100
1000
,
0001
0001
0100
0100
,
0010
1000
0010
0100
,
0001
0001
0001
0010
,
1000
1000
0001
0000
,
1000
0000
0010
0000
,
0100
0000
0001
0000
,
0010
1001
0100
1001
,
0010
1001
0100
1001
,
1000
1010
0001
0011
,
1000
1100
0001
0101
,
0010
0000
1000
0000
,
0100
0000
0001
0000
,
0010
0001
0100
1000
,
0010
0001
0100
1000
,
0002
0000
0023
0000
,
0230
0000
2300
0000
,
3010
0000
0100
0000
,
1001
0110
1001
0000
,
0000
0000
0000
0000
;

//---------------dance-single - ----------------
#NOTES:
     dance-single:
     :
     Medium:
     11:
     0.566657,0.924707,0.390306,0.054461,0.639920,437.000000,394.000000,43.000000,6.000000,0.000000,0.000000,0.566657,0.924707,0.390306,0.054461,0.639920,437.000000,394.000000,43.000000,6.000000,0.000000,0.000000:
0000
0000
0000
0000
,
0000
0000
0000
0000
,
0000
0000
0000
0000
,
0000
0000
0000
0000
,
0000
0000
0000
0000
,
0010
0000
0000
1000
0000
0000
0010
0000
0010
0100
0000
0000
,
0010
0000
0000
0001
0000
0000
0010
0000
0010
0100
0000
0000
,
0010
0000
0000
1000
0000
0000
0010
0000
0010
0100
0000
0000
,
0010
0000
0000
0000
,
0100
1001
0010
1001
,
0100
0000
0000
1001
0000
0010
0000
0000
0010
1000
0000
0000
,
0100
1001
0010
1001
,
0001
0001
0001
1000
1000
1000
,
0001
0110
1000
0110
,
0001
0000
0000
0110
0000
1000
0000
0000
1000
0100
0000
0000
,
0001
0110
1000
0110
,
0001
0100
0010
1000
,
0001
0000
0001
1000
0000
1000
0010
0000
0010
1000
0000
0000
,
0001
0000
0001
1000
0000
1000
0100
0000
0100
1000
0000
0000
,
0001
0000
0001
1000
0000
1000
0010
0000
0010
0100
0000
0000
,
0001
0000
0010
0001
0000
1000
0001
0000
0100
0001
0000
0000
,
0010
0000
0000
0001
1000
0001
1000
0000
0000
1001
0000
0000
,
0010
0000
0000
1000
0010
1000
0010
0000
0000
0101
0000
0000
,
0010
0000
0000
0001
0010
0001
0010
0000
0000
1100
0000
0000
,
0001
0010
0100
1000
,
1000
0000
1000
0001
0000
0001
0010
0000
0010
0001
0000
0000
,
1000
0000
1000
0001
0000
0001
0100
0000
0100
0001
0000
0000
,
1000
0000
1000
0001
0000
0001
0010
0000
0010
0100
0000
0000
,
1000
0000
0010
1000
0000
0001
1000
0000
0100
1000
0000
0000
,
0010
0000
0000
1000
0001
1000
0001
0000
0000
1001
0000
0000
,
0010
0000
0000
0001
0010
0001
0010
0000
0000
1100
0000
0000
,
0010
0000
0000
1000
0010
1000
0010
0000
0000
0101
0000
0000
,
0010
1100
0010
0101
,
1000
0000
0000
0100
0000
0100
0010
0000
0000
0001
0000
0001
,
1000
0000
0000
0010
0000
0010
0100
0000
0000
0001
0000
0001
,
1000
0001
0100
0000
,
0001
0010
1000
0001
0100
1000
,
0001
0000
0000
0100
0000
0100
0010
0000
0000
0100
0000
0100
,
0001
0000
0000
0010
0000
0010
0100
0000
0000
1000
0000
1000
,
0001
1000
0100
0000
,
0011
0000
0000
1001
0000
0000
0100
0000
0010
0000
0001
0000
,
1000
0001
1001
0000
,
0000
0000
0000
0000
,
0010
0001
1100
0000
,
0000
0000
0000
0000
,
1000
0010
0001
0100
,
1000
0010
0001
0100
,
1000
0010
0001
0100
,
1000
0000
0000
0010
0000
0000
0100
0000
0100
0000
0100
0000
,
0010
0000
1001
0000
,
0110
0000
1001
0000
,
0220
0000
0000
0330
,
0100
0100
0100
0000
,
1001
0000
0000
0010
0000
0010
0001
0000
0001
1000
0000
0000
,
0001
0000
1000
0001
0000
0010
0001
0000
0000
0010
0000
0000
,
0100
0000
0010
0001
0000
0000
0100
0000
0010
1000
0000
0000
,
0001
0000
1000
0001
0000
0000
0100
0000
0100
0000
0100
0000
,
0010
0000
0000
1000
0000
1000
0010
0000
0010
0100
0000
0000
,
0001
0000
1000
0001
0000
0100
0001
0000
0000
0010
0000
0000
,
1000
0010
0001
1000
0000
0000
,
0001
0001
0001
1000
1000
1000
,
1001
0000
0000
0010
0000
0010
1000
0000
1000
0001
0000
0000
,
1000
0000
0001
1000
0000
0010
1000
0000
0000
0010
0000
0000
,
0100
0000
0010
1000
0000
0000
0100
0000
0010
0001
0000
0000
,
1000
0000
0001
1000
0000
0000
0100
0000
0100
0000
0100
0000
,
0010
0000
0000
0001
0000
0001
0010
0000
0010
0100
0000
0000
,
1000
0000
0001
1000
0000
0100
1000
0000
0000
0010
0000
0000
,
0001
0010
1000
0001
0000
0000
,
1000
1000
1000
0001
0001
0001
,
0010
0000
0010
0000
0010
0000
0100
0010
0100
0010
0000
0000
,
1000
0001
1000
0001
0000
0000
1000
0100
1000
0100
0000
0000
,
0001
0100
0001
0100
0000
0000
0010
0100
0010
0100
0000
0000
,
0001
0010
0001
0010
0000
0000
1000
0010
1000
0010
0000
0000
,
0100
0010
0100
0010
0000
0000
0001
1000
0001
1000
0000
0000
,
0010
1000
0100
0001
0010
1000
,
0100
0001
0010
1000
0100
0001
,
1010
1010
1010
1100
1100
1100
,
0101
0101
0101
0011
0011
0011
,
2000
0000
3020
0000
,
0230
0000
0302
0000
,
1003
0001
1000
0001
0000
0000
0010
0100
0010
0100
0000
0000
,
1001
0110
1001
0000
,
0000
0000
0000
0000
;

//---------------dance-single - ----------------
#NOTES:
     dance-single:
     :
     Hard:
     16:
     0.780612,0.924707,0.481075,0.054461,1.293456,602.000000,549.000000,53.000000,6.000000,0.000000,0.000000,0.780612,0.924707,0.481075,0.054461,1.293456,602.000000,549.000000,53.000000,6.000000,0.000000,0.000000:
// measure 0
0000
0000
0000
0000
,  // measure 1
0000
0000
0000
0000
,  // measure 2
0000
0000
0000
0000
,  // measure 3
0000
0000
0000
0000
,  // measure 4
0000
0000
0000
0000
,  // measure 5
0010
0000
0001
0010
0000
0001
0010
0100
1000
0001
0000
1000
,  // measure 6
0010
0000
1000
0010
0000
1000
0010
0100
0001
1000
0000
0001
,  // measure 7
1000
0000
0001
1000
0000
0001
1000
0100
0010
0001
0000
0100
,  // measure 8
0010
0000
0000
0000
,  // measure 9
0100
0000
0100
1001
0000
0000
0010
0000
0010
1001
0000
0000
,  // measure 10
0100
0000
0100
1001
0000
0010
0000
0000
0010
1001
0000
0000
,  // measure 11
0100
0000
0100
1001
0000
0000
0010
0000
0010
1001
0000
0000
,  // measure 12
1000
0010
1000
0001
0010
0001
1000
0100
1000
0001
0100
0001
,  // measure 13
1000
0000
1000
0110
0000
0000
0001
0000
0001
0110
0000
0000
,  // measure 14
1000
0000
1000
0110
0000
0001
0000
0000
0001
0110
0000
0000
,  // measure 15
1000
0000
1000
0110
0000
0000
0001
0000
0001
0110
0000
0000
,  // measure 16
1000
0100
0010
0100
0010
0001
1000
0010
0100
0010
0100
0001
,  // measure 17
1000
0000
1000
0001
0000
0001
1000
0100
0010
0001
0000
0001
,  // measure 18
1000
0000
1000
0001
0000
0001
1000
0010
0100
0001
0000
0001
,  // measure 19
1000
0000
1000
0001
0000
0001
1000
0100
0010
0001
0000
0001
,  // measure 20
1000
0000
0010
1000
0000
0001
1000
0000
0100
1000
0000
0001
,  // measure 21
0010
0000
0010
0001
0100
1000
0100
0000
0001
1000
0000
0000
,  // measure 22
0010
0000
0010
1000
0100
0001
0100
0000
1000
0001
0000
0000
,  // measure 23
0010
0000
0010
0001
0010
1000
0010
0000
0001
1000
0000
0000
,  // measure 24
0010
1000
0010
0100
0001
0100
0001
0010
0001
1000
0100
1000
,  // measure 25
0001
0000
0001
1000
0000
1000
0001
0100
0010
1000
0000
1000
,  // measure 26
0001
0000
0001
1000
0000
1000
0001
0010
0100
1000
0000
1000
,  // measure 27
0001
0000
0001
1000
0000
1000
0001
0100
0010
1000
0000
1000
,  // measure 28
0001
0100
0010
1000
0100
0010
0001
0100
0010
1000
0000
0000
,  // measure 29
0010
0000
0010
1000
0100
0001
0100
0000
1000
0001
0000
0000
,  // measure 30
0010
0000
0010
0001
0100
1000
0100
0000
0001
1000
0000
0000
,  // measure 31
0010
0000
0010
1000
0010
0001
0010
0000
1000
0001
0000
0000
,  // measure 32
0011
0100
1001
0100
,  // measure 33
0001
0100
0001
0100
0010
1000
0001
1000
0001
1000
0100
0010
,  // measure 34
0001
1000
0001
0100
0010
1000
0100
0010
0100
0010
0001
1000
,  // measure 35
0001
0010
0100
0000
,  // measure 36
1000
0000
0010
0000
0001
0000
1000
0000
0100
0000
0001
0000
,  // measure 37
1000
0100
1000
0001
0100
1000
0100
0010
0100
0010
1000
0001
,  // measure 38
0010
0100
0010
0001
0010
1000
0010
0100
0010
0001
1000
0001
,  // measure 39
0100
0010
0100
0000
,  // measure 40
1010
0000
0000
1001
0000
0000
0100
0000
0010
0000
1000
0000
,  // measure 41
0001
1000
1001
0000
,  // measure 42
0000
0000
0000
0000
,  // measure 43
0010
1000
0101
0000
,  // measure 44
0000
0000
0000
0000
,  // measure 45
0001
0000
1000
0010
0000
0100
0001
0000
1000
0100
0000
0010
,  // measure 46
0001
0000
1000
0010
0000
0100
0001
0000
1000
0100
0000
0001
,  // measure 47
0100
0000
1000
0010
0000
0001
0010
0000
0100
0010
0000
0001
,  // measure 48
1000
0000
0010
1000
0000
0001
0100
0000
0100
0000
0100
0000
,  // measure 49
0110
0000
1001
0000
,  // measure 50
0110
0000
1001
0000
,  // measure 51
0220
0000
0000
0330
,  // measure 52
0100
0100
0100
0000
,  // measure 53
1001
0000
0000
0010
0000
0010
1000
0100
0010
0001
0000
1000
,  // measure 54
0001
0000
0100
0001
0000
1000
0001
0000
0000
0010
0000
0000
,  // measure 55
0001
0100
0010
1000
0100
0010
0001
0000
0001
0100
0000
0100
,  // measure 56
0010
0000
1000
0010
0000
0100
0010
0000
0001
0000
0100
0000
,  // measure 57
0110
0000
0000
1000
0000
0100
1000
0100
0010
0001
0000
1000
,  // measure 58
0010
0000
1000
0001
0000
1000
0100
0000
0000
0110
0000
0000
,  // measure 59
0001
0000
0010
0000
1000
0000
0001
0000
0000
0000
0000
0000
,  // measure 60
0010
0100
0010
0001
0100
1000
0100
0010
0100
0001
0010
1000
,  // measure 61
0010
0000
0000
0010
0000
0010
0001
0100
0010
1000
0000
0001
,  // measure 62
1000
0000
0100
1000
0000
0001
1000
0000
0000
0010
0000
0000
,  // measure 63
1000
0100
0010
0001
0100
0010
1000
0000
1000
0100
0000
0100
,  // measure 64
0010
0000
0001
0010
0000
0100
0010
0000
1000
0000
0100
0000
,  // measure 65
0110
0000
0000
0001
0000
0100
0001
0100
0010
1000
0000
0001
,  // measure 66
0010
0000
0001
1000
0000
0001
0100
0000
0000
0110
0000
0000
,  // measure 67
1000
0000
0010
0000
0001
0000
1000
0000
0000
0000
0000
0000
,  // measure 68
0010
0100
0010
1000
0100
0001
0100
0010
0100
1000
0010
0001
,  // measure 69
1000
0100
0001
1000
0100
0001
0100
0010
0001
1000
0000
0000
,  // measure 70
0001
0010
0100
0110
0000
0000
1000
0010
0100
0110
0000
0000
,  // measure 71
0001
0010
0100
0110
0000
0000
1000
0010
0100
0110
0000
0000
,  // measure 72
0001
0010
0100
1100
0000
0000
1000
0010
0100
0101
0000
0000
,  // measure 73
0001
0010
0100
1100
0000
0000
1000
0010
0100
0101
0000
0000
,  // measure 74
0011
0000
0101
0000
1100
0000
1010
0000
0011
0000
0101
0000
,  // measure 75
1100
0000
1010
0000
0011
0000
0101
0000
1100
0000
1010
0000
,  // measure 76
0100
0010
0001
0100
0010
1000
0100
0010
0001
0100
0010
1000
,  // measure 77
0001
0010
1000
0001
0100
1000
0001
0010
1000
0001
0100
1000
,  // measure 78
0002
0000
0023
0000
,  // measure 79
0230
0000
2300
0000
,  // measure 80
3001
0010
1000
1001
0000
0000
1000
0010
0001
1001
0000
0000
,  // measure 81
0110
1001
0110
0000
;

//---------------dance-double - ----------------
#NOTES:
     dance-double:
     :
     Easy:
     8:
     0.385119,0.517836,0.363075,0.072615,0.000000,297.000000,257.000000,40.000000,8.000000,0.000000,0.000000,0.385119,0.517836,0.363075,0.072615,0.000000,297.000000,257.000000,40.000000,8.000000,0.000000,0.000000:
00000000
00000000
00000000
00000000
,
00000000
00000000
00000000
00000000
,
00000000
00000000
00000000
00000000
,
00000000
00000000
00000000
00000000
,
00000000
00000000
00000000
00000000
,
10000000
00010000
01000000
00100000
,
00010000
00001000
00010000
00001000
,
00000100
00000001
00001000
00000001
,
00000010
00000000
00000000
00000000
,
00001000
00011000
00010000
00011000
,
00001000
01000000
00100000
10000000
,
00100000
10010000
01000000
10010000
,
10000000
01000000
00100000
00010000
,
00001000
00011000
00010000
00011000
,
00001000
00000100
00000010
00001000
,
00000100
00001001
00000010
00001001
,
00010000
00010000
00010000
00010000
,
01000000
10000000
00100000
01000000
,
00001000
00010000
00000100
00001000
,
00000010
00000100
00000001
00000010
,
00001000
00010000
01000000
00100000
,
01000000
10000000
00010000
00110000
,
00001000
00010000
00001000
00011000
,
00000100
00001000
00000001
00000110
,
00000001
00000010
00000100
00001000
,
00010000
00100000
01000000
00100000
,
01000000
10000000
00100000
01000000
,
00001000
00010000
00000010
00001000
,
00000001
00000010
00000100
00001000
,
00000001
00001000
00000001
00001010
,
00010000
00001000
00010000
01010000
,
00100000
01000000
10000000
01100000
,
01000000
10000000
00100000
00010000
,
00002000
00010000
00000100
00003100
,
00000001
00000010
00000100
00001000
,
00000010
00010000
00001000
00000000
,
00010000
00000000
00001000
00000000
,
00200000
00010000
01000000
01300000
,
00100000
00001000
00010000
00000100
,
00001000
00000010
00000100
00000000
,
00000101
00000101
00001100
00001100
,
00010000
00001000
00011000
00000000
,
00000000
00000000
00000000
00000000
,
00100000
01000000
01010000
00000000
,
00000000
00000000
00000000
00000000
,
01000000
10000000
00100000
00010000
,
00001000
00000010
00000001
00000100
,
00001000
00010000
01000000
10000000
,
00100000
00010000
00001000
00010000
,
00011000
00000000
00001100
00000000
,
00000011
00000000
00000101
00000000
,
00002020
00000000
00000000
00003030
,
00010000
00010000
00010000
00000000
,
00001000
00010000
00100000
00010000
,
00001000
00000100
00000100
00000010
,
00000001
00000100
00001000
00010000
,
00100000
00100000
01000000
00000000
,
00100000
10000000
01000000
00010000
,
00001000
00010000
00001000
00010000
,
00000100
00000000
00000010
00000000
,
00000001
00000000
00000100
00000000
,
00000010
00001000
00010000
01000000
,
00100000
00100000
01000000
00100000
,
10000000
01000000
00010000
01000000
,
00010000
00001000
00000100
00000000
,
00000010
00001000
00000001
00000100
,
00000010
00001000
00000010
00000100
,
00000010
00010000
00001000
00000000
,
00101000
00000000
00011000
00000000
,
00010010
00000000
00011000
00000000
,
00000010
00011000
00100000
00011000
,
00000010
00011000
00100000
00011000
,
00000100
00011000
01000000
00011000
,
00000100
00011000
01000000
00011000
,
00100000
00000000
10000000
00000000
,
01000000
00000000
00010000
00000000
,
00001000
00000000
00000100
00000000
,
00000001
00000000
00000010
00000000
,
00000200
00000000
00000320
00000000
,
00000032
00000000
00000203
00000000
,
00000310
00000000
00001000
00000000
,
00001010
00011000
00110000
00000000
,
00000000
00000000
00000000
00000000
;

//---------------dance-double - ----------------
#NOTES:
     dance-double:
     :
     Medium:
     11:
     0.531646,0.628801,0.181538,0.054461,0.589997,410.000000,390.000000,20.000000,6.000000,0.000000,0.000000,0.531646,0.628801,0.181538,0.054461,0.589997,410.000000,390.000000,20.000000,6.000000,0.000000,0.000000:
00000000
00000000
00000000
00000000
,
00000000
00000000
00000000
00000000
,
00000000
00000000
00000000
00000000
,
00000000
00000000
00000000
00000000
,
00000000
00000000
00000000
00000000
,
00100000
00000000
00000000
00010000
00000000
00000000
00100000
00000000
00100000
01000000
00000000
00000000
,
00010000
00000000
00000000
00001000
00000000
00000000
00010000
00000000
00010000
00001000
00000000
00000000
,
00000010
00000000
00000000
00000001
00000000
00000000
00001000
00000000
00001000
00000001
00000000
00000000
,
00000100
00000000
00000000
00000000
,
00001000
00010000
00100000
00010000
,
00001000
00000000
00000000
00100000
00000000
01000000
00000000
00000000
01000000
00100000
00000000
00000000
,
10000000
01000000
00100000
00010000
,
00001000
00000100
00000010
00000001
,
00001000
00000001
00000010
00001000
,
00010000
00000000
00000000
00100000
00000000
00010000
00000000
00000000
00010000
00001000
00000000
00000000
,
00000010
00000001
00000100
00001000
,
00010000
00000000
00001000
00010000
00000000
00001000
00010000
00000000
00001000
00010000
00000000
00000000
,
00100000
00000000
00100000
10000000
00000000
10000000
01000000
00000000
01000000
00100000
00000000
00000000
,
00001000
00000000
00001000
00010000
00000000
00010000
00000010
00000000
00000010
00001000
00000000
00000000
,
00000100
00000000
00000100
00000010
00000000
00000010
00000001
00000000
00000001
00000100
00000000
00000000
,
00001000
00000000
00001000
00010000
00000000
00010000
00100000
00000000
00100000
01000000
00000000
00000000
,
00100000
00000000
00000000
10000000
00010000
10000000
00010000
00000000
00000000
01010000
00000000
00000000
,
00001000
00000000
00000000
00010000
00001000
00010000
00001000
00000000
00000000
00011000
00000000
00000000
,
00000010
00000000
00000000
00001000
00000001
00001000
00000001
00000000
00000000
00000110
00000000
00000000
,
00000001
00000100
00000010
00001000
,
00010000
00000000
00010000
01000000
00000000
01000000
00100000
00000000
00100000
01000000
00000000
00000000
,
00100000
00000000
00100000
10000000
00000000
10000000
01000000
00000000
01000000
00100000
00000000
00000000
,
00001000
00000000
00001000
00010000
00000000
00010000
00000100
00000000
00000100
00001000
00000000
00000000
,
00000001
00000000
00000001
00000100
00000000
00000100
00000010
00000000
00000010
00001000
00000000
00000000
,
00000001
00000000
00000000
00001000
00000001
00001000
00000001
00000000
00000000
00001100
00000000
00000000
,
00010000
00000000
00000000
00001000
00010000
00001000
00010000
00000000
00000000
00110000
00000000
00000000
,
01000000
00000000
00000000
00100000
10000000
00100000
10000000
00000000
00000000
01100000
00000000
00000000
,
00100000
10000000
01000000
00010000
,
00001000
00000000
00000000
00010000
00000000
00010000
00001000
00000000
00000000
00000010
00000000
00000010
,
00000001
00000000
00000000
00000100
00000000
00000100
00000010
00000000
00000000
00001000
00000000
00001000
,
00000100
00010000
00001000
00000000
,
00000010
00001000
00010000
01000000
10000000
00010000
,
01000000
00000000
00000000
00100000
00000000
00100000
10000000
00000000
00000000
00010000
00000000
00010000
,
01000000
00000000
00000000
00001000
00000000
00001000
00010000
00000000
00000000
00000010
00000000
00000010
,
00001000
00000100
00000010
00000000
,
00000011
00000000
00000000
00001010
00000000
00000000
00000001
00000000
00000100
00000000
00001000
00000000
,
00010000
00001000
00011000
00000000
,
00000000
00000000
00000000
00000000
,
00100000
00010000
11000000
00000000
,
00000000
00000000
00000000
00000000
,
00100000
10000000
01000000
00010000
,
00001000
00000100
00000001
00000010
,
00001000
00010000
00100000
10000000
,
01000000
00000000
00000000
00010000
00000000
00000000
00001000
00000000
00010000
00000000
00001000
00000000
,
00011000
00000000
00001010
00000000
,
00000101
00000000
00000011
00000000
,
00002200
00000000
00000000
00003300
,
00010000
00010000
00010000
00000000
,
00011000
00000000
00000000
00100000
00000000
00010000
10000000
00000000
00010000
01000000
00000000
00000000
,
00001000
00000000
00010000
00000010
00000000
00001000
00000010
00000000
00000000
00000100
00000000
00000000
,
00000001
00000000
00000100
00000010
00000000
00000000
00001000
00000000
00000100
00000010
00000000
00000000
,
00001000
00000000
00010000
00001000
00000000
00000000
00100000
00000000
00010000
00000000
00100000
00000000
,
01000000
00000000
00000000
10000000
00000000
00010000
01000000
00000000
00100000
10000000
00000000
00000000
,
01000000
00000000
00100000
00010000
00000000
00100000
01000000
00000000
00000000
00100000
00000000
00000000
,
01000000
00010000
00001000
00000100
00000000
00000000
,
00000001
00000010
00000100
00001000
,
00011000
00000000
00000000
00000010
00000000
00001000
00000001
00000000
00001000
00000100
00000000
00000000
,
00010000
00000000
00001000
00100000
00000000
00010000
00100000
00000000
00000000
01000000
00000000
00000000
,
10000000
00000000
01000000
00100000
00000000
00000000
00010000
00000000
01000000
00100000
00000000
00000000
,
00010000
00000000
00001000
00010000
00000000
00000000
00000010
00000000
00001000
00000000
00000010
00000000
,
00000100
00000000
00000000
00000001
00000000
00001000
00000100
00000000
00000010
00000001
00000000
00000000
,
00000100
00000000
00000010
00001000
00000000
00000010
00000100
00000000
00000000
00000010
00000000
00000000
,
00000100
00001000
00010000
01000000
00000000
00000000
,
10000000
00100000
01000000
00010000
,
00100000
00000000
00000000
00100000
00000000
00000000
00001000
00010000
00001000
00010000
00000000
00000000
,
00000010
00001000
00000010
00001000
00000000
00000000
00010000
00001000
00010000
00001000
00000000
00000000
,
00100000
00010000
00100000
00010000
00000000
00000000
00001000
00010000
00001000
00010000
00000000
00000000
,
00000100
00001000
00000100
00001000
00000000
00000000
00010000
00001000
00010000
00001000
00000000
00000000
,
00100000
00010000
00100000
00010000
00000000
00000000
10000000
00010000
10000000
00010000
00000000
00000000
,
00100000
10000000
01000000
00010000
00001000
00000100
,
00000001
00000010
00001000
00010000
00100000
10000000
,
01000000
00010000
00001000
00000100
00000001
00000010
,
00001000
00010000
00100000
10000000
01000000
00010000
,
00002000
00000000
00023000
00000000
,
00030020
00000000
00000230
00000000
,
00001300
00000100
00000001
00000010
00000000
00000000
00000100
00000010
00000001
00001000
00000000
00000000
,
00000011
00001100
00011000
00000000
,
00000000
00000000
00000000
00000000
;

//---------------dance-double - ----------------
#NOTES:
     dance-double:
     :
     Hard:
     16:
     0.754678,0.924707,0.299537,0.054461,1.293456,582.000000,549.000000,33.000000,6.000000,0.000000,0.000000,0.754678,0.924707,0.299537,0.054461,1.293456,582.000000,549.000000,33.000000,6.000000,0.000000,0.000000:
00000000
00000000
00000000
00000000
,
00000000
00000000
00000000
00000000
,
00000000
00000000
00000000
00000000
,
00000000
00000000
00000000
00000000
,
00000000
00000000
00000000
00000000
,
00000010
00000000
00001000
00000010
00000000
00001000
00000010
00000100
00001000
00010000
00000000
00001000
,
00010000
00000000
00001000
00010000
00000000
00001000
00010000
00100000
10000000
00010000
00000000
00100000
,
00010000
00000000
00100000
00010000
00000000
00100000
00010000
10000000
01000000
00100000
00000000
00001000
,
00010000
00000000
00000000
00000000
,
00001000
00000000
00001000
00000100
00000000
00000000
00000010
00000000
00000010
00000100
00000000
00000000
,
00000001
00000000
00000001
00000010
00000000
00001000
00000000
00000000
00010000
00001000
00000000
00000000
,
00010000
00000000
00010000
01000000
00000000
00000000
00100000
00000000
00100000
01000000
00000000
00000000
,
10000000
01000000
00100000
01000000
00100000
00010000
00100000
00001000
00010000
00000010
00001000
00000001
,
00000100
00000000
00000100
00000010
00000000
00000000
00000100
00000000
00000100
00000001
00000000
00000000
,
00000010
00000000
00000010
00000100
00000000
00010000
00000000
00000000
00001000
00010000
00000000
00000000
,
00100000
00000000
00100000
01000000
00000000
00000000
00010000
00000000
00010000
01000000
00000000
00000000
,
10000000
01000000
00100000
00010000
01000000
00100000
00010000
00001000
00000100
00000010
00001000
00000100
,
00000010
00000000
00000001
00000010
00000000
00000100
00000010
00000001
00000100
00000010
00000000
00001000
,
00000010
00000000
00010000
00001000
00000000
00100000
00010000
01000000
00100000
10000000
00000000
00010000
,
10000000
00000000
01000000
10000000
00000000
00100000
10000000
01000000
00100000
00010000
00000000
00001000
,
00010000
00000000
00100000
00010000
00000000
00001000
00000100
00000000
00000010
00000001
00000000
00001000
,
00000010
00000000
00000010
00000100
00001000
00010000
00100000
00000000
01000000
00010000
00000000
00000000
,
00100000
00000000
00100000
01000000
00010000
00001000
00000010
00000000
00000100
00001000
00000000
00000000
,
00000010
00000000
00000010
00000100
00001000
00010000
00100000
00000000
01000000
00100000
00000000
00000000
,
10000000
00010000
01000000
00100000
01000000
00001000
00010000
00000010
00001000
00000010
00010000
00001000
,
00010000
00000000
00010000
00000100
00000000
00000100
00000010
00000001
00000010
00000100
00000000
00010000
,
00001000
00000000
00001000
01000000
00000000
01000000
00100000
10000000
00100000
01000000
00000000
00001000
,
00010000
00000000
00010000
00000010
00000000
00000010
00000100
00000001
00000100
00000010
00000000
00001000
,
00000100
00000010
00001000
00010000
01000000
10000000
00010000
01000000
00100000
10000000
00000000
00000000
,
00100000
00000000
00100000
10000000
00100000
01000000
00010000
00000000
00010000
00001000
00000000
00000000
,
00000010
00000000
00000010
00000001
00000010
00000100
00001000
00000000
00001000
00010000
00000000
00000000
,
00100000
00000000
00100000
10000000
00100000
01000000
00010000
00000000
00010000
00001000
00000000
00000000
,
00001010
00000100
00001001
00000100
,
00001000
00000100
00001000
00000001
00000100
00000010
00001000
00000100
00001000
00000010
00001000
00010000
,
01000000
00100000
01000000
00010000
10000000
01000000
00100000
01000000
00100000
00010000
00001000
00000100
,
00000010
00000100
00000010
00000000
,
00000001
00000010
00001000
00010000
01000000
10000000
,
00010000
01000000
00010000
10000000
01000000
00100000
00010000
01000000
00010000
00100000
00010000
00001000
,
00000100
00000010
00000100
00001000
00000001
00000100
00000010
00000100
00000010
00001000
00010000
01000000
,
00100000
01000000
00100000
00000000
,
10100000
00000000
00000000
00110000
00000000
00000000
10000000
00000000
01000000
00000000
00010000
00000000
,
00001000
00010000
00011000
00000000
,
00000000
00000000
00000000
00000000
,
00000010
00001000
00000101
00000000
,
00000000
00000000
00000000
00000000
,
00001000
00000000
00000001
00000010
00000000
00000100
00010000
00000000
00001000
00100000
00000000
00010000
,
10000000
00000000
00100000
01000000
00000000
00001000
00010000
00000000
00000100
00001000
00000000
00000001
,
00000010
00000000
00000100
00001000
00000000
00000010
00010000
00000000
00001000
01000000
00000000
00100000
,
10000000
00000000
01000000
00100000
00000000
00001000
00010000
00000000
00000010
00000000
00000100
00000000
,
00000110
00000000
00000101
00000000
,
00000011
00000000
00001010
00000000
,
00022000
00000000
00000000
00033000
,
00001000
00001000
00001000
00000000
,
00101000
00000000
00000000
00010000
00000000
00010000
01000000
00100000
10000000
01000000
00000000
00100000
,
00010000
00000000
00001000
00000100
00000000
00000010
00000001
00000000
00000000
00000010
00000000
00000000
,
00001000
00000010
00000100
00000010
00000001
00000100
00000010
00000000
00001000
00000100
00000000
00000010
,
00001000
00000000
00010000
00100000
00000000
10000000
00100000
00000000
01000000
00000000
00010000
00000000
,
01010000
00000000
00000000
00100000
00000000
10000000
01000000
00010000
00001000
00000010
00000000
00000010
,
00000001
00000000
00001000
00000001
00000000
00000100
00000001
00000000
00000000
00000110
00000000
00000000
,
00000100
00001000
00010000
01000000
00000000
00000000
,
10000000
00100000
01000000
00010000
00100000
01000000
00010000
00001000
00000010
00000001
00001000
00000010
,
00000100
00000000
00000000
00001000
00000000
00001000
00000100
00000010
00000001
00000100
00000000
00000010
,
00001000
00000000
00010000
01000000
00000000
00100000
10000000
00000000
00000000
00100000
00000000
00000000
,
00010000
00100000
01000000
00100000
10000000
01000000
00100000
00000000
00010000
01000000
00000000
00100000
,
00010000
00000000
00001000
00000010
00000000
00000001
00000010
00000000
00000100
00000000
00001000
00000000
,
00001100
00000000
00000000
00000010
00000000
00000001
00000100
00001000
00010000
00100000
00000000
00100000
,
10000000
00000000
00010000
10000000
00000000
01000000
10000000
00000000
00000000
01100000
00000000
00000000
,
01000000
00010000
00001000
00000100
00000000
00000000
,
00000001
00000010
00000100
00001000
00000010
00000100
00001000
00010000
00100000
01000000
00010000
10000000
,
01000000
00100000
00010000
01000000
00100000
00010000
00001000
00000100
00000010
00001000
00000000
00000000
,
00000001
00000100
00000010
00001000
00000000
00000000
00010000
01000000
00100000
10000000
00000000
00000000
,
10000000
01000000
00100000
00010000
00000000
00000000
00001000
00000100
00000010
00000001
00000000
00000000
,
00000001
00000100
00001000
00010000
00000000
00000000
00000010
00001000
00010000
01000000
00000000
00000000
,
10000000
01000000
00010000
00001000
00000000
00000000
00100000
00010000
00001000
00000100
00000000
00000000
,
00001010
00000011
00000101
00001100
00011000
01010000
,
11000000
10100000
00110000
00011000
00001010
00000011
,
00000010
00000100
00001000
00000010
00000100
00001000
00010000
00100000
01000000
00010000
00100000
01000000
,
10000000
00010000
10000000
01000000
00100000
00010000
01000000
00100000
00010000
00001000
00000100
00000010
,
00002000
00000000
00003020
00000000
,
00000230
00000000
00000302
00000000
,
00000013
00001000
00010000
00011000
00000000
00000000
00010000
00100000
10000000
10010000
00000000
00000000
,
10100000
01100000
01010000
00000000
,
00000000
00000000
00000000
00000000
;

//---------------dance-single - ----------------
#NOTES:
     dance-single:
     :
     Challenge:
     18:
     1.011424,1.261460,0.943996,0.308614,1.729146,780.000000,676.000000,104.000000,34.000000,0.000000,0.000000,1.011424,1.261460,0.943996,0.308614,1.729146,780.000000,676.000000,104.000000,34.000000,0.000000,0.000000:
// measure 0
0000
0000
0000
0000
,  // measure 1
0000
0000
0000
0000
,  // measure 2
0000
0000
0000
0000
,  // measure 3
0000
0000
0000
0000
,  // measure 4
0000
0000
0000
0000
,  // measure 5
1001
0000
0001
1000
0000
1000
0100
0001
0100
1010
0000
0001
,  // measure 6
0010
0000
1000
0010
0000
0001
0010
0100
1000
0010
0000
0100
,  // measure 7
0010
0000
1000
0001
0000
0001
1000
0100
0010
1000
0010
0001
,  // measure 8
1000
0000
1000
0100
0000
0100
0001
0000
0001
0200
0000
0000
,  // measure 9
1300
0000
1000
1010
0000
0000
0101
0000
0100
0110
0000
0000
,  // measure 10
0011
0000
0010
1001
0000
0100
0000
0000
0100
1002
0000
0000
,  // measure 11
0013
0000
0010
1001
0000
0000
0110
0000
0100
1001
0000
0000
,  // measure 12
1000
0100
1000
0000
0001
0000
0010
0000
0001
0000
0100
0000
1000
0100
1000
0000
0100
0000
0001
0010
0001
0000
1000
0000
,  // measure 13
0010
0000
0100
1010
0000
0000
1001
0000
0001
0101
0000
0000
,  // measure 14
1010
0000
1000
1001
0000
0010
0000
0000
1000
0201
0000
0000
,  // measure 15
1300
0000
0010
0101
0000
0000
1001
0000
1000
0110
0000
0000
,  // measure 16
1000
0001
1000
0000
0100
0000
0010
0000
1000
0000
0010
0000
0001
0010
0001
0000
0100
0000
1000
0000
0100
0000
0001
0000
,  // measure 17
0011
0000
0000
0000
0010
0000
0100
0000
0000
0000
1000
0000
0100
0000
0010
0100
0010
0000
0001
0000
0000
0000
0001
0000
,  // measure 18
0010
0000
0010
1000
0000
1000
0010
0001
0100
0010
0000
0100
,  // measure 19
0001
0000
0001
1000
0000
1000
0100
0010
0001
0100
0000
0010
,  // measure 20
1000
0010
0100
1000
0000
0100
0001
0000
0100
0110
0000
0001
,  // measure 21
0010
0000
0100
1000
0100
0010
0001
0000
1000
2001
0000
0000
,  // measure 22
3001
0000
0001
1000
0010
0001
0010
0000
1000
0200
0000
0000
,  // measure 23
0310
0000
0001
0010
1000
0010
0001
0000
0100
2001
0000
0000
,  // measure 24
3010
0000
1000
0000
0010
0000
0100
0000
0001
0000
0100
0000
0001
1000
0001
0000
0010
0000
1000
0000
0010
0001
0010
0000
,  // measure 25
0100
0000
0000
0000
1000
0000
0100
0000
0000
0000
0010
0000
0001
0100
0001
0100
0010
0000
1010
0000
0000
0000
1000
0000
,  // measure 26
0100
0000
0100
0001
0000
0001
0100
1000
0100
0010
0000
0010
,  // measure 27
0001
0000
0000
0000
0001
0000
0100
0000
0000
0000
0100
0000
0001
1000
0001
0000
0010
0000
1000
0000
0010
0000
0001
0000
,  // measure 28
1000
0001
1000
0001
1000
0001
0010
0100
0010
0100
0010
0100
1000
0100
1000
0100
0010
0000
0011
0000
0000
0000
0000
0000
,  // measure 29
0001
0000
0001
1000
0010
0001
0010
0000
1000
1002
0000
0000
,  // measure 30
0103
0000
0100
0001
0010
1000
0010
0000
1000
2001
0000
0000
,  // measure 31
3100
0000
0100
0001
0100
1000
0100
0000
0001
0011
0000
0000
,  // measure 32
1002
0103
2001
3010
,  // measure 33
0001
0100
0001
0000
1000
0000
0100
0010
0100
0000
1000
0000
0001
1000
0001
0000
1000
0000
0100
0000
0010
0000
0001
0000
,  // measure 34
1000
0001
1000
0000
0001
0000
0100
0010
0100
0000
0001
0000
0100
0010
0100
0010
0100
0000
0001
1000
0001
0000
0100
0000
,  // measure 35
1001
0110
2002
3003
,  // measure 36
1010
0000
0100
0000
0010
0000
1001
0000
0010
0000
0100
0000
,  // measure 37
1000
0100
1000
0000
0001
0000
0100
0000
1000
0000
0100
0000
0001
0010
0001
0000
0100
0000
0010
1000
0001
0000
1000
0000
,  // measure 38
0010
0100
0010
0100
0010
0000
1000
0000
0010
0000
0001
0000
1000
0000
0100
0000
0001
0000
1000
0000
0001
0000
0100
0000
,  // measure 39
0010
0000
0100
1010
0000
0000
2002
0000
0000
3003
0000
0000
,  // measure 40
0110
0000
0000
1001
0000
0000
0110
0000
1000
0000
0100
0000
,  // measure 41
0011
0000
0000
0101
0000
0000
1100
0000
0000
1000
0100
0010
,  // measure 42
0001
0010
0001
0000
1000
0000
0010
0000
1000
0000
0100
0000
0010
0100
0010
0000
0001
0000
1000
0000
0000
0000
0000
0000
,  // measure 43
0110
0000
0000
0001
0000
0000
1010
0000
0000
1000
0010
0001
,  // measure 44
0010
1000
0010
0000
0100
0000
0010
0000
0001
0000
0010
0000
0100
1000
0100
0000
0010
0000
0100
0000
0000
0000
0000
0000
,  // measure 45
0001
1000
0001
0000
1000
0000
0100
0000
0010
0000
0001
0000
1000
0010
1000
0000
0100
0000
0001
0000
0100
0000
1000
0000
,  // measure 46
0100
0010
0100
0000
0010
0000
0001
0000
0100
0000
0010
0000
1000
0100
1000
0000
0010
0000
0100
0000
0001
0000
0010
0000
,  // measure 47
0100
0010
0100
0000
0010
0000
0001
0000
1000
0000
0001
0000
0010
0100
0010
0000
0001
0000
1000
0100
1000
0000
0001
0000
,  // measure 48
0010
1000
0010
0000
0001
0000
1000
0010
1000
0000
0010
0000
0101
0000
0000
0000
1000
0000
0000
0000
0100
0000
0000
0000
,  // measure 49
0011
0000
0110
0000
,  // measure 50
1001
0000
0110
0000
,  // measure 51
2002
0000
0000
3003
,  // measure 52
1020
0000
1000
0100
1000
0000
1030
0000
,  // measure 53
1001
0000
0000
0000
0000
0000
0100
0000
0000
0000
0100
0000
0001
0100
0001
0000
1000
0000
1010
0000
0000
0000
0001
0000
,  // measure 54
0101
0000
0100
0110
0000
1000
1002
0000
0000
0013
0000
0000
,  // measure 55
0001
0100
0001
0100
0010
1000
0010
0000
0100
0000
0010
0000
1000
0010
1000
0010
1000
0000
0100
0000
0001
0000
0100
0000
,  // measure 56
0010
0000
0001
0010
0000
1000
0110
0000
0001
0000
0010
0000
,  // measure 57
1020
0000
0000
0000
0000
0000
0031
0000
0000
0000
0100
0000
0010
0001
0010
0000
0001
0000
2000
0000
0000
0000
3001
0000
,  // measure 58
0100
0000
0010
1000
0000
1000
1001
0000
0000
0101
0000
0000
,  // measure 59
0110
0000
1000
0000
0001
0000
0202
0000
0000
0303
0000
0000
,  // measure 60
1000
0010
0100
0010
0001
0010
1000
0010
0100
0010
0001
0010
,  // measure 61
2100
0000
0000
0000
0000
0000
3010
0000
0000
0000
0010
0000
0100
0001
0100
0000
0001
0000
1000
0000
0000
0000
1000
0000
,  // measure 62
0010
0000
0000
0000
0010
0000
0100
0000
0000
0000
0001
1000
0001
0000
0000
0000
0000
0000
1020
0000
0000
0000
0000
0000
,  // measure 63
1030
0100
1000
0100
0010
0000
0001
0000
0100
0000
0001
0000
1000
0000
0000
0000
1000
0000
1100
0000
0000
0000
0100
0000
,  // measure 64
0001
0000
0001
0100
0000
1000
0101
0000
0001
0000
0010
0100
,  // measure 65
1100
0000
0000
0000
0000
0000
1000
0000
0000
0000
0100
0000
0010
0001
0010
0001
1000
0000
0001
0000
0000
0000
0001
0000
,  // measure 66
0100
0000
0100
0010
0000
1000
0101
0000
0000
1020
0000
0000
,  // measure 67
1030
0000
0011
0000
0101
0000
2002
0000
0000
3003
0000
0000
,  // measure 68
0010
0100
0010
0000
1000
0000
0100
0000
0001
0000
0100
0000
1000
0010
1000
0000
0001
0000
0100
0000
0001
0000
1000
0000
,  // measure 69
0001
0100
0001
0000
0010
0000
1000
0000
0010
0000
0001
0000
0100
0010
0100
0000
0001
0000
1000
0000
0000
0000
0000
0000
,  // measure 70
1010
0010
0100
0101
0000
0000
1100
0100
0010
0011
0000
0000
,  // measure 71
0011
0010
1000
1010
0000
0000
1000
0010
0001
0011
0000
0000
,  // measure 72
0001
0100
0010
1100
0000
0000
1000
0010
0100
0011
0000
0000
,  // measure 73
0001
0100
1000
1100
0000
0000
1000
0001
0100
0110
0000
0000
,  // measure 74
0101
0000
0011
0000
1100
0000
1001
0000
1010
0000
1001
0000
,  // measure 75
0101
0000
1010
0000
1001
0000
0101
0000
0110
0000
1010
0000
,  // measure 76
0100
0010
0100
0000
0001
0100
0001
0000
0010
1000
0010
0000
0100
0010
0100
0000
1000
0100
1000
0000
0100
0000
0010
0000
,  // measure 77
0001
0010
0001
0000
0100
0000
0001
0000
0100
1000
0100
0000
0001
0000
0010
0000
0001
1000
0001
0000
0100
0000
0010
0000
,  // measure 78
1002
0000
0023
2030
,  // measure 79
3020
0000
0032
1000
,  // measure 80
1003
0100
0010
0101
0000
0000
1010
0100
0010
0101
0000
0000
,  // measure 81
1001
0110
2002
3003
;
