#TITLE:Triple Counter;
#SUBTITLE:;
#ARTIST:DJ YOSHITAKA meets dj TAKA;
#TITLETRANSLIT:;
#SUBTITLETRANSLIT:;
#ARTISTTRANSLIT:;
#GENRE:;
#CREDIT:;
#BANNER:Triple Counter.png;
#BACKGROUND:Triple Counter-bg.png;
#LYRICSPATH:;
#CDTITLE:./CDTitles/DDR A.png;
#MUSIC:Triple Counter.ogg;
#OFFSET:0.000000;
#SAMPLESTART:86.528000;
#SAMPLELENGTH:15.000000;
#SELECTABLE:YES;
#BPMS:0.000000=216.000000
;
#STOPS:
;
#BGCHANGES:0.000=Triple Counter.avi=1.000=0=0=0=StretchNoLoop====,
99999=-nosongbg-=1.000=0=0=0 // don't automatically add -songbackground-
;
#KEYSOUNDS:;
#ATTACKS:;

//---------------dance-single - ----------------
#NOTES:
     dance-single:
     :
     Beginner:
     7:
     0.321978,0.394183,0.007692,0.084615,0.000000,281.000000,1.000000,11.000000,0.000000,0.000000,0.000000,0.321978,0.394183,0.007692,0.084615,0.000000,281.000000,1.000000,11.000000,0.000000,0.000000,0.000000:
0000
0000
0000
0000
,
0000
0000
0000
0000
,
0000
0000
0000
0000
,
0000
0000
0000
0000
,
0000
0000
0000
0000
,
0000
0000
0000
0000
,
0000
0000
0000
0000
,
0000
0000
0000
0000
,
0000
0000
0000
0000
,
0000
0000
0000
0000
0000
0000
0000
2000
,
0000
0000
0000
0000
,
0000
0000
3000
0000
,
0002
0000
0003
0000
,
0020
0000
0030
0000
,
0002
0000
0003
0000
,
2000
0000
3000
0000
,
0002
0000
0000
0000
,
0003
0000
0000
0000
,
0000
1000
0001
1000
,
0001
1000
0001
0010
,
0000
0001
1000
0001
,
1000
0001
1000
0010
,
0000
0100
0001
0100
,
0001
0100
0001
0010
,
0000
0010
0001
0010
,
0001
0010
0001
0100
,
0000
0010
1000
0001
,
1000
0001
0010
0001
,
0000
0010
0001
1000
,
0001
1000
0010
1000
,
0000
0001
0010
0001
,
1000
0100
1000
0010
,
0100
0001
1000
0100
,
1000
0001
1000
0000
,
0001
0010
0001
0010
,
0100
1000
0100
1000
,
0010
0100
0010
0100
,
0002
0000
0000
0003
,
1000
0100
1000
0100
,
0010
0001
0010
0001
,
1000
0001
1000
0001
,
0100
0001
0010
0000
,
0010
0100
0100
1000
,
1000
0100
0100
0000
,
1000
1000
0010
1000
,
0100
0000
0000
0000
,
0010
0100
1000
0001
,
1000
0001
0010
0000
,
0010
0001
1000
0001
,
1000
0100
0010
0002
,
0000
0000
0000
0000
,
0000
0000
0000
0000
,
0003
0000
0000
0000
,
0000
0000
0000
0000
,
0000
0000
0000
0000
,
0000
0000
0000
0000
,
0000
0000
0000
0000
,
1000
0000
0010
1000
,
0000
0001
1000
0001
,
0000
0100
0010
0100
,
0000
0001
0100
0010
,
0000
1000
0001
0010
,
0100
0000
1000
0000
,
0001
0000
0100
0000
,
0001
1000
0001
0010
,
0001
1000
0001
1000
,
0000
1000
0001
1000
,
0000
0100
0010
0100
,
0000
1000
0100
0010
,
0000
0001
1000
0000
,
0000
1000
0001
0000
,
0000
0000
0000
0000
,
0000
1000
0001
0000
,
0000
0000
0000
0000
,
1001
0000
0010
0100
,
0001
0100
0001
0100
,
0002
0000
0000
0003
,
0000
0000
0000
0000
,
0000
0010
1000
0010
,
0100
0001
0100
0001
,
0010
0100
0010
0100
,
2000
0000
0000
3000
,
0001
0100
0001
0100
,
0010
1000
0010
1000
,
0001
1000
0001
1000
,
0100
1000
0010
0000
,
0010
0100
0100
0001
,
0001
0100
0100
0000
,
0001
0001
0010
0001
,
0100
0000
0000
0000
,
0010
0100
0001
1000
,
0001
1000
0010
0100
,
0001
1000
0010
1000
,
0001
0100
0001
0000
,
0100
1000
0100
0001
,
0100
1000
0100
0001
,
1000
0100
0010
0001
,
1000
1000
1000
0000
,
1000
0001
0010
1000
,
0010
0001
0010
0001
,
1000
0100
1000
0010
,
0100
0001
1000
0000
,
1000
0001
0001
0000
,
0001
1000
0010
0100
,
0010
1000
0001
1000
,
0100
0000
0001
0100
,
1000
0001
0100
1000
,
1000
0100
0001
1000
,
0100
0001
0100
1000
,
0001
1000
0010
2000
,
0000
0000
0000
0000
,
0000
0000
0000
0000
,
0000
0000
0000
0000
,
0000
0000
0000
0000
0000
0000
0000
3000
;

//---------------dance-single - ----------------
#NOTES:
     dance-single:
     :
     Easy:
     11:
     0.440659,0.525577,0.115385,0.084615,0.000000,375.000000,15.000000,11.000000,0.000000,0.000000,0.000000,0.440659,0.525577,0.115385,0.084615,0.000000,375.000000,15.000000,11.000000,0.000000,0.000000,0.000000:
// measure 0
0000
0000
0000
0000
,  // measure 1
0000
0000
0000
0000
,  // measure 2
0000
0000
0000
0000
,  // measure 3
0000
0000
0000
0000
,  // measure 4
0000
0000
0000
0000
,  // measure 5
0000
0000
0000
0000
,  // measure 6
0000
0000
0000
0000
,  // measure 7
0000
0000
0000
0000
,  // measure 8
0000
0000
0000
0000
,  // measure 9
0000
0000
0000
0000
0000
0000
0000
2000
,  // measure 10
0000
0000
0000
0000
,  // measure 11
0001
0000
3000
0000
,  // measure 12
0002
0000
0000
0000
,  // measure 13
0010
0000
0003
0000
,  // measure 14
0002
0000
0013
0000
,  // measure 15
2000
0000
3010
0000
,  // measure 16
0002
0000
0000
0000
,  // measure 17
0003
0000
0000
0000
0000
0000
0000
1000
,  // measure 18
0000
0010
1000
0100
,  // measure 19
1000
0001
1000
0001
0000
1000
0000
0001
,  // measure 20
0000
0010
0001
0100
,  // measure 21
0001
1000
0001
1000
0000
0001
0000
1000
,  // measure 22
0000
0010
1000
0010
,  // measure 23
0100
0010
0100
0010
0000
1000
0000
0001
,  // measure 24
0000
0010
0001
0010
,  // measure 25
0100
0010
0000
0001
0000
1000
0001
1000
,  // measure 26
0000
0010
0100
0001
,  // measure 27
1000
0100
1000
0100
0000
0010
0000
0001
,  // measure 28
0000
0010
0100
1000
,  // measure 29
0010
0100
0010
0000
1000
0000
0010
1000
,  // measure 30
0000
0001
0010
0001
,  // measure 31
1000
0001
0010
0000
0100
0010
0001
1000
,  // measure 32
0000
1000
0001
0000
1000
0000
0100
0000
,  // measure 33
0010
0001
0010
0000
0100
0000
1000
0001
,  // measure 34
0000
0000
0010
0000
0001
1000
0001
1000
,  // measure 35
0000
0000
0001
0000
0100
0010
0100
0010
,  // measure 36
0000
0000
1000
0000
0010
0100
0010
0100
,  // measure 37
0002
0000
0000
0000
1000
0000
0000
0013
,  // measure 38
0000
0000
0100
0000
1000
0001
1000
0100
,  // measure 39
0000
0000
1000
0000
0001
1000
0001
1000
,  // measure 40
0000
0000
0001
0000
1000
0001
0100
0001
,  // measure 41
0000
0000
0001
0000
0010
0001
0010
0001
,  // measure 42
0000
0100
0001
0100
0000
0010
0100
0010
,  // measure 43
0000
0100
0001
0100
0000
0001
0000
0100
,  // measure 44
0000
0000
0001
0000
1000
0001
1000
0001
,  // measure 45
0200
0000
0300
0000
0001
0000
0001
0010
,  // measure 46
0000
0000
0100
0000
1000
0001
1000
0001
,  // measure 47
0000
0000
0001
0000
0010
0000
0100
0010
,  // measure 48
0001
0010
0001
0000
1000
0001
1000
0000
,  // measure 49
0001
0000
0100
0010
0000
0010
0000
2000
,  // measure 50
0000
0000
0000
0000
,  // measure 51
0000
0000
0000
0000
0000
0000
0000
3000
,  // measure 52
0000
0000
0000
0000
,  // measure 53
0000
0000
0000
0000
,  // measure 54
0000
0000
0000
0000
,  // measure 55
0000
0000
0000
0000
,  // measure 56
0000
0000
0000
0000
,  // measure 57
1000
0000
0010
1000
,  // measure 58
1000
0001
1000
1001
,  // measure 59
0010
0100
0010
0110
,  // measure 60
1000
0001
0100
0110
,  // measure 61
0001
1000
0001
0010
,  // measure 62
0100
1000
0100
0010
,  // measure 63
0001
0010
0100
1000
,  // measure 64
1001
0000
0000
0100
0000
0000
0010
0000
,  // measure 65
0000
1000
0000
0000
0001
0000
1001
0000
,  // measure 66
0000
1000
0001
1001
,  // measure 67
0010
0100
0010
0110
,  // measure 68
0001
1000
0100
0110
,  // measure 69
1000
0001
1000
0000
,  // measure 70
0000
0110
0110
0000
,  // measure 71
0000
0000
0000
0000
,  // measure 72
0000
1010
1010
0000
,  // measure 73
0000
0000
0000
0000
,  // measure 74
1001
0000
0010
0100
,  // measure 75
0001
0100
1000
0100
,  // measure 76
0001
0000
0000
0001
0000
0000
0001
0000
,  // measure 77
0000
0000
0000
0000
0000
0000
0000
1000
,  // measure 78
0000
0000
0010
0000
1000
0001
1000
0001
,  // measure 79
0000
0000
1000
0000
0100
0010
0100
0010
,  // measure 80
0000
0000
0001
0000
0010
0100
0010
0100
,  // measure 81
2000
0000
0000
0000
0001
0000
0000
3010
,  // measure 82
0000
0000
0100
0000
0001
1000
0001
0100
,  // measure 83
0000
0000
0001
0000
1000
0001
1000
0001
,  // measure 84
0000
0000
1000
0000
0001
1000
0100
1000
,  // measure 85
0000
0000
1000
0000
0010
1000
0010
1000
,  // measure 86
0000
0100
1000
0100
0000
0010
0100
0010
,  // measure 87
0000
0100
1000
0100
0000
1000
0000
0100
,  // measure 88
0000
0000
1000
0000
0001
1000
0001
1000
,  // measure 89
0200
0000
0300
0000
1000
0000
1000
0010
,  // measure 90
0000
0000
0100
0000
0001
1000
0001
1000
,  // measure 91
0000
0000
1000
0000
0010
0000
0100
0010
,  // measure 92
0000
0000
1000
0000
0010
0000
1000
0001
,  // measure 93
0000
0000
0100
0000
0010
1000
0010
1000
,  // measure 94
0000
0001
0100
1000
,  // measure 95
0100
0001
0100
0000
0010
1000
0010
0100
,  // measure 96
0000
0001
0010
0001
,  // measure 97
1000
0001
0000
0110
0000
0110
0000
0001
,  // measure 98
0000
0000
1000
0000
0010
0000
0100
0010
,  // measure 99
0000
0000
1000
0000
0010
0000
1000
0001
,  // measure 100
0000
0000
0100
0000
0001
0000
0010
0100
,  // measure 101
0000
0000
1000
0000
0100
0000
1000
0001
,  // measure 102
0000
1000
0001
1000
0001
0000
0000
0000
,  // measure 103
1000
0000
0010
0000
0100
0010
0000
1000
,  // measure 104
0000
0100
0001
0000
0100
1000
0000
0001
,  // measure 105
0100
0000
0000
0000
0001
1000
0100
1000
,  // measure 106
0000
1000
0001
0000
0100
0010
0000
1000
,  // measure 107
0000
0001
0100
0000
0001
0000
1000
0100
,  // measure 108
1000
0001
0100
0000
0001
1000
0100
0000
,  // measure 109
1000
0000
0001
0010
0000
0001
0000
2000
,  // measure 110
0000
0000
0000
0000
,  // measure 111
0000
0000
0000
0000
,  // measure 112
0000
0000
0000
0000
,  // measure 113
0000
0000
0000
0000
0000
0000
0000
3001
;

//---------------dance-single - ----------------
#NOTES:
     dance-single:
     :
     Medium:
     14:
     0.679121,0.788365,0.407692,0.246154,0.003846,533.000000,53.000000,32.000000,0.000000,0.000000,0.000000,0.679121,0.788365,0.407692,0.246154,0.003846,533.000000,53.000000,32.000000,0.000000,0.000000,0.000000:
// measure 0
0000
0000
0000
0000
,  // measure 1
0000
0000
0000
0000
,  // measure 2
0000
0000
0000
0000
,  // measure 3
0000
0000
0000
0000
,  // measure 4
0000
0000
0000
0000
,  // measure 5
0000
0000
0000
0000
,  // measure 6
0000
0000
0000
0000
,  // measure 7
0000
0000
0000
0000
,  // measure 8
0000
0000
0000
0000
,  // measure 9
0000
0000
0000
0000
0000
0000
0000
2000
,  // measure 10
0000
0000
0000
0000
0000
0000
0000
0002
,  // measure 11
0000
3000
0000
0000
0000
0000
0000
0020
,  // measure 12
0000
0003
0000
0000
0000
0000
0000
2000
,  // measure 13
0000
0030
0000
0000
0000
0000
0000
0020
,  // measure 14
0000
3000
0000
0000
0000
0000
0000
0002
,  // measure 15
0000
0030
0000
0000
0000
0000
0000
2000
,  // measure 16
0000
0000
0000
0000
,  // measure 17
0000
0000
0000
0000
3003
0000
0000
0011
,  // measure 18
0000
1000
0001
0000
0010
0001
1000
0000
,  // measure 19
0010
0100
0001
0100
0001
1000
0000
1010
,  // measure 20
0000
0001
1000
0000
0010
1000
0001
0000
,  // measure 21
0010
0100
1000
0100
1000
0001
0000
1100
,  // measure 22
0000
0001
0010
0000
0001
1000
0001
0000
,  // measure 23
0010
0001
1000
0010
1000
0001
0000
0101
,  // measure 24
0000
1000
0010
0000
1000
0001
1000
0000
,  // measure 25
0010
1000
0000
1010
0000
0110
0000
1001
,  // measure 26
0000
0001
0100
0000
0100
1000
0100
0000
,  // measure 27
0100
0001
0010
0001
1000
0100
0000
1001
,  // measure 28
0000
1000
0100
0000
0100
0001
0100
0000
,  // measure 29
0100
1000
0010
1000
0001
0100
0010
0110
,  // measure 30
0000
0001
0100
0010
1000
0100
0010
0100
,  // measure 31
1000
0001
0100
1000
0100
0001
0100
0010
,  // measure 32
0000
0010
0010
0000
0010
1000
0010
0100
,  // measure 33
0001
0100
1000
0100
0001
0010
0000
0200
,  // measure 34
0000
1300
0001
0200
0301
1000
0100
0020
,  // measure 35
0000
0031
1000
0020
1030
0001
0010
0200
,  // measure 36
0000
1300
0001
0200
0301
0010
0100
1000
,  // measure 37
0001
0010
0000
0110
0000
1100
0000
1002
,  // measure 38
0000
1003
0010
0001
0010
1000
0000
0002
,  // measure 39
0000
1003
0100
0001
0100
1000
0000
0002
,  // measure 40
0000
0103
0001
0010
0100
1000
0001
0100
,  // measure 41
0010
1000
0001
1000
0010
0100
0001
0100
,  // measure 42
0000
1000
0100
0001
1000
0010
0001
1000
,  // measure 43
0100
0001
0100
1000
0001
0010
0000
1000
,  // measure 44
0000
0001
0010
1000
0001
0100
1000
0200
,  // measure 45
0000
0000
0000
0000
0310
0001
0000
0011
,  // measure 46
0000
0001
0100
0010
1000
0010
0000
0101
,  // measure 47
0000
0001
0010
0100
1000
0000
0010
0100
,  // measure 48
0001
1000
0010
1000
0001
0010
0001
1000
,  // measure 49
0010
1000
0100
0001
0100
1000
0010
0200
,  // measure 50
0000
0000
0000
0000
,  // measure 51
0000
0000
0000
0000
0000
0000
0000
0300
,  // measure 52
0000
0000
0000
0000
,  // measure 53
0000
0000
0000
0000
,  // measure 54
0000
0000
0000
0000
,  // measure 55
0000
0000
0000
0000
,  // measure 56
0000
0000
0000
0000
,  // measure 57
0000
0001
0000
0000
0010
0000
0010
0000
,  // measure 58
1010
0011
1010
0011
,  // measure 59
0101
0011
0101
0011
,  // measure 60
1001
1100
1001
1100
,  // measure 61
0101
0011
0110
1100
,  // measure 62
1001
0101
1001
0101
,  // measure 63
0110
1010
1100
0101
,  // measure 64
0011
0010
0000
1100
1000
0000
0110
0010
,  // measure 65
0000
1001
0001
0000
1000
0010
1000
0001
,  // measure 66
0000
0010
0001
0000
1000
0100
1000
0100
,  // measure 67
1000
0100
0000
0001
0000
0010
0000
0001
,  // measure 68
0000
0100
1000
0100
1000
0010
1000
0100
,  // measure 69
0001
0100
0000
1000
0000
0010
0000
0100
,  // measure 70
0000
0010
1000
0000
0011
0000
0000
0000
,  // measure 71
1000
0100
0010
0001
0100
0010
0001
0010
,  // measure 72
0000
0100
0001
0000
1100
0000
0000
0000
,  // measure 73
0001
1000
0100
0001
0100
1000
0001
0010
,  // measure 74
0100
1000
0100
1000
0010
0100
0010
0100
,  // measure 75
0001
0000
0010
0000
0001
0000
0010
0000
0100
0000
0010
0000
0001
0000
1000
0001
,  // measure 76
1000
0001
0000
0101
0100
0000
1001
0001
,  // measure 77
0000
0000
0000
0000
0000
0000
0000
0200
,  // measure 78
0000
0301
1000
0200
1300
0001
0100
0020
,  // measure 79
0000
1030
0001
0020
0031
1000
0010
0200
,  // measure 80
0000
0301
1000
0200
1300
0010
0100
0001
,  // measure 81
1000
0010
0000
0110
0000
0101
0000
2001
,  // measure 82
0000
3001
0010
1000
0010
0001
0000
2000
,  // measure 83
0000
3001
0100
1000
0100
0001
0000
2000
,  // measure 84
0000
3100
1000
0010
0100
0001
1000
0100
,  // measure 85
0010
0001
1000
0001
0010
0100
1000
0100
,  // measure 86
0000
0001
0100
1000
0001
0010
1000
0001
,  // measure 87
0100
1000
0100
0001
1000
0010
0000
0001
,  // measure 88
0000
1000
0010
0001
1000
0100
0001
0200
,  // measure 89
0000
0000
0000
0000
0310
1000
0000
1010
,  // measure 90
0000
1000
0100
0010
0001
0010
0000
1100
,  // measure 91
0000
1000
0010
0100
0001
0000
0010
0100
,  // measure 92
1000
0001
0010
0001
1000
0010
1000
0001
,  // measure 93
0010
0001
0100
1000
0100
0001
0010
0001
,  // measure 94
0000
1000
0010
0100
0010
0100
0010
1000
,  // measure 95
0100
0010
1000
0010
0100
1000
0010
0100
,  // measure 96
0000
0010
1000
0100
0010
0100
1000
0010
,  // measure 97
0100
0100
0000
1010
0000
0110
0000
0001
,  // measure 98
0000
0010
0001
0100
0010
1000
0100
2000
,  // measure 99
0000
3100
1000
0010
0100
0001
0100
1000
,  // measure 100
0000
0100
0010
0100
0001
1000
0001
0020
,  // measure 101
0000
0130
1000
0010
0100
0000
0000
0001
,  // measure 102
0000
0010
0010
0010
0010
0000
0000
0000
,  // measure 103
0001
0100
0001
0100
0010
1000
0010
1000
,  // measure 104
0000
0100
0100
0100
0100
0000
1000
0001
,  // measure 105
0020
0000
0000
0000
0031
1000
0100
0010
,  // measure 106
0001
1000
0001
0100
0001
0001
1000
0001
,  // measure 107
1000
0100
1000
1000
0001
0000
0100
0001
,  // measure 108
1000
0001
0010
1000
0001
0100
1000
0001
,  // measure 109
1000
0010
0001
0010
0100
0001
0010
0200
,  // measure 110
0000
0000
0000
0000
,  // measure 111
0000
0000
0000
0000
,  // measure 112
0000
0000
0000
0000
,  // measure 113
0000
0000
0000
0000
0000
0000
0000
0310
;

//---------------dance-single - ----------------
#NOTES:
     dance-single:
     :
     Hard:
     17:
     0.874725,1.000000,0.423077,0.176923,0.515385,718.000000,55.000000,23.000000,0.000000,0.000000,0.000000,0.874725,1.000000,0.423077,0.176923,0.515385,718.000000,55.000000,23.000000,0.000000,0.000000,0.000000:
// measure 0
0000
0000
0000
0000
,  // measure 1
0000
0000
0000
0000
,  // measure 2
0000
0000
0000
0000
,  // measure 3
0000
0000
0000
0000
,  // measure 4
0000
0000
0000
0000
,  // measure 5
0000
0000
0000
0000
,  // measure 6
0000
0000
0000
0000
,  // measure 7
0000
0000
0000
0000
,  // measure 8
0000
0000
0000
0000
,  // measure 9
0000
0000
0000
0000
0000
0000
0000
0002
,  // measure 10
0000
0000
0000
0000
0000
0000
0000
0200
,  // measure 11
0000
0003
0000
0000
0000
0000
0000
2000
,  // measure 12
0000
0300
0000
0000
0000
0000
0000
0020
,  // measure 13
0000
3000
0000
0000
0000
0000
0000
0200
,  // measure 14
0000
0030
0000
0000
0000
0000
0000
0002
,  // measure 15
0000
0300
0000
0000
0000
0000
0000
2000
,  // measure 16
0000
0000
0000
0000
,  // measure 17
0000
0000
0000
0000
3003
0000
0000
1010
,  // measure 18
0000
0001
0010
0100
0001
0100
1000
0001
,  // measure 19
0010
0000
0100
0000
1000
0100
0010
0000
0000
0000
0110
0000
0000
0000
0011
0000
,  // measure 20
0000
1000
0010
0100
1000
0100
0001
1000
,  // measure 21
0010
0000
0100
0000
0001
0100
0010
0000
0000
0000
0110
0000
0000
0000
1010
0000
,  // measure 22
0000
0001
1000
0100
0010
1000
0010
0001
,  // measure 23
1000
0000
0100
0000
0010
0001
0100
0000
0000
0000
0110
0000
0000
0000
0101
0000
,  // measure 24
0000
1000
0001
0100
0010
0001
0010
1000
,  // measure 25
0001
0000
0100
0000
0010
1000
0100
0000
0000
0000
0110
0000
0000
0000
1001
0000
,  // measure 26
0000
0100
0001
0010
0100
1000
0100
0010
,  // measure 27
0001
0000
0010
0001
1000
0000
0100
0000
0000
0000
1100
0000
0000
0000
1001
0000
,  // measure 28
0000
0100
1000
0010
0100
0001
0100
0010
,  // measure 29
1000
0000
0010
1000
0001
0000
0100
0000
0010
0000
0100
0000
0001
0100
0001
0000
,  // measure 30
0000
0000
0010
0000
0001
0000
0100
0000
0010
1000
0001
0000
0100
0000
0010
0100
,  // measure 31
0010
0000
0100
0000
0001
1000
0010
0000
1000
0000
0100
0000
1000
0010
0100
0000
,  // measure 32
0000
0000
0001
0000
0100
0000
0010
1000
0100
0000
1000
0001
0010
0000
0001
1000
,  // measure 33
0010
0000
1000
0001
1000
0000
0001
1000
0100
0000
1000
0100
1000
0100
0020
0000
,  // measure 34
0000
0031
1000
0020
1030
0001
0010
2000
,  // measure 35
0000
3010
0001
2000
3100
0001
1000
0020
,  // measure 36
0000
0000
0031
0000
1000
0000
0020
0000
0031
0000
1000
0100
0010
0000
1000
0000
,  // measure 37
0010
1010
0001
0101
1000
1100
0000
1001
,  // measure 38
0000
0000
0010
0100
0010
0000
0100
0000
1000
0000
0001
0000
1000
0000
0010
0000
,  // measure 39
0100
0000
0010
0100
0001
0000
0100
0010
1000
0010
1000
0000
0001
0000
0101
0000
,  // measure 40
0000
0000
0010
0100
0010
0000
0100
0000
0001
0000
0010
0000
0001
0000
1001
0000
,  // measure 41
0000
0000
0100
1000
0100
0000
0010
0000
0001
0000
1000
0000
0100
0000
0010
0000
,  // measure 42
0100
0000
1000
0100
1000
0000
0100
1000
0001
0000
0100
0001
0100
0000
0001
1000
,  // measure 43
0100
1000
0100
0010
0001
0010
0000
1001
,  // measure 44
0000
0000
0100
0000
1000
0000
0100
0000
0010
0000
0001
0100
0010
0000
0100
0000
,  // measure 45
0001
0000
1000
0000
0010
0000
0100
0001
0100
0000
0010
0000
1000
0000
1001
0000
,  // measure 46
0000
0000
0001
0000
0100
0000
1000
0000
0100
0001
0010
0000
0000
0000
1001
0000
,  // measure 47
0000
0000
0001
0000
0001
0000
0010
0001
0100
0000
0000
0000
0001
0000
0010
0000
,  // measure 48
0100
0000
0010
0000
0100
1000
0100
0000
1000
0000
0010
0000
0100
0001
0100
0000
,  // measure 49
0001
0000
0010
0000
0100
1000
0100
0000
0001
1000
0001
1000
0001
1000
0020
0000
,  // measure 50
0000
0000
0000
0000
,  // measure 51
0000
0000
0000
0000
0000
0000
0000
0030
,  // measure 52
0000
0000
0000
0000
,  // measure 53
0000
0000
0000
0000
,  // measure 54
0000
0000
0000
0000
,  // measure 55
0000
0000
0000
0000
,  // measure 56
0000
0000
0000
0000
,  // measure 57
0000
1000
0001
0010
0001
1000
0010
1000
,  // measure 58
1001
0000
0000
0001
0010
0000
0000
0010
0100
0000
0000
0100
1000
0000
0000
1000
,  // measure 59
0010
0000
0000
0010
0100
0000
0000
0100
0010
0000
0000
0010
1000
0000
1000
0010
,  // measure 60
1000
0000
0000
0010
0100
0000
0000
0100
0001
0000
0000
0001
0010
0000
0000
0010
,  // measure 61
1000
0000
0000
0010
0001
0000
0000
0010
0100
0000
0000
0100
1000
0000
0001
1000
,  // measure 62
0001
0000
0000
0001
1000
0000
0000
1000
0001
0000
0000
0001
0100
0000
0010
0100
,  // measure 63
0010
0000
0000
0010
0100
0000
0000
0100
0010
0000
0000
0010
1000
0000
0001
0000
,  // measure 64
1001
1001
0000
0011
0011
0000
1100
1100
,  // measure 65
0000
0110
1001
0000
1000
0001
0010
0001
,  // measure 66
1000
0000
0001
0010
0001
0000
0001
0010
0001
0000
1000
0100
1000
0000
1000
0100
,  // measure 67
1000
0100
0000
0010
0000
0011
0000
1001
,  // measure 68
0000
1000
0001
0100
1000
0100
0001
0010
,  // measure 69
1000
0000
0010
0000
0001
0000
1000
0001
1000
0000
0010
0000
0000
0000
0110
0000
,  // measure 70
0000
0000
0001
1000
0001
0000
0000
0000
1010
0000
0000
0000
0000
0000
0000
0000
,  // measure 71
1000
0000
0010
1000
0010
0000
1000
0000
0001
0100
0001
1000
0100
1000
0100
0000
,  // measure 72
0000
0000
0010
0100
0010
0000
0000
0000
0011
0000
0000
0000
0000
0000
0000
0000
,  // measure 73
0001
0000
0010
0001
0010
0000
0001
0000
1000
0100
1000
0001
0100
0001
0100
0000
,  // measure 74
0010
1000
0100
0010
0001
0010
0100
1000
,  // measure 75
0010
0100
0010
0100
0010
0100
0010
0100
0010
0100
0010
0100
0010
0100
0000
0000
,  // measure 76
0110
0110
0000
0101
0101
0000
1001
1001
,  // measure 77
0000
0000
0000
0000
0000
0000
0000
0020
,  // measure 78
0000
1030
0001
0020
0031
1000
0010
0002
,  // measure 79
0000
0013
1000
0002
0103
1000
0001
0020
,  // measure 80
0000
0000
1030
0000
0001
0000
0020
0000
1030
0000
0001
0100
0010
0000
0001
0000
,  // measure 81
0010
0011
1000
1100
0001
0101
0000
1001
,  // measure 82
0000
0000
0010
0100
0010
0000
0100
0000
0001
0000
1000
0000
0001
0000
0010
0000
,  // measure 83
0100
0000
0010
0100
1000
0000
0100
0010
0001
0010
0001
0000
1000
0000
1100
0000
,  // measure 84
0000
0000
0010
0100
0010
0000
0100
0000
1000
0000
0010
0000
1000
0000
1001
0000
,  // measure 85
0000
0000
0100
0001
0100
0000
0010
0000
1000
0000
0001
0000
0100
0000
0010
0000
,  // measure 86
0100
0000
0001
0100
0001
0000
0100
0001
1000
0000
0100
1000
0100
0000
1000
0001
,  // measure 87
0100
0001
0100
0010
1000
0010
0000
1001
,  // measure 88
0000
0000
0100
0000
0001
0000
0100
0000
0010
0000
1000
0100
0010
0000
0100
0000
,  // measure 89
1000
0000
0001
0000
0010
0000
0100
1000
0100
0000
0010
0000
0001
0000
1001
0000
,  // measure 90
0000
0000
1000
0000
0100
0000
0001
0000
0100
1000
0010
0000
0000
0000
1001
0000
,  // measure 91
0000
0000
1000
0000
1000
0000
0010
1000
0100
0000
0000
0000
1000
0000
0010
0000
,  // measure 92
0100
0000
0010
0000
0100
0001
0100
0000
0001
0000
0010
0000
0100
1000
0100
0000
,  // measure 93
1000
0000
0010
0000
0100
0000
0001
0000
1000
0001
1000
0001
1000
0001
0010
0000
,  // measure 94
0000
0000
0010
0001
0010
0000
0001
0000
0010
0000
1000
0000
0001
0000
0100
0000
,  // measure 95
1000
0000
0100
1000
0001
0000
0100
0001
0010
0000
0100
0000
1000
0000
0100
0000
,  // measure 96
0000
0000
0100
1000
0100
0000
0010
0000
0010
0001
0010
0000
0100
0000
0100
0000
,  // measure 97
1000
0000
1010
0000
0001
0000
0011
0000
0100
0000
0101
0000
0000
0000
0100
0010
,  // measure 98
0100
0000
0001
0000
0010
0000
0001
0000
0100
0000
0001
0000
0010
0000
0001
0100
,  // measure 99
0001
0000
1000
0010
1000
0000
0010
0100
0001
0000
0100
0010
1000
0000
0001
0000
,  // measure 100
0100
0000
0001
0000
1000
0000
0100
0000
0001
0000
0100
0000
1000
0100
1000
0000
,  // measure 101
0010
0000
0100
0000
0010
1000
0010
0000
0100
0000
0010
1000
0010
0000
2000
0000
,  // measure 102
0000
0010
0010
3010
1010
0000
0000
0000
,  // measure 103
1000
0001
0010
0100
1000
0001
0000
1001
,  // measure 104
0000
0000
0100
0000
0100
0000
0010
0000
0110
0000
0010
0100
0001
0000
0200
0000
,  // measure 105
0000
0000
0301
0000
0000
0000
1000
0000
1000
0000
0100
1000
0001
0000
0010
0000
,  // measure 106
0100
0000
1000
0000
0001
0000
0010
0001
0100
0000
0010
0100
0001
0000
1000
0000
,  // measure 107
0010
0000
0100
0000
0001
0000
1000
0010
0100
0000
0010
1000
0100
0000
1000
0000
,  // measure 108
0001
1000
0001
0000
1000
0001
1000
0000
0010
1000
0010
0000
1000
0010
1000
0000
,  // measure 109
0100
1000
0100
1000
0010
1000
0001
0010
0100
1000
0100
0010
0001
1000
0002
0000
,  // measure 110
0000
0000
0000
0000
,  // measure 111
0000
0000
0000
0000
,  // measure 112
0000
0000
0000
0000
,  // measure 113
0000
0000
0000
0000
0000
0000
0000
0103
;

//---------------dance-double - ----------------
#NOTES:
     dance-double:
     :
     Easy:
     9:
     0.356044,0.437981,0.115385,0.092308,0.000000,297.000000,15.000000,12.000000,0.000000,0.000000,0.000000,0.356044,0.437981,0.115385,0.092308,0.000000,297.000000,15.000000,12.000000,0.000000,0.000000,0.000000:
00000000
00000000
00000000
00000000
,
00000000
00000000
00000000
00000000
,
00000000
00000000
00000000
00000000
,
00000000
00000000
00000000
00000000
,
00000000
00000000
00000000
00000000
,
00000000
00000000
00000000
00000000
,
00000000
00000000
00000000
00000000
,
00000000
00000000
00000000
00000000
,
00000000
00000000
00000000
00000000
,
00000000
00000000
00000000
00000000
00000000
00000000
00000000
00002000
,
00000000
00000000
00000000
00000000
,
00000000
00000000
00003000
00000000
,
00020000
00000000
00030000
00000000
,
00200000
00000000
00300000
00000000
,
20000000
00000000
30000000
00000000
,
02000000
00000000
03000000
00000000
,
00020000
00000000
00000000
00000000
,
00030000
00000000
00000000
00000000
00000000
00000000
00000000
00001000
,
00000000
00000010
00000001
00000100
,
00000001
00000000
00000010
00000000
00000001
00000000
00000001
00000100
,
00000000
00001000
00010000
00000100
,
00010000
00000000
00001000
00000000
00010000
00000000
00010000
00100000
,
00000000
10000000
00010000
10000000
,
01000000
00000000
10000000
00000000
00010000
00000000
00010000
00100000
,
00000000
00001000
00010000
00001000
,
00000010
00000000
00000100
00000000
00001000
00000000
00001000
00000001
,
00000000
00000100
00001000
00000100
,
00000001
00000000
00000100
00000000
00000010
00000000
00000010
00001000
,
00000000
00000100
00010000
00001000
,
00100000
00000000
01000000
00000000
00100000
00000000
00100000
00010000
,
00000000
10000000
00100000
00010000
,
00001000
00000100
00000001
00000100
,
00000010
00001000
00000001
00000100
,
00001000
00000000
00010000
00000000
01000000
00000000
00000000
10000000
,
00000000
00100000
00010000
00100000
,
00010000
00001000
00010000
00001000
,
00000010
00001000
00000010
00001000
,
00020000
00000000
00000000
00000000
00001000
00000000
00000000
00030100
,
00000000
00000010
00000001
00000010
,
00000100
00001000
00000100
00001000
,
00000010
00001000
00000010
00010000
,
00001000
00000000
00100000
00000000
00010000
00000000
10000000
00100000
,
00000000
10000000
10000000
00010000
,
00010000
00000000
00100000
00000000
00001000
00000000
00000000
00010000
,
00000000
00000100
00000001
00000100
,
00002000
00000000
00000000
00000000
00003000
00000000
00000000
00000100
,
00000000
00000000
00010000
00000000
00001000
00000000
00010000
00001000
,
00000000
00010000
01000000
10000000
,
00100000
10000000
00010000
10000000
,
00010000
00000000
00100000
00000000
00001000
00000000
00001000
00020000
,
00000000
00000000
00000000
00000000
,
00000000
00000000
00000000
00000000
00000000
00000000
00000000
00030000
,
00000000
00000000
00000000
00000000
,
00000000
00000000
00000000
00000000
,
00000000
00000000
00000000
00000000
,
00000000
00000000
00000000
00000000
,
00000000
00000000
00000000
00000000
,
00001000
00000000
00000010
00000001
,
00000000
00001000
00000001
00001001
,
00000000
00000010
00010000
00011000
,
00000000
00000100
00000010
00000110
,
00000000
00010000
00001000
00100000
,
00010000
00000000
11000000
00000000
,
00010000
00000000
00011000
00000000
,
01100000
00000000
00000000
00010000
00000000
00000000
10000000
00000000
,
00000000
01000000
00000000
00000000
00010000
00000000
00011000
00000000
,
00000000
00000010
00010000
00011000
,
00000000
01000000
00010000
01010000
,
00000000
10000000
01000000
01100000
,
00000000
00010000
00001000
00000000
,
00000000
00101000
00011000
00000000
,
00000000
00000000
00000000
00000000
,
00000000
00010010
00011000
00000000
,
00000000
00000000
00000000
00000000
,
00000110
00000000
00000001
00000100
,
00001000
00010000
00001000
00000100
,
00000001
00000000
00000000
00000001
00000000
00000000
00001000
00000000
,
00000000
00000000
00000000
00000000
00000000
00000000
00000000
00000001
,
00000000
00000010
00001000
00000010
,
00001000
00010000
00001000
00010000
,
00100000
00010000
00100000
00010000
,
00002000
00000000
00000000
00000000
00010000
00000000
00000000
01003000
,
00000000
00100000
10000000
00100000
,
01000000
00010000
01000000
00010000
,
00100000
00010000
00100000
00001000
,
00010000
00000000
00000010
00000000
00001000
00000000
00000001
00000010
,
00000000
00000001
00000001
00001000
,
00001000
00000000
00000010
00000000
00010000
00000000
00000000
00001000
,
00000000
01000000
10000000
01000000
,
00020000
00000000
00000000
00000000
00030000
00000000
00000000
01000000
,
00000000
00000000
00001000
00000000
00010000
00000000
00001000
00010000
,
00000000
00001000
00000100
00000001
,
00000010
00000001
00001000
00000001
,
00001000
00000010
00010000
00001000
,
00100000
00010000
00100000
10000000
,
00100000
00000000
00010000
00000000
00100000
00000000
00001000
00010000
,
00000000
00000100
00000010
00000001
,
00001000
00000000
00000000
00000010
00000000
00000010
00000000
00001000
,
00000000
00000001
00000100
00001000
,
00000100
00000000
00000001
00000000
00000100
00000000
00001000
00010000
,
00000000
00000000
00001000
00000000
00010000
00000000
01000000
00100000
,
00000000
00000000
00010000
00000000
01000000
00000000
00001000
00010000
,
00000000
00001000
00001000
00000000
,
00010000
00100000
01000000
10000000
,
01000000
00010000
10000000
00010000
,
00100000
00000000
00001000
00000010
,
00000001
00000000
00001000
00000000
00000010
00000000
00000000
00000001
,
00000000
00000010
00001000
00000001
,
00000010
00001000
00010000
00001000
,
00000010
00000000
00001000
00000000
00010000
00000000
00010000
00002000
,
00000000
00000000
00000000
00000000
,
00000000
00000000
00000000
00000000
,
00000000
00000000
00000000
00000000
,
00000000
00000000
00000000
00000000
00000000
00000000
00000000
00003000
;

//---------------dance-double - ----------------
#NOTES:
     dance-double:
     :
     Medium:
     14:
     0.665934,0.744567,0.392308,0.184615,0.000000,531.000000,51.000000,24.000000,0.000000,0.000000,0.000000,0.665934,0.744567,0.392308,0.184615,0.000000,531.000000,51.000000,24.000000,0.000000,0.000000,0.000000:
00000000
00000000
00000000
00000000
,
00000000
00000000
00000000
00000000
,
00000000
00000000
00000000
00000000
,
00000000
00000000
00000000
00000000
,
00000000
00000000
00000000
00000000
,
00000000
00000000
00000000
00000000
,
00000000
00000000
00000000
00000000
,
00000000
00000000
00000000
00000000
,
00000000
00000000
00000000
00000000
,
00000000
00000000
00000000
00000000
00000000
00000000
00000000
00200000
,
00000000
00000000
00000000
00000000
00000000
00000000
00000000
00002000
,
00000000
00300000
00000000
00000000
00000000
00000000
00000000
00000200
,
00000000
00003000
00000000
00000000
00000000
00000000
00000000
00002000
,
00000000
00000300
00000000
00000000
00000000
00000000
00000000
00020000
,
00000000
00003000
00000000
00000000
00000000
00000000
00000000
02000000
,
00000000
00030000
00000000
00000000
00000000
00000000
00000000
20000000
,
00000000
00000000
00000000
00000000
,
00000000
00000000
00000000
00000000
33000000
00000000
00000000
10010000
,
00000000
10000000
00100000
00000000
10000000
00010000
00100000
00000000
,
00010000
01000000
00001000
00010000
00001000
00100000
00000000
00110000
,
00000000
00001000
00010000
00000000
00000010
00010000
00001000
00000000
,
00010000
00001000
00000010
00000001
00001000
00000001
00000000
00001100
,
00000000
00000001
00000010
00000000
00000100
00001000
00000100
00000000
,
00010000
00001000
00010000
01000000
00100000
00010000
00000000
01010000
,
00000000
10000000
00100000
00000000
01000000
00010000
01000000
00000000
,
00001000
00010000
00000000
00001100
00000000
00000110
00000000
00001001
,
00000000
00000001
00000100
00000000
00001000
00000100
00001000
00000000
,
00010000
00001000
00010000
01000000
10000000
01000000
00000000
10010000
,
00000000
10000000
01000000
00000000
00010000
01000000
00010000
00000000
,
00001000
00010000
00001000
00000100
00000001
00000100
00000010
00000110
,
00000000
00000001
00000100
00001000
00000100
00001000
00010000
01000000
,
00010000
01000000
10000000
01000000
00010000
00001000
00010000
00000010
,
00000000
00000010
00000010
00000000
00000010
00001000
00000010
00000100
,
00000001
00000100
00001000
00010000
00001000
00000100
00000000
00000020
,
00000000
00001030
00000001
00000010
00000001
00001000
00000010
00020000
,
00000000
00031000
00100000
00010000
00100000
00001000
00010000
02000000
,
00000000
03100000
00010000
01000000
00010000
00100000
01000000
10000000
,
01000000
00100000
00000000
00110000
00000000
00011000
00000000
02010000
,
00000000
03100000
00010000
00001000
00010000
00100000
00000000
00020000
,
00000000
00030010
00010000
00001000
00010000
00000010
00000000
00002000
,
00000000
00003001
00000010
00000001
00001000
00000100
00000010
00000100
,
00001000
00000010
00010000
00001000
00100000
01000000
10000000
01000000
,
00000000
10000000
01000000
00010000
10000000
00100000
00010000
10000000
,
01000000
00010000
00001000
00000010
00001000
00010000
00000000
01000000
,
00000000
00100000
00010000
00100000
00010000
01000000
00001000
00020000
,
00000000
00000000
00000000
00030000
00000010
00000100
00000000
00000101
,
00000000
00000100
00001000
00010000
00001000
00010000
00000000
11000000
,
00000000
10000000
01000000
00010000
01000000
00000000
01000000
00100000
,
00001000
00010000
00001000
00000010
00000100
00000010
00000001
00001000
,
00000100
00001000
00000001
00000100
00001000
00010000
00100000
02000000
,
00000000
00000000
00000000
00000000
,
00000000
00000000
00000000
00000000
00000000
00000000
00000000
03000000
,
00000000
00000000
00000000
00000000
,
00000000
00000000
00000000
00000000
,
00000000
00000000
00000000
00000000
,
00000000
00000000
00000000
00000000
,
00000000
00000000
00000000
00000000
,
00000000
00010000
00000000
00000000
10000000
00000000
10000000
00000000
,
00110000
01010000
00110000
01010000
,
00011000
00110000
00011000
00110000
,
00011000
00001010
00011000
00001100
,
00011000
00010010
00000110
00000101
,
00001001
00001100
00001001
00000101
,
00000110
00001010
00011000
00110000
,
10000000
10000000
00000000
01000000
01000000
00000000
00010000
00010000
,
00000000
00011000
00011000
00000000
00010000
00001000
00010000
00000010
,
00000000
00000100
00000001
00000000
00000100
00000001
00001000
00000010
,
00000100
00000001
00000000
00000100
00000000
00001000
00000000
00010000
,
00000000
00001000
01000000
00001000
01000000
10000000
01000000
10000000
,
01000000
00010000
00000000
00100000
00000000
00001000
00000000
01000000
,
00000000
00010000
10000000
00000000
00110000
00000000
00000000
00000000
,
10000000
01000000
00100000
00010000
00001000
00000100
00000010
00000100
,
00000000
00001000
00000001
00000000
00001010
00000000
00000000
00000000
,
00000001
00000100
00000010
00001000
00010000
01000000
00010000
00100000
,
01000000
10000000
01000000
10000000
00100000
01000000
00100000
01000000
,
00001000
00100000
00001000
00010000
00000100
00001000
00000001
00000100
,
00000001
00000010
00000000
00001000
00010000
00000000
00011000
00011000
,
00000000
00000000
00000000
00000000
00000000
00000000
00000000
00200000
,
00000000
00310000
10000000
00100000
10000000
00010000
00100000
00002000
,
00000000
00013000
00000010
00001000
00000010
00010000
00001000
00000200
,
00000000
00000310
00001000
00000100
00001000
00000010
00000100
00000001
,
00000100
00000010
00000000
00001010
00000000
00011000
00000000
00001200
,
00000000
00000310
00001000
00010000
00001000
00000010
00000000
00002000
,
00000000
00103000
00001000
00010000
00001000
00100000
00000000
00020000
,
00000000
10030000
00100000
10000000
00010000
01000000
00100000
01000000
,
00010000
00100000
00001000
00010000
00000010
00000100
00000001
00000100
,
00000000
00000001
00000100
00001000
00000001
00000010
00001000
00000001
,
00000100
00001000
00010000
00100000
00010000
00001000
00000000
00000100
,
00000000
00000010
00001000
00000010
00001000
00000100
00010000
00002000
,
00000000
00000000
00000000
00000000
00103000
01000000
00000000
11000000
,
00000000
01000000
00010000
00001000
00010000
00001000
00000000
00000101
,
00000000
00000001
00000100
00001000
00000100
00000000
00000100
00000010
,
00010000
00001000
00010000
00100000
01000000
00100000
10000000
00010000
,
01000000
00010000
10000000
01000000
00010000
00001000
00000010
00000001
,
00000000
00001000
00000010
00000100
00000010
00000100
00000010
00001000
,
00000100
00000010
00001000
00010000
00001000
00000010
00000100
00010000
,
00000000
00001000
00010000
01000000
00100000
01000000
10000000
00100000
,
10000000
10000000
00000000
00110000
00000000
01100000
00000000
00010000
,
00000000
01000000
10000000
01000000
00100000
00010000
01000000
00001000
,
00010000
00001000
00000010
00001000
00010000
00000010
00001000
00000010
,
00000000
00001000
00000001
00001000
00000001
00000100
00001000
00010000
,
00000000
00001000
00100000
00010000
00100000
00000000
00000000
00001000
,
00000000
00100000
00100000
00100000
00100000
00000000
00000000
00000000
,
00001000
00010000
00001000
00010000
00001000
00000100
00000001
00001000
,
00000000
00000100
00000100
00000100
00000100
00000000
00010000
00001000
,
02000000
00000000
00000000
00000000
03010000
01000000
00100000
00010000
,
00000000
00001000
00010000
00001000
00000100
00000001
00000100
00001000
,
00000000
01000000
10000000
01000000
00010000
00000000
00010000
10000000
,
00100000
10000000
00100000
00010000
10000000
01000000
00010000
00001000
,
00000010
00000100
00000010
00000100
00001000
00010000
00001000
00000200
,
00000000
00000000
00000000
00000000
,
00000000
00000000
00000000
00000000
,
00000000
00000000
00000000
00000000
,
00000000
00000000
00000000
00000000
00000000
00000000
00000000
00000301
;

//---------------dance-double - ----------------
#NOTES:
     dance-double:
     :
     Hard:
     17:
     0.829670,1.000000,0.376923,0.084615,0.434615,695.000000,49.000000,11.000000,0.000000,0.000000,0.000000,0.829670,1.000000,0.376923,0.084615,0.434615,695.000000,49.000000,11.000000,0.000000,0.000000,0.000000:
00000000
00000000
00000000
00000000
,
00000000
00000000
00000000
00000000
,
00000000
00000000
00000000
00000000
,
00000000
00000000
00000000
00000000
,
00000000
00000000
00000000
00000000
,
00000000
00000000
00000000
00000000
,
00000000
00000000
00000000
00000000
,
00000000
00000000
00000000
00000000
,
00000000
00000000
00000000
00000000
,
00000000
00000000
00000000
00000000
00000000
00000000
00000000
00002000
,
00000000
00000000
00000000
00000000
00000000
00000000
00000000
00000020
,
00000000
00003000
00000000
00000000
00000000
00000000
00000000
00020000
,
00000000
00000030
00000000
00000000
00000000
00000000
00000000
00200000
,
00000000
00030000
00000000
00000000
00000000
00000000
00000000
00002000
,
00000000
00300000
00000000
00000000
00000000
00000000
00000000
00000200
,
00000000
00003000
00000000
00000000
00000000
00000000
00000000
00000002
,
00000000
00000000
00000000
00000000
,
00000000
00000000
00000000
00000000
00000303
00000000
00000000
00001001
,
00000000
00000001
00001000
00000010
00000100
00000001
00001000
00000010
,
00010000
00000000
00001000
00000000
00010000
00001000
00010000
00000000
00000000
00000000
00110000
00000000
00000000
00000000
10010000
00000000
,
00000000
10000000
00010000
00100000
01000000
10000000
00010000
00100000
,
00001000
00000000
00010000
00000000
00001000
00010000
00001000
00000000
00000000
00000000
00001010
00000000
00000000
00000000
00000011
00000000
,
00000000
00000001
00001000
00000100
00000010
00000100
00001000
00000001
,
00000100
00000000
00001000
00000000
00010000
00001000
00010000
00000000
00000000
00000000
00110000
00000000
00000000
00000000
10100000
00000000
,
00000000
10000000
00010000
01000000
00100000
01000000
00010000
10000000
,
01000000
00100000
00000000
00101000
00000000
00001010
00000000
00001001
,
00000000
00000001
00000100
00001000
00010000
00000010
00000100
00001000
,
00010000
00000000
00001000
00100000
00010000
00000000
00100000
00000000
00000000
00000000
11000000
00000000
00000000
00000000
10010000
00000000
,
00000000
10000000
01000000
00010000
00001000
00100000
01000000
00010000
,
00001000
00000000
00010000
00000010
00001000
00000000
00000010
00000000
00000100
00000000
00000001
00000000
00001000
00000001
00001000
00000000
,
00000000
00000000
00000010
00000000
00001000
00000000
00000100
00000000
00000010
00000001
00001000
00000000
00000100
00000000
00010000
00001000
,
00010000
00000000
00001000
00000000
00100000
00001000
00010000
00000000
01000000
00000000
00100000
00000000
00010000
00100000
00001000
00000000
,
00000000
00000000
00010000
00000000
00000100
00000000
00001000
00000010
00001000
00000000
00000010
00000000
00001000
00000000
00000100
00010000
,
00001000
00000000
00010000
00001000
00010000
00000000
00001000
00100000
00010000
00000000
00100000
00010000
10000000
00010000
10000000
00000000
,
00000000
00010000
10000000
01000000
00010000
00001000
00000010
00000001
,
00000000
00001000
00000001
00000100
00001000
00010000
00100000
10000000
,
00000000
00000000
00010000
00000000
10000000
00000000
00010000
00000000
01000000
00000000
00001000
00000000
00010000
00000000
00000010
00001000
,
00000010
00001010
00000100
00000101
00000001
00001001
00000000
00001100
,
00000000
00000000
00010000
00001000
00010000
00000000
00001000
00000000
00100000
00000000
00010000
00000000
10000000
00000000
00100000
00000000
,
01000000
00000000
00100000
01000000
00010000
00000000
01000000
00100000
10000000
00000000
10000000
00000000
00010000
00000000
01010000
00000000
,
00000000
00000000
00100000
00001000
00100000
00000000
00010000
00000000
00100000
00000000
00001000
00000000
00010000
00000000
00010100
00000000
,
00000000
00000000
00000010
00000001
00000010
00000000
00000100
00001000
00000100
00000000
00010000
00001000
00010000
00000000
00001000
00000000
,
00010000
00100000
00010000
00001000
00100000
00010000
00001000
00100000
,
00010000
00001000
01000000
00100000
00010000
00001000
00100000
00110000
,
00000000
00000000
01000000
00000000
10000000
00000000
01000000
00000000
00100000
00000000
00010000
00100000
01000000
00000000
00010000
00000000
,
00001000
00000000
00000010
00000000
00000100
00000000
00000010
00000100
00000010
00000000
00000001
00000000
00001000
00000000
00001001
00000000
,
00000000
00000000
00000001
00000000
00000100
00000000
00001000
00000000
00010000
00100000
01000000
00000000
00000000
00000000
10010000
00000000
,
00000000
00000000
01000000
00000000
00010000
00000000
00001000
00000010
00000100
00000000
00000000
00000000
00000001
00000000
00000100
00000000
,
00001000
00000000
00000010
00000000
00010000
00001000
00010000
00000000
00001000
00000000
00100000
00000000
00001000
00010000
00001000
00000000
,
00001000
00000000
00100000
00000000
01000000
00000000
10000000
00000000
00010000
10000000
00010000
10000000
00010000
10000000
00200000
00000000
,
00000000
00000000
00000000
00000000
,
00000000
00000000
00000000
00000000
00000000
00000000
00000000
00300000
,
00000000
00000000
00000000
00000000
,
00000000
00000000
00000000
00000000
,
00000000
00000000
00000000
00000000
,
00000000
00000000
00000000
00000000
,
00000000
00000000
00000000
00000000
,
00000000
10000000
00010000
00100000
00010000
10000000
01000000
00010000
,
00011000
00000000
00000000
00001000
00100000
00000000
00000000
00100000
00010000
00000000
00000000
00010000
10000000
00000000
00000000
10000000
,
00100000
00000000
00000000
00100000
01000000
00000000
00000000
01000000
00001000
00000000
00000000
00001000
00010000
00000000
00010000
00001000
,
00010000
00000000
00000000
00000010
00001000
00000000
00000000
00001000
00000001
00000000
00000000
00000001
00000010
00000000
00000000
00000010
,
00000100
00000000
00000000
00000100
00001000
00000000
00000000
00001000
00010000
00000000
00000000
00010000
00100000
00000000
00000000
00100000
,
01000000
00000000
00000000
01000000
10000000
00000000
00000000
10000000
01000000
00000000
00000000
01000000
00010000
00000000
00000000
00010000
,
00000100
00000000
00000000
00000100
00000001
00000000
00000000
00000001
00000100
00000000
00000000
00000100
00000010
00000000
00000001
00000000
,
00001001
00000001
00000000
00011000
00001000
00000000
10010000
10000000
,
00000000
00101000
00011000
00000000
00000010
00001000
00000001
00001000
,
00000010
00000100
00001000
00010000
00000010
00001000
00000001
00000100
,
00001000
00010000
00000000
00100000
00000000
10100000
00000000
10010000
,
00000000
00100000
00001000
00010000
01000000
10000000
00010000
00100000
,
10000000
00000000
00100000
00000000
00010000
00000000
10000000
00010000
10000000
00000000
00100000
00000000
00000000
00000000
00110000
00000000
,
00000000
00000000
00001000
00010000
00001000
00000000
00000000
00000000
00010010
00000000
00000000
00000000
00000000
00000000
00000000
00000000
,
00001000
00000000
00000001
00001000
00000010
00000000
00001000
00000000
00000010
00010000
00001000
00010000
00001000
00100000
00001000
00000000
,
00000000
00000000
00010000
00001000
00010000
00000000
00000000
00000000
00101000
00000000
00000000
00000000
00000000
00000000
00000000
00000000
,
00010000
00000000
10000000
00010000
00100000
00000000
00010000
00000000
00100000
00001000
00010000
00001000
00010000
00000010
00010000
00000000
,
00000010
00001000
00000100
00000010
00000001
00000100
00001000
00010000
,
00100000
01000000
00100000
01000000
00100000
01000000
00100000
01000000
00100000
01000000
00100000
01000000
00100000
01000000
00000000
00000000
,
01100000
01100000
00000000
10010000
10010000
00000000
00011000
00011000
,
00000000
00000000
00000000
00000000
00000000
00000000
00000000
00000001
,
00000000
00001000
00000001
00000100
00001000
00010000
00100000
10000000
,
00000000
00010000
10000000
01000000
00010000
00001000
00000010
00000001
,
00000000
00000000
00001000
00000000
00000001
00000000
00001000
00000000
00000100
00000000
00010000
00000000
00001000
00000000
00100000
00010000
,
00100000
00110000
01000000
11000000
10000000
10010000
00000000
01010000
,
00000000
00000000
00001000
00010000
00001000
00000000
00010000
00000000
00000010
00000000
00001000
00000000
00000001
00000000
00000010
00000000
,
00000100
00000000
00000010
00000100
00001000
00000000
00000100
00000010
00000001
00000000
00000001
00000000
00001000
00000000
00001100
00000000
,
00000000
00000000
00000010
00010000
00000010
00000000
00001000
00000000
00000010
00000000
00010000
00000000
00001000
00000000
01001000
00000000
,
00000000
00000000
00100000
10000000
00100000
00000000
01000000
00010000
01000000
00000000
00001000
00010000
00001000
00000000
00010000
00000000
,
00001000
00000010
00001000
00010000
00000010
00001000
00010000
00000010
,
00001000
00010000
00000100
00000010
00001000
00010000
00000010
00001010
,
00000000
00000000
00000100
00000000
00000001
00000000
00000100
00000000
00000010
00000000
00001000
00000010
00000100
00000000
00001000
00000000
,
00010000
00000000
00100000
00000000
01000000
00000000
00100000
01000000
00100000
00000000
10000000
00000000
00010000
00000000
10010000
00000000
,
00000000
00000000
10000000
00000000
01000000
00000000
00010000
00000000
00001000
00000010
00000100
00000000
00000000
00000000
00001001
00000000
,
00000000
00000000
00000100
00000000
00001000
00000000
00010000
00100000
01000000
00000000
00000000
00000000
10000000
00000000
01000000
00000000
,
00010000
00000000
00100000
00000000
00001000
00010000
00001000
00000000
00010000
00000000
00000010
00000000
00010000
00001000
00010000
00000000
,
00010000
00000000
00000010
00000000
00000100
00000000
00000001
00000000
00001000
00000001
00001000
00000000
00000001
00000000
00000010
00000000
,
00000000
00000000
00000001
00001000
00000001
00000000
00000010
00000000
00001000
00000000
00010000
00000000
00100000
00000000
00010000
00000000
,
00001000
00000000
00010000
00001000
00010000
00000000
00001000
00000000
00100000
00000000
00010000
00000000
00001000
00000000
00010000
00000000
,
00000000
00000000
00010000
00100000
00010000
00000000
00100000
00000000
00001000
00010000
00001000
00000000
00010000
00000000
00000100
00000000
,
00000010
00000000
00000001
00000000
00000010
00000000
00001000
00000000
00010000
00000000
00011000
00000000
00000000
00000000
00001000
00010000
,
00001000
00000000
00010000
00000000
00100000
00000000
00010000
00000000
00001000
00000000
00010000
00000000
00100000
00000000
10000000
00100000
,
10000000
00000000
00010000
00100000
00010000
00000000
00100000
01000000
10000000
00000000
01000000
00100000
00010000
00000000
10000000
00000000
,
01000000
00010000
00001000
00010000
01000000
00010000
00001000
00000010
,
00001000
00000000
00000010
00000000
00000100
00000010
00000100
00000000
00010000
00000000
00001000
00010000
00001000
00000000
02000000
00000000
,
00000000
00100000
00100000
00100000
03100000
00000000
00000000
00000000
,
00100000
00010000
00001000
00000100
00000001
00000100
00000000
00001001
,
00000000
00000000
00000100
00000000
00000100
00000000
00000010
00000000
00000010
00000000
00000010
00000100
00001000
00000000
00020000
00000000
,
00000000
00000000
00030000
00000000
00000000
00000000
00001000
00000000
00010000
00000000
00100000
01000000
00010000
00000000
01000000
00000000
,
00010000
00000000
10000000
00000000
00010000
00000000
00100000
00010000
00100000
00000000
00001000
00000000
00010000
00000000
00000100
00000000
,
00001000
00000000
00000001
00000000
00001000
00000000
00000010
00001000
00000010
00000000
00000100
00000000
00000001
00000000
00000100
00000000
,
00001000
00010000
00001000
00000000
00100000
00010000
00100000
00000000
00001000
00010000
00001000
00000000
00100000
00010000
00100000
00000000
,
00010000
01000000
00010000
00000000
00100000
00010000
00100000
00000000
00001000
00010000
00001000
00010000
00001000
00100000
00020000
00000000
,
00000000
00000000
00000000
00000000
,
00000000
00000000
00000000
00000000
,
00000000
00000000
00000000
00000000
,
00000000
00000000
00000000
00000000
00000000
00000000
00000000
00130000
;

//---------------dance-single - ----------------
#NOTES:
     dance-single:
     :
     Challenge:
     18:
     1.000000,1.000000,0.615385,0.392308,0.957692,926.000000,80.000000,51.000000,0.000000,0.000000,0.000000,1.000000,1.000000,0.615385,0.392308,0.957692,926.000000,80.000000,51.000000,0.000000,0.000000,0.000000:
// measure 0
0000
0000
0000
0000
,  // measure 1
0000
0000
0000
0000
,  // measure 2
0000
0000
0000
0000
,  // measure 3
0000
0000
0000
0000
,  // measure 4
0000
0000
0000
0000
,  // measure 5
0000
0000
0000
0000
,  // measure 6
0000
0000
0000
0000
,  // measure 7
0000
0000
0000
0000
,  // measure 8
0000
0000
0000
0000
,  // measure 9
0000
0000
0000
0000
0000
0000
0000
2010
,  // measure 10
0000
0000
0000
0000
0000
0020
3000
0200
,  // measure 11
0000
0030
0000
0000
0302
0000
1000
2003
,  // measure 12
0000
0000
0000
0000
0020
0000
3000
0230
,  // measure 13
0000
0000
0302
0000
0023
0000
1030
2000
,  // measure 14
0000
0000
0000
0000
3020
0000
0000
0032
,  // measure 15
0000
0000
0000
0000
0200
0003
0000
0020
,  // measure 16
0000
0000
0000
0330
,  // measure 17
0001
0010
0001
0010
0100
1000
0100
1000
0001
0100
0001
0100
0001
0000
1001
0000
,  // measure 18
0000
0000
1000
0000
0010
0000
0100
0000
0010
1000
0001
0000
0100
0000
0001
0000
,  // measure 19
0010
0000
0010
0000
0100
1000
0001
0000
0000
0000
1001
0000
0000
0000
2020
0000
,  // measure 20
3030
0000
0001
0000
0010
1000
0010
0000
0001
0000
0100
0000
1000
0000
0100
0000
,  // measure 21
0001
0010
0100
0000
1000
0010
0100
0000
0001
0000
0001
0000
1000
0000
1100
0000
,  // measure 22
0000
0000
0010
0000
0001
1000
0010
0000
0100
0001
1000
0000
0001
0000
0011
0000
,  // measure 23
0010
0000
1000
0000
0010
0001
0100
0000
1000
0000
0100
0000
0001
0000
0011
0000
,  // measure 24
0000
0000
1000
0000
0010
0001
0100
0000
0010
1000
0100
0000
0001
0100
1000
0000
,  // measure 25
0010
1000
0100
0000
0010
0001
1000
0000
0000
0000
1010
0000
0000
0000
0011
0000
,  // measure 26
0000
0000
0010
0000
1000
0001
0100
0000
0001
0010
1000
0010
0001
0000
0100
0000
,  // measure 27
0010
0000
0010
0000
1000
0100
0010
0000
0001
0000
0101
0000
0000
0000
2020
0000
,  // measure 28
3030
0000
0100
0000
0001
0000
0010
0000
1000
0010
0001
0000
0100
0000
1000
0000
,  // measure 29
0001
0000
0010
0001
0100
0000
0010
0000
1000
0100
1000
0010
0100
0000
0101
0000
,  // measure 30
0001
0000
0010
0000
0100
1000
0100
0010
0001
0100
0010
1000
0001
0000
0010
0000
,  // measure 31
0001
0010
0100
1000
0100
0010
0001
0100
1000
0100
0001
1000
0010
0000
0100
0000
,  // measure 32
0000
0000
1001
0000
1001
0000
0100
0010
0001
0000
1000
0001
0100
0001
1000
0000
,  // measure 33
0010
0100
0010
0100
0010
0100
0001
0010
0100
1000
0001
0010
0100
1000
0002
0000
,  // measure 34
0000
0000
1003
0000
0010
0100
0002
0000
1003
0000
0010
0000
0100
0000
0002
0000
,  // measure 35
0000
0000
1003
0000
0010
0100
0002
0000
0103
0000
0010
0000
1000
0000
0210
0000
,  // measure 36
0000
0000
0310
0000
0001
0100
2000
0000
3100
0000
0001
0010
0100
0000
0010
0000
,  // measure 37
1001
1001
1000
1010
0010
0110
0000
0101
,  // measure 38
0000
0000
0001
0010
0100
0000
1000
0000
0001
1000
0010
0000
0100
0000
0010
1000
,  // measure 39
0001
0000
1000
0001
0010
0000
0010
0001
0100
0000
0010
0000
1010
0000
1010
0000
,  // measure 40
0000
0000
0001
0010
1000
0000
0010
0001
0100
0010
0100
0000
0001
0000
1001
0000
,  // measure 41
0000
0000
1000
0010
0100
0000
0001
0000
0010
0000
0001
0000
0100
0000
1010
0000
,  // measure 42
1000
0000
0001
0010
0100
0000
1000
0010
0001
0000
0010
1000
0100
0000
0001
0100
,  // measure 43
1000
0100
0010
0001
0100
0010
1000
0010
0100
0000
0001
0000
0000
0000
1001
0000
,  // measure 44
0000
0000
0001
0010
1000
0000
0010
0001
0100
0000
0010
1000
0100
0000
0010
0001
,  // measure 45
0100
0010
0100
0000
0001
0000
1000
0010
1000
0000
0100
0010
0100
0000
0011
0000
,  // measure 46
0000
0000
0001
0010
1000
0010
0001
0000
0100
0010
1000
0000
0000
0000
1001
0000
,  // measure 47
0000
0000
0100
0010
1000
0000
0010
0100
0001
0010
0100
1000
0001
0000
0100
0010
,  // measure 48
1000
0000
0010
0100
0001
0010
0001
0000
0100
1000
0001
1000
0100
0010
0100
0000
,  // measure 49
1000
0001
0010
0001
0100
0000
0010
0000
1000
0100
1000
0100
0010
0001
0020
0000
,  // measure 50
0000
0100
0000
0100
0100
0000
0000
0000
,  // measure 51
0001
0000
0000
1000
1000
0001
0000
1030
,  // measure 52
0000
2020
0000
3030
2002
0000
3003
0000
,  // measure 53
0001
0010
1000
0010
0001
0100
0000
0110
,  // measure 54
0000
0010
1000
0100
1000
0000
0001
0000
,  // measure 55
0010
0001
0100
0010
0100
0001
0010
0100
,  // measure 56
1000
0002
0000
1003
0002
0000
1003
0020
,  // measure 57
0000
0130
0001
0010
0001
0100
0010
1000
,  // measure 58
1000
0000
0000
1000
0010
0000
0001
0010
0001
0000
0000
0001
1000
0000
0000
1000
,  // measure 59
0100
0000
0000
0100
0001
0000
0000
0001
1000
0000
0000
1000
0010
0000
0100
0010
,  // measure 60
0100
0000
0000
0100
0001
0000
0000
0001
1000
0000
0000
1000
0100
0000
0010
0100
,  // measure 61
0010
0000
0000
0010
0001
0000
0100
0001
0100
0000
0000
0100
0010
0000
1000
0010
,  // measure 62
1000
0000
0000
1000
0001
0000
0000
0001
0100
0000
0000
0100
0010
0000
1000
0010
,  // measure 63
1000
0000
0000
1000
0001
0000
0000
0001
0010
0000
0000
0010
0001
0000
1000
0000
,  // measure 64
1010
1010
0000
0101
0011
0000
1010
1100
,  // measure 65
0000
0000
1001
0000
0011
0000
0000
0000
0010
0100
0010
0100
1000
0001
1000
0001
,  // measure 66
0010
0000
0100
0010
0100
0000
1000
0100
0010
0001
0100
0010
1000
0001
1000
0010
,  // measure 67
0100
0010
0000
1001
0000
1100
0000
0110
,  // measure 68
0000
0000
0010
0000
0001
0100
0010
0000
1000
0100
0010
0001
1000
0001
1000
0000
,  // measure 69
0010
0000
0100
0000
0001
0000
0010
1000
0010
0000
0001
0100
1000
0000
0101
0000
,  // measure 70
0000
0000
0001
0010
0100
0000
0000
0000
1100
0000
0000
0000
1000
0000
0010
0000
,  // measure 71
0100
0001
0010
0100
0010
0100
1000
0001
0010
0001
0100
0010
1000
0100
0010
0000
,  // measure 72
0000
0000
0001
0010
1000
0000
0000
0000
0011
0000
0000
0000
0000
0000
0000
0000
,  // measure 73
0100
0010
1000
0010
0100
0010
1000
0010
0100
0010
1000
0010
0100
0000
0001
0000
,  // measure 74
0010
0000
0100
1000
0010
0000
0100
0001
0010
0001
1000
0000
0001
0000
0100
0010
,  // measure 75
1000
0100
1000
0100
0010
0001
0010
0001
1000
0100
1000
0100
0010
0001
0010
0000
,  // measure 76
0101
1010
0000
1001
0110
0000
1010
0101
,  // measure 77
0110
0110
0110
0110
0000
1001
0000
2000
,  // measure 78
0000
0000
3010
0001
0010
0000
2000
0000
3001
0100
0010
0000
0100
0000
0002
0000
,  // measure 79
0000
0000
1003
0100
0010
0000
0200
0000
0310
0001
1000
0000
0010
0000
2000
0000
,  // measure 80
0000
0000
3001
0000
0010
0000
0002
0000
0103
0000
0010
1000
0100
0000
0010
0000
,  // measure 81
0001
0011
0100
0110
1000
1001
0000
0202
,  // measure 82
0303
0000
0010
1000
0100
0000
0010
0000
0100
1000
0002
0000
0103
0000
0020
0000
,  // measure 83
1030
0000
0100
0010
0001
0000
1000
0100
1000
0010
0100
0000
0001
0000
0011
0000
,  // measure 84
0000
0000
1000
0100
0010
0000
0001
0000
1000
0001
0100
0000
0010
0000
1010
0000
,  // measure 85
0000
0000
1000
0001
0010
0000
0001
0000
0100
0000
0010
0000
1000
0000
0100
0000
,  // measure 86
0001
0000
1000
0010
0100
0010
1000
0010
0100
0010
1000
0010
0100
0010
1000
0010
,  // measure 87
0100
0000
0001
0000
0010
0001
0100
0000
0010
1000
0100
0000
0000
0000
2002
0000
,  // measure 88
3003
0000
0010
0100
0001
0000
0100
0000
0010
1000
0100
0010
0001
0000
1000
0000
,  // measure 89
0001
0100
1000
0100
0001
0000
0010
0001
0100
0000
0010
1000
0100
0000
0011
0000
,  // measure 90
0000
0000
1000
0000
0010
0001
0010
0000
1000
0100
0001
0000
0000
0000
1100
0000
,  // measure 91
0000
0000
0110
0000
0110
0000
0001
1000
0001
0000
0100
0000
0010
0000
1010
0000
,  // measure 92
1000
0000
0100
0000
0010
0001
0100
0000
0010
1000
0100
1000
0001
0100
0001
0000
,  // measure 93
0010
0000
0100
0000
1000
0000
0001
0000
0010
0100
0010
0001
0010
0100
0010
0000
,  // measure 94
0000
0000
0001
1000
0001
1000
0001
0010
0100
1000
0100
0000
0010
0001
0100
0000
,  // measure 95
0010
0100
0001
0000
1000
0000
1000
0000
0110
0000
0110
0000
0001
0000
0010
0000
,  // measure 96
0100
0000
1000
0100
1000
0010
0100
0001
0010
0001
0100
0010
1000
0000
0001
0000
,  // measure 97
0101
0000
0101
0000
0000
0000
0010
0000
1000
0100
0010
0001
0010
0100
1000
0001
,  // measure 98
1000
0000
0001
0000
0100
0000
0010
0000
0101
0000
0101
0000
0010
0000
1000
0100
,  // measure 99
1000
0000
0001
0010
0001
0100
0010
1000
0100
0010
0001
1000
0001
0000
0100
0000
,  // measure 100
0010
0000
1000
0000
0010
0000
0100
0000
0001
0010
0100
0000
1000
0100
0010
0000
,  // measure 101
0001
0000
0100
0000
0010
1000
0100
1000
0001
0010
0001
0100
0010
0000
2000
0000
,  // measure 102
3000
1001
1001
0110
0110
2002
0000
3003
,  // measure 103
0001
0000
0010
1000
0010
0000
0001
0100
0010
0100
0001
0000
0000
0000
1001
0000
,  // measure 104
0000
0000
1000
0000
1000
0000
0010
0000
0100
0010
0001
0010
0100
0000
0020
0000
,  // measure 105
0000
0000
1030
0000
0100
0000
0001
0000
0100
0000
1000
0010
1000
0000
0001
0000
,  // measure 106
0100
0000
0010
1000
0010
1000
0100
0000
0010
0000
0001
0100
0010
0000
1000
0000
,  // measure 107
0010
0000
0100
0000
0001
0000
0010
0100
1000
0000
0010
1000
0100
0010
0001
0000
,  // measure 108
0100
0010
0100
1000
0100
0010
0100
1000
0100
0010
0100
1000
0100
0000
0010
0000
,  // measure 109
0001
1000
0010
1000
0001
1000
0010
1000
0001
1000
0010
1000
0001
1000
0020
0000
,  // measure 110
0000
0100
0000
0000
0100
0000
0000
0000
,  // measure 111
1000
0000
0001
0031
0000
1000
0000
0100
,  // measure 112
0000
1000
0100
1000
0100
0000
1000
0000
,  // measure 113
0001
0100
0001
0100
0001
1000
0000
2020
,  // measure 114
0000
0000
0000
3030
0000
0000
0000
0000
;
