#TITLE:轟け!恋のビーンボール!!;
#SUBTITLE:;
#ARTIST:ダイナミック野球兄弟 v.s. クロスファイヤーPrim;
#TITLETRANSLIT:Todoroke! Koi no beanball!!;
#SUBTITLETRANSLIT:;
#ARTISTTRANSLIT:;
#GENRE:;
#CREDIT:;
#BANNER:Todoroke! Koi no beanball!!.png;
#BACKGROUND:Todoroke! Koi no beanball!!-bg.png;
#LYRICSPATH:;
#CDTITLE:;
#MUSIC:Todoroke! Koi no beanball!!.ogg;
#OFFSET:0.000000;
#SAMPLESTART:70.694954;
#SAMPLELENGTH:15.000000;
#SELECTABLE:YES;
#DISPLAYBPM:180.000000;
#BPMS:0.000000=180.000000
;
#STOPS:
;
#BGCHANGES:;
#KEYSOUNDS:;
#ATTACKS:;

//---------------dance-single - ----------------
#NOTES:
     dance-single:
     :
     Beginner:
     3:
     0.201516,0.288372,0.026784,0.071423,0.000000,158.000000,155.000000,3.000000,8.000000,0.000000,0.000000,0.201516,0.288372,0.026784,0.071423,0.000000,158.000000,155.000000,3.000000,8.000000,0.000000,0.000000:
0000
0000
0000
0000
,
0000
0000
0000
0000
,
0000
0000
0000
0000
,
0000
0000
0000
0000
,
0000
0000
0000
0000
,
0000
0000
0000
0000
,
0000
0000
0000
0000
,
0000
0000
0000
0000
,
0000
0000
0000
0000
,
1000
0000
1000
0000
,
0001
0000
0001
0000
,
1000
0000
1000
0000
,
0001
0000
0001
0000
,
0100
0000
0010
0000
,
0100
0100
0100
0000
,
0001
0000
1000
0000
,
1001
0000
0000
0000
,
1000
0000
1000
0000
,
0100
0100
0100
0000
,
0001
0000
0001
0000
,
0020
0000
0030
0000
,
0001
0000
0001
0000
,
0100
0100
0100
0000
,
1001
0000
1001
0000
,
1000
0001
1000
0000
,
0010
0000
0010
0000
,
0001
0001
0001
0000
,
0010
0000
0010
0000
,
2000
0000
3000
0000
,
0100
0000
0100
0000
,
0001
0001
0001
0000
,
0100
0000
0100
0000
,
1000
1000
1000
0000
,
2000
0000
3000
0000
,
0100
0100
0100
0000
,
0002
0000
0003
0000
,
0100
0100
0100
0000
,
2000
0000
3000
0000
,
0010
0010
0010
0000
,
0002
0000
0003
0000
,
0010
0010
0010
0000
,
1000
0000
1000
0000
,
0010
0000
0010
0000
,
1000
0000
1000
0000
,
0001
0000
0000
0000
,
0100
0000
0100
0000
,
0001
0000
0001
0000
,
0010
0000
0010
0000
,
0020
0000
0030
0000
,
1000
0000
1000
0000
,
0001
0000
0001
0000
,
1000
1000
1000
0000
,
0001
0001
0001
0000
,
0100
0000
0100
0000
,
0010
0010
0010
0000
,
1000
0000
1000
0000
,
1000
1000
1000
0000
,
0001
0000
0001
0000
,
0100
0100
0100
0000
,
0010
0010
0010
0010
,
0010
0000
0000
0000
,
0001
0000
0001
0000
,
1000
1000
1000
0000
,
0010
0000
0010
0000
,
0010
0010
0010
0000
,
0001
0000
0001
0000
,
0100
0100
0100
0000
,
0010
0010
0010
0010
,
0010
0000
0000
0000
,
1000
0000
1000
0000
,
0001
0000
0001
0000
,
1000
0000
1000
0000
,
0001
0000
0001
0000
,
1000
0000
0001
0000
,
1000
0000
0100
0000
,
0001
0000
0100
0000
,
0020
0000
0000
0030
,
0000
0000
0000
0000
,
0100
0000
0100
0000
,
0100
0000
0100
0000
,
0001
0001
1000
1000
,
0000
0000
0000
0000
;

//---------------dance-single - ----------------
#NOTES:
     dance-single:
     :
     Easy:
     7:
     0.357117,0.577637,0.491036,0.071423,0.000000,280.000000,225.000000,55.000000,8.000000,0.000000,0.000000,0.357117,0.577637,0.491036,0.071423,0.000000,280.000000,225.000000,55.000000,8.000000,0.000000,0.000000:
0000
0000
0000
0000
,
0000
0000
0000
0000
,
0000
0000
0000
0000
,
0000
0000
0000
0000
,
0000
0000
0000
0000
,
0000
0000
0000
0000
,
0000
0000
0000
0000
,
0000
0000
0000
0000
,
0000
0000
0000
0000
,
0010
0100
0001
0100
,
0010
1000
0100
0010
,
0100
1000
0001
0100
,
0001
1000
0100
0010
,
0110
0000
0001
1000
,
1001
1001
0110
0000
,
1000
0000
0001
0000
,
0100
0010
1001
0000
,
0001
0000
0001
0000
,
0001
0100
1000
0000
,
1000
0000
1000
0000
,
1000
0100
0010
0001
,
0010
0000
0010
0000
,
0100
0001
1000
0001
,
1001
0000
1001
0000
,
0100
0010
1001
0000
,
1000
0000
1000
0000
,
0001
0010
1000
0000
,
0001
0000
0001
0000
,
0010
0001
0100
0010
,
1000
0000
0001
0000
,
0100
0100
0100
0000
,
1000
0100
0001
0010
,
1000
1000
1000
1000
,
0001
0001
0100
0000
,
1000
1000
0100
0000
,
0001
0001
0010
0000
,
1000
1000
0010
0000
,
0001
0001
1001
0000
,
0100
0100
0110
0000
,
1000
1000
1001
0000
,
0010
0010
0110
0000
,
0001
0100
0001
1000
,
0100
1000
0001
0000
,
1000
0000
0001
0000
,
0100
0010
0001
0010
,
0100
0100
1001
0000
,
0010
0100
0110
0000
,
0001
0100
1000
0100
,
1000
0010
0001
0010
,
0110
0000
1001
0000
,
0110
0000
1001
0000
,
0110
0110
1001
1001
,
0110
0110
2002
3003
,
1000
1001
1000
0110
,
0001
0100
1001
0000
,
0010
0001
0100
0010
,
1001
1001
0110
0000
,
0010
1000
0100
0001
,
1000
0010
0001
0100
,
0010
0010
0010
0010
,
0110
1001
0110
1001
,
0010
0110
0010
1001
,
0010
1000
1001
0000
,
0100
0001
0010
0100
,
0110
0110
1001
0000
,
0010
0010
0100
0001
,
0010
0010
0100
1000
,
0001
0100
0010
0110
,
2002
3003
1001
1001
,
0020
0000
0100
0030
,
0001
0001
1001
0000
,
0200
0000
0010
0300
,
1000
1000
1001
0000
,
0001
0000
0010
0000
,
0100
0000
1000
0000
,
0010
0000
0100
0100
,
0220
0000
0000
0000
,
0000
0000
0000
0330
,
0001
0100
0010
1000
,
1001
1001
0110
0110
,
1001
0000
0110
0000
1001
0000
0100
0010
,
0000
0000
0000
0000
;

//---------------dance-single - ----------------
#NOTES:
     dance-single:
     :
     Medium:
     11:
     0.548430,0.577637,0.651739,0.089279,0.035712,430.000000,357.000000,73.000000,10.000000,0.000000,0.000000,0.548430,0.577637,0.651739,0.089279,0.035712,430.000000,357.000000,73.000000,10.000000,0.000000,0.000000:
// measure 0
0000
0000
0000
0000
,  // measure 1
0000
0000
0000
0000
,  // measure 2
0000
0000
0000
0000
,  // measure 3
0000
0000
0000
0000
,  // measure 4
0000
0000
0000
0000
,  // measure 5
0000
0000
0000
0000
,  // measure 6
0000
0000
0000
0000
,  // measure 7
0000
0000
0000
0000
,  // measure 8
0000
0000
0000
0000
,  // measure 9
1001
0000
1000
0010
0000
1000
0010
1000
,  // measure 10
0001
0000
0001
0100
0000
0001
0100
0001
,  // measure 11
1000
0000
1000
0100
0000
1000
0100
1000
,  // measure 12
0001
0000
0001
0010
0000
0001
1000
0000
,  // measure 13
1000
0100
1000
0100
1000
0000
1010
0000
,  // measure 14
0000
0100
0010
0100
0010
0000
0101
0000
,  // measure 15
0001
0010
0001
0010
0001
0000
0110
0000
,  // measure 16
0000
1000
0100
0010
0001
0000
1001
0000
,  // measure 17
0010
0100
0010
0101
,  // measure 18
1000
0000
0100
0001
1000
0000
0001
1000
,  // measure 19
0001
0000
0100
0001
0010
0000
1000
0100
,  // measure 20
2000
0000
0001
0000
3010
0000
0100
0001
,  // measure 21
0010
0000
0001
1000
0100
0000
0010
0000
,  // measure 22
0011
0000
0001
0100
0010
0000
1001
0000
,  // measure 23
1100
0000
0000
0001
0001
0000
0000
0101
,  // measure 24
0000
0010
0100
0010
0100
0000
0110
0000
,  // measure 25
1000
0010
0001
0101
,  // measure 26
0010
0000
1000
0001
0100
0000
0010
0010
,  // measure 27
0100
0000
1000
0000
0001
0100
1000
0100
,  // measure 28
0002
0000
1000
0000
0013
0000
0100
0010
,  // measure 29
1001
0100
1000
0100
,  // measure 30
1001
0000
0010
0100
0001
0000
0010
0000
,  // measure 31
0001
0100
0001
0100
0001
0100
0001
0000
,  // measure 32
1000
0100
1000
0100
1000
0000
0100
0000
,  // measure 33
0010
0010
1100
0011
,  // measure 34
0010
0000
0001
0100
0000
0100
0010
0000
0000
0000
0000
0000
,  // measure 35
0010
0010
0101
1010
,  // measure 36
0010
0000
1000
0100
0000
0100
0010
0000
0000
0000
0000
0000
,  // measure 37
1001
1001
0011
1100
,  // measure 38
0001
0000
1000
0010
0000
0010
0100
0000
0000
0000
0000
0000
,  // measure 39
1001
1001
0101
1010
,  // measure 40
0001
0000
0010
0100
0000
1000
0001
0000
0000
0100
0000
0000
,  // measure 41
0010
1000
0001
0000
0100
0010
1000
0000
,  // measure 42
0001
0000
0010
0100
0100
0000
0000
0001
,  // measure 43
0100
0000
0000
1000
0100
0000
0001
0000
,  // measure 44
0100
0000
0010
0100
0010
0000
1001
0000
,  // measure 45
0010
0001
0000
0001
1000
0000
1010
0000
,  // measure 46
0010
0100
0000
0100
0001
0000
0011
0000
,  // measure 47
0100
0000
1000
0000
,  // measure 48
0010
1001
0100
0010
,  // measure 49
0001
0101
0000
0000
0100
1100
0000
0000
,  // measure 50
1000
1010
0000
0000
0010
0011
0000
0000
,  // measure 51
0001
0100
0010
1000
0100
0010
0001
1000
,  // measure 52
0010
0100
0010
0100
0010
0000
0000
0000
,  // measure 53
0010
1000
0010
1000
0010
0000
0100
0000
,  // measure 54
2010
0001
3100
0010
,  // measure 55
0101
0000
1000
0010
2010
0000
3001
0000
,  // measure 56
1000
0100
1000
0100
1000
0000
0001
1000
,  // measure 57
1001
0000
0001
0000
1000
0010
0100
0000
,  // measure 58
0001
0100
1000
0100
0010
0000
1000
0000
,  // measure 59
1010
0101
0011
1100
,  // measure 60
1000
0001
1000
0001
1000
0000
1001
0000
,  // measure 61
0010
0001
0010
0001
0010
0000
0001
0000
,  // measure 62
0201
0000
0010
0000
1300
0000
0100
0001
,  // measure 63
0102
0000
1003
0000
0010
1000
0100
0000
,  // measure 64
1000
0010
1000
0010
1000
0000
0100
0000
,  // measure 65
1100
0000
0010
0001
0001
1000
0010
0000
,  // measure 66
0101
0000
1000
0010
0010
0100
0001
0000
,  // measure 67
1000
0001
1000
0001
1000
0001
1000
0000
,  // measure 68
0220
0330
1100
1010
,  // measure 69
1001
1001
0011
0000
,  // measure 70
1001
1001
1100
0000
,  // measure 71
1010
1010
1001
0101
,  // measure 72
0011
0011
1001
0000
,  // measure 73
1010
0101
0010
1000
,  // measure 74
1100
0011
0001
1000
,  // measure 75
1100
0110
0011
0101
,  // measure 76
0220
0000
0000
0000
,  // measure 77
0000
0000
0000
0330
,  // measure 78
1000
0010
1000
0010
1000
0010
1000
0000
,  // measure 79
0001
0010
0001
0010
0001
0010
0001
0000
,  // measure 80
1000
0100
0010
0001
0100
0010
0100
0110
;

//---------------dance-single - ----------------
#NOTES:
     dance-single:
     :
     Hard:
     16:
     0.807340,1.119172,0.535676,0.008928,0.486572,633.000000,573.000000,60.000000,1.000000,0.000000,0.000000,0.807340,1.119172,0.535676,0.008928,0.486572,633.000000,573.000000,60.000000,1.000000,0.000000,0.000000:
// measure 0
0000
0000
0000
0000
,  // measure 1
0000
0000
0000
0000
,  // measure 2
0000
0000
0000
0000
,  // measure 3
0000
0000
0000
0000
,  // measure 4
0000
0000
0000
0000
,  // measure 5
0000
0000
0000
0000
,  // measure 6
0000
0000
0000
0000
,  // measure 7
0000
0000
0000
0000
,  // measure 8
0000
0000
0000
0000
,  // measure 9
0001
0100
1000
0001
0010
0001
1000
0100
,  // measure 10
0001
0010
1000
0001
0100
0001
1000
0010
,  // measure 11
0001
1000
0010
0001
1000
0100
1000
0001
,  // measure 12
0010
1000
0100
0001
1000
0010
1000
0001
,  // measure 13
0100
0000
1000
0001
1000
0000
0001
0000
0011
0000
0100
0000
0100
0000
0110
0000
,  // measure 14
0000
1000
1000
0010
1001
0100
0010
0000
,  // measure 15
0010
0000
0001
1000
0001
0000
0100
0000
0110
0000
0010
0000
1000
0000
1001
0000
,  // measure 16
0000
0100
1000
0001
1001
0000
1001
0000
,  // measure 17
0100
0010
1000
0100
0010
1000
0010
0100
,  // measure 18
1000
0010
1000
0100
0010
0100
1000
0010
,  // measure 19
1000
0000
0100
0010
0100
0000
1000
0000
0010
0000
0100
1000
0100
0000
0010
0000
,  // measure 20
1000
0000
0100
1000
0100
0000
0010
0100
0010
0000
0001
0010
0001
0000
1000
0000
,  // measure 21
1001
0000
0010
0001
0001
0000
1000
0000
,  // measure 22
0001
0000
0100
0010
0100
0000
0010
0000
0100
0000
0001
0000
1000
0000
0001
0000
,  // measure 23
0101
0000
0000
1100
1100
0000
0000
1001
,  // measure 24
0000
0000
0110
0000
1000
0000
0001
0000
0100
0000
0010
1000
0001
0000
1000
0001
,  // measure 25
0010
0100
0001
0100
0010
0001
0100
0010
,  // measure 26
0001
0010
0100
0001
0010
0100
0001
0100
,  // measure 27
0010
0000
0001
0010
0001
0000
0100
0000
0001
0000
0100
0010
0100
0000
0001
0000
,  // measure 28
0010
0000
0001
0010
0001
0000
0010
0100
0010
0000
0100
1000
0100
0000
1000
0000
,  // measure 29
1100
0101
0011
1010
,  // measure 30
0110
0000
0000
0010
0100
0000
0010
0000
0100
0000
0001
0000
1000
0000
0001
0000
,  // measure 31
1000
0100
0100
0010
0001
0100
0100
0010
,  // measure 32
1000
0100
1000
0001
0100
0001
1000
0100
1000
0000
0001
1000
0001
0000
1000
0000
,  // measure 33
0001
0100
1000
0010
,  // measure 34
0001
0000
0100
0101
0000
0100
1100
0001
0010
0001
1000
0010
,  // measure 35
1000
0100
0001
0010
,  // measure 36
1000
0000
0100
1100
0000
0100
0101
1000
0010
1000
0001
0010
,  // measure 37
0001
0100
0110
1001
,  // measure 38
0110
0000
1000
1100
0000
0001
0101
0010
1000
0010
0100
0001
,  // measure 39
0100
0001
1001
0110
,  // measure 40
1000
1000
0010
0100
0100
0001
0010
0010
0100
0100
1000
1000
,  // measure 41
0001
0000
0100
0000
0001
0010
0001
0000
,  // measure 42
1000
0000
0010
0000
1000
0000
0100
0000
1000
0000
0000
0000
0001
0000
1000
0100
,  // measure 43
0010
0000
0000
0000
0100
0000
1000
0100
0010
0000
0000
0000
0100
0000
1000
0100
,  // measure 44
0010
0000
0010
0001
0100
0000
0010
0000
,  // measure 45
0001
0010
1000
0100
0010
0000
0110
0000
,  // measure 46
1000
0010
0001
0100
0010
0000
0110
0000
,  // measure 47
1000
0100
0000
0001
0100
0000
0010
0000
,  // measure 48
0100
1000
0000
0100
0001
0000
0100
0000
,  // measure 49
0011
1001
0000
0000
1100
1001
0000
0000
,  // measure 50
0101
1001
0000
0000
1010
1001
0000
0000
,  // measure 51
0101
0101
0010
0100
1100
1100
0010
0100
,  // measure 52
1001
0000
1001
0000
0100
0000
0010
0000
1000
0001
1000
0001
1000
0000
0010
0000
,  // measure 53
1001
0100
0010
0100
0010
1000
0001
0010
,  // measure 54
0100
0000
0001
0100
0001
0000
0001
0100
0001
0000
0100
0000
1000
0000
0001
0000
,  // measure 55
0100
1000
0100
0001
0010
0001
1000
0100
,  // measure 56
0010
0000
0001
0100
0010
0000
0100
0010
1000
0000
0001
0000
1000
0000
0100
0000
,  // measure 57
1100
0000
1001
0100
0010
0001
0010
1000
,  // measure 58
0001
0010
1000
0010
0001
0100
0101
0000
,  // measure 59
1000
0001
0100
1000
0001
0010
0001
0010
,  // measure 60
1000
0000
0010
1000
0010
1000
0001
0100
0001
1000
0100
1000
0001
0000
0010
0100
,  // measure 61
1000
0001
1000
0001
1000
0010
0100
0001
,  // measure 62
0010
0000
1000
0010
1000
0000
1000
0010
1000
0000
0010
0000
0001
0000
0100
0000
,  // measure 63
1000
0100
0010
1000
0100
1000
0001
0010
,  // measure 64
0100
0000
0001
0100
0010
0000
0100
0010
1000
0000
0001
0100
0001
0100
1000
0100
,  // measure 65
1000
0000
0000
0000
1001
0000
0010
0000
0100
0000
1000
0100
1000
0100
0010
0000
,  // measure 66
0110
0000
0000
0000
0010
0000
0001
0000
0100
0000
0001
0100
0001
0100
0010
0000
,  // measure 67
1001
0100
0010
1000
0100
0010
0100
0010
,  // measure 68
0001
0100
0001
1000
0100
1000
0001
0010
0001
1000
0010
1000
0001
0100
0010
1000
,  // measure 69
0001
0000
0000
0010
0010
0100
0100
0000
0000
0001
0010
0100
,  // measure 70
1000
0000
0000
0010
0010
0100
0100
0000
0000
0001
0000
1000
,  // measure 71
0010
0000
0000
0100
0100
0010
0010
0000
0000
1000
0000
0000
,  // measure 72
0011
0000
0101
0000
1100
0000
1010
0001
,  // measure 73
0100
0000
0010
1000
0001
1000
0010
0000
,  // measure 74
0100
0000
0000
0000
0000
0000
0010
0000
0000
1000
0000
0000
0100
0000
0000
0000
0000
0000
0010
0000
0000
0000
0010
0000
,  // measure 75
0001
0000
0000
0000
0100
0000
0000
0000
0010
0000
0000
0000
0100
0000
0000
0000
0001
0000
0000
0000
0100
0000
0000
0000
0010
0000
0000
0000
0100
0000
0000
0000
0001
0000
0000
0000
0010
0000
0000
0100
0000
0000
0010
0000
0000
0100
0000
0000
,  // measure 76
0020
0001
0001
0100
,  // measure 77
0100
1000
1000
0130
,  // measure 78
0001
0001
0100
0010
1000
1000
0100
0010
,  // measure 79
0001
1000
0001
1000
0010
0100
0010
0100
0001
0100
0010
1000
0001
0010
0100
1000
,  // measure 80
0010
0000
0110
0000
0101
0000
1001
0000
1100
0000
1000
0100
0010
0001
1000
0000
;

//---------------dance-double - ----------------
#NOTES:
     dance-double:
     :
     Easy:
     6:
     0.307376,0.433228,0.178559,0.098207,0.000000,241.000000,221.000000,20.000000,11.000000,0.000000,0.000000,0.307376,0.433228,0.178559,0.098207,0.000000,241.000000,221.000000,20.000000,11.000000,0.000000,0.000000:
00000000
00000000
00000000
00000000
,
00000000
00000000
00000000
00000000
,
00000000
00000000
00000000
00000000
,
00000000
00000000
00000000
00000000
,
00000000
00000000
00000000
00000000
,
00000000
00000000
00000000
00000000
,
00000000
00000000
00000000
00000000
,
00000000
00000000
00000000
00000000
,
00000000
00000000
00000000
00000000
,
01000000
10000000
00010000
01000000
,
00001000
00010000
00000100
00001000
,
00000010
00000001
00001000
00000010
,
00010000
00001000
00100000
00010000
,
10000000
01000000
00100000
00010000
,
00001000
00010000
00001000
00010000
,
00001000
00000100
00000010
00000001
,
00001000
00000001
00001001
00000000
,
00000010
00000010
00000100
00000100
,
00000010
00000100
00000010
00000000
,
00001000
00000100
00000010
00001000
,
00010000
00001000
00010000
00000000
,
00001000
00001000
01000000
00000000
,
10000000
10000000
01000000
00100000
,
01100000
00000000
10010000
00000000
,
01100000
10010000
10010000
00000000
,
00100000
10000000
00100000
00010000
,
00100000
01000000
00100000
00000000
,
00010000
00010000
10000000
01000000
,
00010000
00001000
00010000
00000000
,
00000100
00010000
00000100
00000100
,
00001000
00000010
00000100
00000001
,
00000100
00000010
00000100
00001000
,
00010000
00010000
00010000
00010000
,
00011000
00000000
00011000
00000000
,
00100000
01000000
00100000
00000000
,
00011000
00000000
00011000
00000000
,
00000010
00000100
00000010
00000000
,
00011000
00000000
00011000
00000000
,
01000000
00100000
01000000
00000000
,
00011000
00000000
00011000
00000000
,
00000100
00000010
00000100
00000000
,
00001000
00010000
01000000
00010000
,
01000000
10000000
00010000
00000000
,
01000000
00000000
00100000
00000000
,
10000000
00100000
00010000
00000000
,
00001000
00010000
00100000
00000000
,
00010000
00001000
00000100
00000000
,
00000001
00000000
00001000
00000000
,
00000010
00000100
00000010
00000000
,
00000001
00000000
00000010
00000000
,
00000100
00000000
00001000
00000000
,
00010000
00100000
01000000
10000000
,
00010000
10000000
00010000
00000000
,
10000000
10000000
00010000
00010000
,
10000000
01000000
00010000
00000000
,
00001000
00010000
00001000
00000000
,
00001000
00000100
00000001
00000000
,
00000010
00000100
00001000
00000010
,
00000100
00000001
00000010
00001000
,
00010000
00010000
00010000
00010000
,
00022000
00000000
00000000
00033000
,
00010000
00010000
00001000
00001000
,
00100000
01000000
10000000
00000000
,
00010000
00000000
00010000
00000000
,
10000000
00100000
00010000
00000000
,
00001000
00000000
00010000
00000010
,
00001000
00000000
00000001
00000100
,
00000010
00000010
00000010
00000010
,
00000220
00000330
00001000
00000001
,
00002002
00000000
00000000
00003003
,
00000220
00000000
00000000
00000330
,
00002000
00000000
00023000
00000000
,
00031000
00010000
01000000
10000000
,
10010000
00000000
01000000
00000000
,
10010000
00000000
00100000
00000000
,
01000000
00000000
00010000
00010000
,
00002000
00000000
00000000
00000000
,
00000000
00000000
00000000
00003000
,
00001000
00010000
00001000
00010000
,
00000010
00001000
00000010
00001000
,
00000001
00000000
00000100
00000000
00001000
00000000
00010000
00010000
,
00000000
00000000
00000000
00000000
;

//---------------dance-double - ----------------
#NOTES:
     dance-double:
     :
     Medium:
     11:
     0.471905,0.541535,0.276766,0.285694,0.035712,370.000000,339.000000,31.000000,32.000000,0.000000,0.000000,0.471905,0.541535,0.276766,0.285694,0.035712,370.000000,339.000000,31.000000,32.000000,0.000000,0.000000:
00000000
00000000
00000000
00000000
,
00000000
00000000
00000000
00000000
,
00000000
00000000
00000000
00000000
,
00000000
00000000
00000000
00000000
,
00000000
00000000
00000000
00000000
,
00000000
00000000
00000000
00000000
,
00000000
00000000
00000000
00000000
,
00000000
00000000
00000000
00000000
,
00000000
00000000
00000000
00000000
,
00100000
00000000
10000000
00010000
00000000
00100000
10000000
00000000
,
00100000
00000000
01000000
00010000
00000000
00001000
00100000
00000000
,
00010000
00000000
00001000
00000100
00000000
00010000
00000010
00000000
,
00000100
00000000
00000001
00001000
00000000
00000010
00000100
00000000
,
00000001
00000000
00000100
00000000
00000010
00001000
00000100
00010000
,
00000000
00001000
00100000
00010000
01000000
00000000
00100000
00000000
,
10000000
00000000
01000000
00000000
00100000
00001000
01000000
00010000
,
00000000
00100000
00001000
00010000
00000100
00000000
00000010
00000000
,
00000002
00000100
00002003
00000100
,
00003010
00000000
00010000
00001000
00010000
00000000
00001000
00010000
,
02000000
00000000
13000000
00000000
00100000
00000000
00010000
00001000
,
00010000
00000000
01000000
00000000
10010000
00000000
00100000
01000000
,
00020000
01000000
20030000
01000000
,
30010000
01000000
00010000
01000000
00010000
00000000
00100000
00000000
,
00110000
00000000
00000000
00001000
00011000
00000000
00000000
00001010
,
00000000
00000100
00000010
00000100
00000010
00000000
00001000
00000000
,
00000200
00010000
00002300
00010000
,
00003100
00000000
00000010
00000001
00000100
00000000
00001000
00000100
,
00000001
00000000
00000010
00000000
00000100
00010000
00001000
00100000
,
00020000
00000000
10000000
00000000
00130000
00000000
01000000
10000000
,
00200000
00001000
00320000
00001000
,
01030000
10000000
01000000
00100000
00010000
00000000
01000000
00000000
,
10100000
10000000
01010000
00010000
,
10000000
10000000
01000000
00010000
00001000
00000000
00100000
00001000
,
00020000
00001000
01000000
01000000
,
00031000
00000000
00010000
00001000
00000000
00001000
00000100
00000000
00000000
00000010
00000000
00000000
,
00001001
00001001
00000010
00000100
,
00001000
00000000
00001000
00000001
00000000
00000001
00000010
00000000
00000000
00000100
00000000
00000000
,
00001100
00001100
00010000
00001000
,
00010000
00000000
00001000
00010000
00000000
00010000
00100000
00000000
00000000
01000000
00000000
00000000
,
01100000
01100000
10010000
10010000
,
00100000
00000000
10000000
00010000
00000000
00100000
02000000
00000000
00000000
00000000
00000000
00000000
,
13000000
01000000
00010000
00000000
10000000
01000000
00010000
00000000
,
10000000
01000000
00010000
00001000
00010000
00000000
00001000
00000000
,
00000010
00001000
00010000
00100000
,
00010000
00001000
00010000
00000000
,
00000010
00000000
00000100
00000100
00001000
00000000
00000000
00000000
,
01000000
00000000
00100000
00100000
00010000
00000000
00000000
00000000
,
00002000
00000000
00003002
00000000
,
00000103
00000100
00000010
00000000
,
00000001
00000010
00000000
00000000
00000100
00001000
00000000
00000000
,
00010000
00100000
00000000
00000000
01000000
10000000
00000000
00000000
,
10000000
00100000
00010000
00000000
00001000
00000100
00000001
00000000
,
00000010
00001000
00010000
01000000
20000000
00000000
30000000
00000000
,
10100000
00000000
00100000
10000000
01000000
00000000
00010000
00000000
,
01002000
00010000
00000200
00003300
,
00000001
00000000
00000021
00000000
00001030
00000001
00000100
00000000
,
00001000
00000100
00010000
00001000
00100000
00000000
00010000
01000000
,
10000000
01000000
01200000
00010000
,
00301000
00100000
00010000
00100000
10000000
00000000
01000000
00000000
,
01100000
00000000
10000000
01000000
00100000
00010000
01000000
00001000
,
00020000
00100000
00001000
00030100
,
00001100
00000000
00000010
00000001
00000100
00000000
00001000
00000000
,
00020010
00001000
00200000
00330000
,
10000000
00000000
10000000
00010000
01000000
00000000
01000000
00010000
,
00001000
00000000
00001000
00000100
00000001
00000000
00000100
00000000
,
00000020
00000000
00000100
00000000
00000031
00000010
00001000
00000000
,
00020000
00000000
00000100
00000000
00031000
00010000
01000000
00000000
,
10000000
00010000
10000000
00010000
10000000
00010000
10000000
00010000
,
00200000
00000000
00001000
00010000
,
02300000
00000000
00100000
00000000
,
13000000
01010000
11000000
00000000
,
20010000
00000000
00100000
00100000
,
32000000
00000000
10000000
00000000
00100000
00000000
03010000
00001000
,
00010000
00000000
00000100
00000000
00001000
00000001
00001000
00000000
,
00000110
00000000
00001100
00000000
00010100
00000000
00001000
00100000
,
00001000
00000000
00101000
00011000
,
00020020
00000000
00000000
00000000
,
00000000
00000000
00000000
00030030
,
00001000
00100000
10000000
00100000
,
00010000
00100000
00010000
00100000
00002000
00000000
00023000
00000000
,
00030100
00001000
00000010
00000100
00000001
00000100
00001000
00011000
,
00000000
00000000
00000000
00000000
;

//---------------dance-double - ----------------
#NOTES:
     dance-double:
     :
     Hard:
     16:
     0.775455,1.010865,0.312478,0.053568,0.441933,608.000000,573.000000,35.000000,6.000000,0.000000,0.000000,0.775455,1.010865,0.312478,0.053568,0.441933,608.000000,573.000000,35.000000,6.000000,0.000000,0.000000:
00000000
00000000
00000000
00000000
,
00000000
00000000
00000000
00000000
,
00000000
00000000
00000000
00000000
,
00000000
00000000
00000000
00000000
,
00000000
00000000
00000000
00000000
,
00000000
00000000
00000000
00000000
,
00000000
00000000
00000000
00000000
,
00000000
00000000
00000000
00000000
,
00000000
00000000
00000000
00000000
,
00001000
00000010
00000001
00001000
00000100
00001000
00010000
00001000
,
00010000
01000000
10000000
00010000
00100000
00010000
00001000
00010000
,
00001000
00000100
00000001
00001000
00000010
00001000
00010000
00001000
,
00010000
00100000
10000000
00010000
01000000
00010000
00001000
00010000
,
00011000
00000000
00001000
00010000
00000010
00000000
00000100
00000000
00000001
00000000
00000100
00000000
00000010
00000000
00001000
00000000
,
00000000
00000000
00010000
00000000
00100000
00000000
01000000
00000000
10000000
00000000
01000000
00000000
00100000
00000000
01000000
00100000
,
01000000
00000000
10000000
00010000
10000000
00000000
00100000
00000000
00010000
00000000
00001000
00000000
00000100
00000000
00000001
00000000
,
00000000
00000000
00000001
00000000
00000010
00000000
00001000
00000000
00010000
00001000
00010000
00000000
00011000
00000000
00000000
00000000
,
00001000
00010000
00100000
01000000
00001000
00100000
01000000
00010000
,
00001000
01000000
00010000
00001000
00010000
01000000
00001000
00100000
,
00010000
00000000
01000000
00100000
01000000
00000000
00100000
00000000
00010000
00000000
00001000
01000000
00001000
00000000
00010000
00000000
,
00001000
00000000
00100000
01000000
00100000
00000000
01000000
00010000
01000000
00000000
00010000
00001000
00010000
00000000
00001000
00000000
,
00000010
00000000
00000100
00001000
00000001
00000100
00000010
00000100
,
00000001
00000000
00001000
00000100
00001000
00000000
00000010
00000000
00001000
00000000
00010000
00000000
00100000
00000000
01000000
00000000
,
01100000
00000000
00000000
10010000
10010000
00000000
00000000
11000000
,
00000000
00000000
00100000
00000000
00001000
00000000
00010000
00000000
00000010
00000000
00001000
00000100
00000010
00000000
00000001
00000100
,
00000010
00001000
00000100
00010000
00000010
00001000
00000100
00000010
,
00001000
00010000
00001000
00000100
00001000
00010000
00000010
00000100
,
00001000
00000000
00010000
00001000
00010000
00000000
00000010
00000000
00001000
00000000
00000100
00000010
00000100
00000000
00001000
00000000
,
00000010
00000000
00000100
00000010
00000100
00000000
00000010
00010000
00000010
00000000
00010000
00001000
00010000
00000000
00001000
00000000
,
00011000
00000000
00100000
00000000
10100000
00000000
01000000
10000000
,
10010000
00000000
00000000
00100000
00010000
00000000
01000000
00000000
00010000
00000000
10000000
01000000
10000000
00000000
01000000
00000000
,
00100000
00010000
01000000
00001000
00010000
00000010
00001000
00000100
,
00000010
00000001
00000010
00000001
00001000
00000010
00001000
00000001
00000010
00000000
00000100
00000010
00000100
00000000
00001000
00000000
,
00002100
00010000
00000100
00010000
,
00003100
00000000
00000100
00000010
00000000
00000010
00000100
00010000
00001000
00100000
00010000
01000000
,
00020000
00001000
01000000
00001000
,
01030000
00000000
01000000
00100000
00000000
00100000
01000000
00010000
00100000
00001000
00010000
00000100
,
00002000
00000100
00000001
00000010
,
00013000
00000000
00010000
01000000
00000000
01000000
00100000
01000000
00010000
10000000
00100000
01000000
,
00020000
01000000
10000000
00100000
,
00031000
00000000
00001000
00001000
00000100
00000010
00000100
00001000
00000001
00000100
00000010
00001000
,
00000100
00000000
00000010
00000001
00000100
00000010
00001000
00000100
,
00010000
00000000
00010000
01000000
10000000
00000000
10000000
00100000
,
10000000
00000000
01000000
10000000
01000000
10000000
01000000
00000000
00100000
00000000
00010000
01000000
00010000
01000000
00010000
00000000
,
00100000
00000000
00001000
00010000
00001000
00010000
00001000
00000000
00010000
00000000
00001000
00000000
00010000
00000000
00000000
00000000
,
00011000
00000100
00001000
00010000
00100000
00010000
00001000
00000000
,
00011000
01000000
00010000
00001000
00000010
00001000
00010000
00000000
,
00001000
00010000
00001000
00000000
00000000
00000000
00010000
00000000
00000100
00000000
00000000
00000000
00001000
00000000
00000000
00000000
,
00000010
00000001
00001000
00000100
00000010
00000001
00000100
00000000
,
00001010
00010010
00000000
00000000
00011000
01001000
00000000
00000000
,
00110000
00101000
00000000
00000000
00011000
00010100
00000000
00000000
,
00001001
00000010
00000100
00001000
00010000
00100000
01000000
10000000
,
01000000
00000000
01000000
00000000
01000000
00000000
01000000
00000000
00100000
10000000
00100000
10000000
00010000
00000000
10000000
00000000
,
10010000
01000000
10000000
01000000
00010000
01000000
00010000
01000000
,
00100000
00000000
01000000
00010000
00001000
00000000
00010000
00001000
00000100
00000000
00000010
00000000
00000100
00000000
00000000
00000000
,
00000001
00001000
00000010
00001000
00000100
00010000
00001000
01000000
,
10000000
01000000
00010000
01000000
01100000
00000000
10000000
01000000
,
11000000
00000000
00110000
00100000
00001000
00010000
00000100
00000010
,
00001000
00010000
00100000
01000000
00010000
00100000
00010000
00000000
,
10010000
00000000
00001000
00010000
00100000
01000000
00010000
00100000
,
00001000
00000000
00010000
00001000
00010000
00000000
00000100
00001000
00000100
00001000
00000001
00000010
00000001
00000000
00001000
00000010
,
00000100
00000001
00000100
00000001
00000100
00001000
00000100
00001000
,
00010000
00000000
00001000
00010000
00100000
00000000
00100000
01000000
00100000
00000000
00000000
00000000
00100000
00000000
10000000
00000000
,
01000000
00100000
00001000
00100000
00010000
01000000
00010000
00100000
,
01000000
00000000
00010000
00000000
00001000
00000000
00010000
00000000
00000100
00000000
00000010
00000100
00000010
00000000
00000001
00001000
,
00000001
00000001
00000010
00000100
00001100
00000010
00010000
00001000
,
00011000
00001000
01000000
00010000
00110000
01000000
10000000
00100000
,
10000000
00000000
10000000
00100000
10000000
00000000
01000000
00000000
00100000
00000000
00100000
01000000
00100000
00000000
00010000
00000000
,
01000000
00010000
01000000
00010000
01000000
00001000
01000000
00001000
00010000
00001000
00010000
00000100
00001000
00000100
00000010
00000001
,
00000020
00000000
00000000
00000100
00000000
00000000
00000130
00000000
00000000
00001000
00000001
00001000
,
00000001
00000000
00000000
00000100
00000000
00000000
00000100
00000000
00000000
00001000
00000000
00010000
,
00001000
00000000
00000000
00001000
00010000
01000000
10000000
00000000
00000000
01000000
00000000
00000000
,
10000000
00010000
00001000
00000001
,
00001001
00000000
00000100
00000010
00000100
00000010
00000100
00000000
,
00001100
00000000
00000010
00001000
00000100
00000000
00000010
00000000
,
00000001
00000100
00000010
00001000
00000010
00000100
00001000
00010000
01000000
00100000
00010000
10000000
,
00020000
00100000
00100000
00001000
,
00001000
00100000
00100000
10000000
,
10030000
01000000
00100000
00010000
01000000
00001000
00010000
00000010
,
00000100
00000001
00001000
00000010
00001000
00000100
00010000
00001000
01000000
00010000
10000000
00100000
01000000
00010000
10000000
00000000
,
10010000
10010000
00100000
01000000
01100000
00010000
00001000
00000110
,
00000000
00000000
00000000
00000000
;

//---------------dance-single - ----------------
#NOTES:
     dance-single:
     :
     Challenge:
     17:
     0.975696,1.158846,0.857082,0.205342,0.696379,765.000000,669.000000,96.000000,23.000000,0.000000,0.000000,0.975696,1.158846,0.857082,0.205342,0.696379,765.000000,669.000000,96.000000,23.000000,0.000000,0.000000:
// measure 0
0000
0000
0000
0000
,  // measure 1
0000
0000
0000
0000
,  // measure 2
0000
0000
0000
0000
,  // measure 3
0000
0000
0000
0000
,  // measure 4
0000
0000
0000
0000
,  // measure 5
1001
0011
0110
1100
,  // measure 6
1001
0000
0000
0000
0000
0000
0000
0000
0000
0000
0000
0000
0001
0000
0000
0000
0010
0000
0000
0000
0001
0000
0000
0000
0100
0000
0000
0000
0000
0000
0010
0000
0000
0100
0000
0000
0010
0000
0000
0000
0000
0000
1000
0000
0000
0000
0000
0000
,  // measure 7
0100
0010
0001
0010
0100
0000
1000
0000
0001
0000
0010
0001
0010
0000
0100
0000
,  // measure 8
1000
0001
1000
0001
1000
0000
0010
0000
0100
0001
0100
0000
0001
0000
0010
0000
,  // measure 9
0110
0000
0100
0000
1000
0000
0010
0000
0100
0000
0001
0100
0010
0000
1000
0000
,  // measure 10
1100
0000
0100
0000
0001
0000
0100
0000
1000
0000
0010
0100
0001
0000
0010
0000
,  // measure 11
1000
0000
0010
0001
0100
0000
0010
0000
1000
0000
0100
0000
1000
0000
0001
0000
,  // measure 12
0011
0010
0100
1000
0001
0010
0001
0100
,  // measure 13
1010
0000
1000
0001
1000
0000
0001
0000
0010
0000
0001
0000
0101
0000
0110
0000
,  // measure 14
0000
0000
1010
0000
1000
0000
0100
0000
0101
0000
0100
0000
1000
0010
1000
0001
,  // measure 15
0100
0000
0010
1000
0010
0000
0100
0000
0101
0000
0010
0000
0100
0000
1100
0000
,  // measure 16
0000
0000
1001
0000
0001
0000
0010
0000
0100
0010
0001
0000
0010
0000
0100
0000
,  // measure 17
1000
0001
0100
0010
1000
0010
0100
0001
,  // measure 18
0010
0000
0100
0000
1000
0000
0010
1000
0010
0000
0100
0000
0001
0000
0010
0000
,  // measure 19
0001
1000
0001
0000
0100
0010
0100
0000
0001
0100
0001
1000
0010
0000
1000
0000
,  // measure 20
0001
0010
0100
1000
0100
0000
0010
0001
0200
0000
0000
0000
0310
0000
1000
0000
,  // measure 21
1002
0000
0013
0100
0201
0000
0310
1000
,  // measure 22
0100
0000
0001
0100
1000
0000
1000
0000
0001
0000
0011
0000
0010
0000
0100
0000
,  // measure 23
2200
3300
0000
1001
2002
3003
0000
1010
,  // measure 24
0010
0000
0100
0001
0010
0000
0100
0000
0001
0000
0100
1000
0001
0000
0100
0001
,  // measure 25
0100
0010
1000
0010
0100
0001
0010
0100
,  // measure 26
0010
0000
0001
0000
1000
0000
0010
0100
0001
0000
0010
0000
1010
0000
0010
0000
,  // measure 27
0001
0100
0001
0000
1000
0010
1000
0000
0100
0000
0010
0000
0011
0000
0001
0000
,  // measure 28
0100
0000
0010
1000
0010
0000
1000
0100
0010
0000
0001
0100
0001
0000
1000
0000
,  // measure 29
1010
0101
1001
1010
,  // measure 30
0110
0000
0100
0001
0010
0000
1000
0000
1010
0000
0010
0001
0100
0000
0010
0000
,  // measure 31
0100
0001
0010
0100
1000
0001
0010
0100
,  // measure 32
1000
0010
1000
0010
0100
0001
0100
0001
0010
0000
0100
1000
0001
0000
1000
0010
,  // measure 33
0100
0000
0000
0001
0000
0000
0010
0000
0000
0100
0000
0000
1100
0000
0000
0000
0000
0000
1010
0000
0000
0000
0010
0000
,  // measure 34
0100
0000
0001
0101
0000
1000
1001
0001
0010
0001
0100
0010
,  // measure 35
1000
0000
0000
1010
0000
0000
0110
0000
0000
0101
0000
0001
,  // measure 36
0011
0000
0100
1100
0000
1000
1010
0010
0100
0001
1000
0001
,  // measure 37
0100
0110
1010
1001
,  // measure 38
0101
0000
1000
1001
0000
0001
0011
0010
0100
1000
0001
0010
,  // measure 39
0001
0101
0110
1010
,  // measure 40
1000
1000
0010
0001
0001
0010
1000
1000
0001
0001
0100
0100
,  // measure 41
0010
0000
0000
0000
1010
0000
0000
0000
1000
0001
0010
0000
0001
0000
0100
0000
,  // measure 42
0010
1000
0100
1000
0010
0000
0100
0000
0001
1000
0010
1000
0001
0000
0100
0001
,  // measure 43
0010
0000
0100
0000
1000
0000
0010
1000
0001
0000
0100
0000
0001
0000
0010
0000
,  // measure 44
0200
0000
0000
0000
1300
0000
0001
0000
0010
0000
0001
0100
0010
0000
1000
0000
,  // measure 45
1010
0010
0100
0001
0011
0000
0202
0303
,  // measure 46
1000
0010
1000
0000
0010
0000
0100
0000
0001
0000
0010
0000
0220
0000
0330
0000
,  // measure 47
0100
0001
0010
0000
0000
0000
0100
0000
1000
0000
0010
0000
1000
0000
0100
0000
,  // measure 48
0010
0001
0000
0100
0001
0010
0001
0000
,  // measure 49
1001
1100
0000
0000
0110
1001
0000
0000
,  // measure 50
0101
0110
0000
0000
1010
0110
0000
0000
,  // measure 51
0101
0101
0110
0110
1010
1010
1000
1000
,  // measure 52
1001
0000
0001
0000
0100
0000
0010
0000
1000
0100
0010
0001
1000
0100
0010
0001
,  // measure 53
0100
0000
0010
0000
1000
0000
0100
1000
0001
0000
0010
0001
1000
0000
0010
0000
,  // measure 54
0110
0000
0100
0000
0001
0000
0010
0000
0100
0000
1000
0001
0010
0000
0001
0000
,  // measure 55
0101
0000
0100
0000
0010
0000
1000
0100
0010
0000
0001
0000
0100
0000
0010
0000
,  // measure 56
1000
0000
1000
0100
0010
0000
0001
0010
0100
0000
1000
0000
0001
0000
0010
0000
,  // measure 57
0011
0000
0000
0000
0101
0000
0100
0000
0010
0000
1010
0000
1000
0001
1000
0000
,  // measure 58
0010
0000
0100
0000
0001
0000
0010
0000
0001
0000
1000
0010
1000
0000
0001
0000
,  // measure 59
0101
0000
0110
0010
1000
0001
0100
0010
,  // measure 60
0110
0000
0100
0001
0100
0001
0010
0100
0010
0100
1000
0001
1000
0000
0001
0100
,  // measure 61
0010
0000
1000
0000
0100
0000
0010
0000
0001
0100
0001
0000
1000
0000
0010
0000
,  // measure 62
0100
0000
0001
1000
0010
0000
0010
1000
0001
0000
0001
0100
0010
0000
1000
0000
,  // measure 63
1010
0000
0010
0000
0100
0000
0001
0000
0010
0001
0100
0010
0100
0000
0010
0000
,  // measure 64
1010
0000
1000
0010
0100
0000
0001
0010
0100
0000
1000
0001
0010
0001
0100
0010
,  // measure 65
1000
0000
0000
0000
1001
0000
0001
0000
0100
0000
0010
1000
0010
1000
0001
0000
,  // measure 66
0101
0000
0000
0000
0100
0000
0010
1000
0100
0000
0010
0001
1000
0001
0010
0000
,  // measure 67
0110
0000
0110
0000
1100
0000
1000
0001
0010
0000
0001
0000
0100
0000
0010
0000
,  // measure 68
1000
0001
0010
0001
0100
0010
1000
0100
0010
0001
0010
0100
1000
0001
0010
0001
,  // measure 69
0200
0000
0000
0310
0010
1000
1000
0000
0000
0001
0100
1000
,  // measure 70
0100
0000
0001
0010
0001
0100
0010
0000
0000
1000
0000
0010
,  // measure 71
2010
0000
0000
3001
0001
0100
0200
0000
0000
0320
0000
0000
,  // measure 72
1030
0100
1000
0000
0010
0000
0001
0000
1000
0100
0010
0000
0110
0000
0100
0000
,  // measure 73
1001
0000
0001
0010
1000
0010
0001
0100
,  // measure 74
0020
0000
1030
0100
1000
0000
0001
0100
,  // measure 75
0010
0000
0000
0000
1000
0000
0000
0000
0001
0000
0000
0000
0100
0000
0000
0000
0010
0000
0000
0000
1000
0000
0000
0000
0001
0000
0000
0000
0100
0000
0000
0000
0010
0000
0000
0000
1000
0000
0000
0100
0000
0000
1000
0000
0000
0100
0000
0000
,  // measure 76
0020
0032
0203
0320
,  // measure 77
2030
0000
3100
0100
1001
0000
0011
0000
,  // measure 78
0110
0000
0100
0000
1000
0000
0001
0000
0010
0001
0100
0010
1000
0010
0100
0000
,  // measure 79
0001
0010
0100
1000
0001
0100
0010
1000
0001
0100
0010
1000
0010
0100
0001
0000
,  // measure 80
0101
0000
0101
0000
1001
0000
1001
0000
0110
0000
1000
0100
0010
0001
0200
0000
,  // measure 81
0000
0300
0000
0000
0000
0000
0000
0000
;
