#TITLE:TimeHollow;
#SUBTITLE:;
#ARTIST:Masanori Akita;
#TITLETRANSLIT:;
#SUBTITLETRANSLIT:;
#ARTISTTRANSLIT:;
#GENRE:;
#CREDIT:;
#BANNER:TimeHollow.png;
#BACKGROUND:TimeHollow-bg.png;
#LYRICSPATH:;
#CDTITLE:;
#MUSIC:TimeHollow.ogg;
#OFFSET:0.000000;
#SAMPLESTART:68.926003;
#SAMPLELENGTH:15.000000;
#SELECTABLE:YES;
#DISPLAYBPM:94.000000;
#BPMS:0.000000=93.995003
,20.000000=94.987000
,24.000000=94.240997
,28.000000=93.995003
,36.000000=93.385002
,44.000000=93.963997
,76.000000=94.086998
,108.000000=94.240997
,132.000000=93.838997
,154.000000=97.825996
,156.000000=83.850998
,157.500000=94.616997
;
#STOPS:
;
#BGCHANGES:0.000=TimeHollow.avi=1.000=0=0=0=StretchNoLoop====,
99999=-nosongbg-=1.000=0=0=0 // don't automatically add -songbackground-
;
#KEYSOUNDS:;
#ATTACKS:;

//---------------dance-single - ----------------
#NOTES:
     dance-single:
     :
     Beginner:
     2:
     0.075928,0.130542,0.000000,0.000000,0.000000,57.000000,57.000000,0.000000,0.000000,0.000000,0.000000,0.075928,0.130542,0.000000,0.000000,0.000000,57.000000,57.000000,0.000000,0.000000,0.000000,0.000000:
0000
0000
0000
0000
,
0000
0000
0000
0000
,
0000
0000
0000
0000
,
0000
0000
0000
0000
,
0000
0000
0000
0000
,
0001
0000
0000
0000
,
1000
0000
0000
0000
,
0001
0000
0000
0000
,
1000
0000
0000
0000
,
0010
0000
0010
0000
,
0010
0000
0010
0000
,
0001
0000
0000
0000
,
1000
0000
0000
0000
,
0100
0000
0000
0000
,
0010
0000
0000
0000
,
1000
1000
0000
0000
,
0010
0010
0000
0000
,
0001
0001
0000
0000
,
0100
0100
0000
0000
,
0010
0000
1000
0000
,
0100
0000
0000
0000
,
0001
0000
0100
0000
,
1000
0000
0000
0000
,
0010
0000
1000
0000
,
0100
0000
0001
0000
,
0010
0000
0000
0000
,
0000
0000
0000
0000
,
1000
0000
0010
0000
,
0001
0000
0001
0000
,
1000
0000
0100
0000
,
0001
0000
0000
0000
,
0010
0000
1000
0000
,
0100
0000
0100
0000
,
0010
0000
0001
0000
,
0100
0000
0000
0000
,
1000
1000
1000
0000
,
0001
0001
0001
0000
,
0010
0000
1000
0000
,
0001
0000
0100
0000
,
0010
0000
0000
0000
,
0100
0000
0000
0000
;

//---------------dance-single - ----------------
#NOTES:
     dance-single:
     :
     Easy:
     4:
     0.131874,0.151988,0.009324,0.102569,0.000000,99.000000,98.000000,1.000000,11.000000,0.000000,0.000000,0.131874,0.151988,0.009324,0.102569,0.000000,99.000000,98.000000,1.000000,11.000000,0.000000,0.000000:
0000
0000
0000
0000
,
0000
0000
0000
0000
,
0000
0000
0000
0000
,
0000
0000
0000
0000
,
0000
0000
0000
0000
,
0001
0100
1000
0000
,
1000
1000
0001
0001
,
1000
0100
0001
0000
,
0001
0001
1000
1000
,
0010
0010
0010
0000
,
0010
0010
0010
0000
,
0001
0000
0010
0000
,
1000
0001
0010
0000
,
0100
0000
0001
0000
,
0010
1000
0001
0000
,
1000
0001
1000
0000
,
0010
0100
0010
0000
,
0001
1000
0001
0000
,
0100
0001
0100
0000
,
0020
0030
2000
3000
,
0200
0000
0000
0300
,
0002
0003
0200
0300
,
2000
0000
0000
3000
,
0010
0001
1000
0000
,
0100
1000
0001
0000
,
2002
0000
0000
3003
,
0000
0000
0000
0000
,
1000
0100
0010
0000
,
0001
0001
1000
1000
,
0010
0001
0100
0000
,
1000
1000
0001
0001
,
0010
0001
1000
0000
,
0100
0100
0010
0010
,
1000
0100
0001
0000
,
0100
0001
1000
0100
,
1000
0010
1000
0000
,
0001
0010
0001
0000
,
0010
0001
1000
0000
,
0001
1000
0100
0000
,
0020
0030
0002
0003
,
0200
0000
0000
0300
;

//---------------dance-single - ----------------
#NOTES:
     dance-single:
     :
     Medium:
     7:
     0.183825,0.227983,0.027973,0.102569,0.000000,138.000000,135.000000,3.000000,11.000000,0.000000,0.000000,0.183825,0.227983,0.027973,0.102569,0.000000,138.000000,135.000000,3.000000,11.000000,0.000000,0.000000:
0000
0000
0000
0000
,
0000
0000
0000
0000
,
0000
0000
0000
0000
,
0000
0000
0000
0000
,
0000
0000
0000
0000
,
1000
0100
0001
0000
0100
0000
1000
0000
,
0001
0001
0100
0000
1000
1000
0100
0000
,
0001
0010
1000
0000
0010
0000
0001
0000
,
1000
1000
0010
0000
0001
0001
0010
0000
,
0100
0001
0100
0000
,
0100
1000
0100
0000
,
0010
0000
0001
1000
0100
0000
0000
0000
,
0001
1000
0100
0001
,
0010
0000
1000
0001
1000
0000
0000
0000
,
0100
0001
1000
0010
,
0001
0000
1000
0100
0001
0000
0000
0000
,
0100
0010
0100
0001
,
1000
0000
0010
0100
1000
0000
0000
0000
,
0010
1000
0010
0001
,
0200
0000
0002
0303
,
0020
0000
0000
0030
,
2000
0000
0020
3030
,
0002
0000
0000
0003
,
0100
0000
1000
0100
0001
0000
0000
0000
,
0010
0000
0001
0100
1000
0000
0000
0000
,
2002
0000
0000
3003
,
0000
0000
0000
0000
,
0001
0000
0010
0000
0100
1000
0010
0000
,
1000
0000
0100
0000
0010
0001
0100
0000
,
0001
0000
1000
0000
0010
1000
0001
0000
,
0010
0001
0010
1000
,
0100
0000
1000
0000
0010
0100
0001
0000
,
0010
0000
0100
0000
0010
0100
0010
0000
,
0001
0000
0010
0000
0001
1000
0010
0000
,
0100
1000
0001
0010
,
0001
1000
0100
0000
0101
0000
0000
0000
,
1000
0001
0100
0000
1100
0000
0000
0000
,
0100
1000
0001
0010
,
1000
0100
0010
0100
1000
0001
0010
0000
,
2000
0000
0002
3000
,
0200
0000
0000
0303
;

//---------------dance-single - ----------------
#NOTES:
     dance-single:
     :
     Hard:
     9:
     0.266413,0.398970,0.139867,0.139867,0.000000,200.000000,185.000000,15.000000,15.000000,0.000000,0.000000,0.266413,0.398970,0.139867,0.139867,0.000000,200.000000,185.000000,15.000000,15.000000,0.000000,0.000000:
// measure 0
0000
0000
0000
0000
,  // measure 1
0000
0000
0000
0000
,  // measure 2
0000
0000
0000
0000
,  // measure 3
0000
0000
0000
0000
,  // measure 4
0000
0000
0000
0000
,  // measure 5
1000
0100
0010
0100
0001
0100
1000
0000
,  // measure 6
0010
0001
0100
0000
0010
1000
0100
0000
,  // measure 7
0001
0100
0010
0100
1000
0001
0100
0000
,  // measure 8
1000
0100
1000
0000
0001
0100
0001
0000
,  // measure 9
2000
0000
0200
3300
,  // measure 10
0002
0000
0200
0303
,  // measure 11
1000
0010
1000
0001
0000
0100
1000
0000
,  // measure 12
0010
0001
0100
0001
0000
1000
0100
0000
,  // measure 13
0010
0001
0100
0000
1000
0100
0001
0000
,  // measure 14
0100
0001
1000
0100
0010
0100
1000
0000
,  // measure 15
0001
0100
1000
0100
0000
0010
0100
0000
,  // measure 16
0010
1000
0001
0100
0000
1000
0100
0000
,  // measure 17
1000
0010
0001
0100
,  // measure 18
0010
1000
0010
0100
0010
0001
0010
0000
,  // measure 19
0200
0000
0310
1000
0002
0000
0003
0000
,  // measure 20
0020
0001
1000
0130
,  // measure 21
2000
0000
3001
0100
0020
0000
0030
0000
,  // measure 22
2000
0010
0001
3100
,  // measure 23
0010
0000
1000
0001
0100
0000
0000
0000
,  // measure 24
0010
0000
0001
1000
0100
0000
0000
0000
,  // measure 25
2002
0000
0000
3003
,  // measure 26
0000
0000
0000
0000
,  // measure 27
0011
0010
0100
0010
0001
1000
0100
0000
,  // measure 28
1001
1000
0010
0100
0110
1001
0110
0000
,  // measure 29
0101
0001
1000
0010
1000
0001
0010
0011
,  // measure 30
0000
0100
1000
0001
0100
0010
1000
0000
,  // measure 31
1100
1000
0001
0010
0001
1000
0010
0000
,  // measure 32
0110
0100
0010
0100
1010
1001
0101
0000
,  // measure 33
1001
0001
0010
0001
1000
0100
0010
1001
,  // measure 34
0000
0010
1000
0100
0001
0100
0010
0000
,  // measure 35
0001
0010
0100
0000
0001
0010
0100
0000
,  // measure 36
1000
0001
0100
0000
1000
0001
0100
0000
,  // measure 37
0010
1000
0001
0100
,  // measure 38
1000
0001
0010
0001
0100
0001
1000
0000
,  // measure 39
0200
0000
2000
0300
,  // measure 40
0002
0000
0000
3003
;

//---------------dance-double - ----------------
#NOTES:
     dance-double:
     :
     Easy:
     5:
     0.121218,0.170987,0.000000,0.083920,0.000000,91.000000,91.000000,0.000000,9.000000,0.000000,0.000000,0.121218,0.170987,0.000000,0.083920,0.000000,91.000000,91.000000,0.000000,9.000000,0.000000,0.000000:
00000000
00000000
00000000
00000000
,
00000000
00000000
00000000
00000000
,
00000000
00000000
00000000
00000000
,
00000000
00000000
00000000
00000000
,
00000000
00000000
00000000
00000000
,
00000010
00000100
00001000
00000000
,
00000001
00000000
00000100
00000000
,
00001000
00010000
00100000
00000000
,
10000000
00000000
00010000
00000000
,
01000000
00000000
01000000
00000000
,
01000000
00000000
01000000
00000000
,
10000000
00010000
01000000
00000000
,
00100000
00010000
00001000
00000010
,
00000001
00001000
00000010
00000000
,
00000100
00000010
00000001
00000010
,
00000100
00001000
00010000
00000000
,
00100000
10000000
00010000
00100000
,
01000000
10000000
00010000
00000000
,
00001000
00001000
00010000
00010000
,
00000200
00000000
00000000
00000300
,
00000002
00000000
00000000
00000003
,
00000020
00000000
00000000
00000030
,
00002000
00000000
00000000
00003000
,
00020000
00000000
00000000
00030000
,
00200000
00000000
00000000
00300000
,
20000000
00000000
00000000
30000000
,
00000000
00000000
00000000
00000000
,
00100000
01000000
00010000
00100000
,
01000000
00010000
00001000
00000100
,
00000010
00000100
00000001
00000010
,
00001000
00000000
00000001
00000000
,
00000010
00001000
00010000
00100000
,
01000000
10000000
00100000
00010000
,
01000000
00010000
00001000
00000010
,
00000001
00000000
00001000
00000000
,
00000010
00000100
00000001
00000000
,
00000010
00000100
00001000
00000000
,
00001000
00010000
01000000
00000000
,
00100000
10000000
01000000
00000000
,
00020000
00000000
00000000
00030000
,
00002000
00000000
00000000
00003000
,
00000000
00000000
00000000
00000000
;

//---------------dance-double - ----------------
#NOTES:
     dance-double:
     :
     Medium:
     6:
     0.183825,0.227983,0.009324,0.046622,0.000000,138.000000,137.000000,1.000000,5.000000,0.000000,0.000000,0.183825,0.227983,0.009324,0.046622,0.000000,138.000000,137.000000,1.000000,5.000000,0.000000,0.000000:
00000000
00000000
00000000
00000000
,
00000000
00000000
00000000
00000000
,
00000000
00000000
00000000
00000000
,
00000000
00000000
00000000
00000000
,
00000000
00000000
00000000
00000000
,
00100000
00000000
00010000
00000000
01000000
00001000
00010000
00000000
,
00000010
00000001
00001000
00000100
,
00000010
00000000
00000100
00000000
00001000
00010000
01000000
00000000
,
10000000
01000000
00010000
01000000
,
10000000
00000000
00010000
00000000
,
00001000
00000000
00000001
00000000
,
00000010
00000000
00000100
00001000
00000010
00000000
00000000
00000000
,
00000100
00001000
00010000
00100000
,
10000000
00000000
00010000
00100000
01000000
00000000
00000000
00000000
,
10000000
01000000
00010000
01000000
,
00100000
00000000
01000000
00010000
00001000
00000000
00000000
00000000
,
00000010
00000001
00001000
00000010
,
00000100
00000000
00000010
00001000
00000100
00000000
00000000
00000000
,
00010000
00000010
00001000
00100000
,
10000000
01000000
00001000
00000000
,
00000001
00000010
00010000
00000000
,
00100000
01000000
00001000
00000000
,
00000100
00000010
00010000
00000000
,
10000000
01000000
00010000
00001000
,
00000100
00000001
00000010
00001000
,
00022000
00000000
00000000
00033000
,
00000000
00000000
00000000
00000000
,
01000000
00000000
10000000
00000000
00010000
01000000
10000000
00000000
,
01000000
00000000
00010000
00000000
00000010
00001000
00000100
00000000
,
00000001
00000000
00000010
00000000
00001000
00000000
00000100
00010000
,
00000000
00001000
01000000
00000000
00100000
01000000
10000000
00000000
,
00010000
00000000
01000000
00000000
00100000
00010000
00001000
00000000
,
00000010
00000000
00001000
00000000
00010000
01000000
10000000
00000000
,
00010000
00000000
00001000
00000000
00000001
00000000
00000010
00000100
,
00000000
00000010
00000001
00000000
00000100
00000000
00001000
00000000
,
00010000
00000000
00001000
00000100
00000001
00000000
00001000
00000000
,
00010000
00000000
00001000
00010000
00100000
00000000
01000000
00000000
,
00100000
00010000
10000000
00100000
,
01000000
00100000
10000000
01000000
00010000
00000000
00001000
00000000
,
00000200
00000000
00000002
00000300
,
00002000
00000000
00000000
00003003
,
00000000
00000000
00000000
00000000
;

//---------------dance-double - ----------------
#NOTES:
     dance-double:
     :
     Hard:
     8:
     0.243768,0.341974,0.065271,0.046622,0.000000,183.000000,176.000000,7.000000,5.000000,0.000000,0.000000,0.243768,0.341974,0.065271,0.046622,0.000000,183.000000,176.000000,7.000000,5.000000,0.000000,0.000000:
00000000
00000000
00000000
00000000
,
00000000
00000000
00000000
00000000
,
00000000
00000000
00000000
00000000
,
00000000
00000000
00000000
00000000
,
00000000
00000000
00000000
00000000
,
00100000
10000000
00010000
00100000
01000000
00100000
00010000
00000000
,
10000000
00010000
00001000
00000001
,
00000100
00001000
00000010
00000100
00000010
00001000
00000100
00000000
,
00000001
00001000
00010000
10000000
,
00100000
00000000
00001000
00000000
,
00000001
00000000
00000100
00000000
,
00001000
00010000
00100000
00010000
00001000
00000000
01000000
00000000
,
10000000
00100000
10000000
01000000
,
00100000
01000000
10000000
00010000
01000000
00000000
00100000
00000000
,
00010000
00000100
00000010
00000001
,
00001000
00000010
00010000
00001000
00000100
00000000
00000001
00000000
,
00001000
00010000
01000000
10000000
,
00100000
01000000
00010000
00100000
01000000
00000000
10000000
00000000
,
00010000
00001000
00010000
00000100
,
00000010
00001000
00000001
00000100
00000000
00000000
00000000
00000000
,
00100000
00010000
10000000
01000000
00000000
00000000
00000000
00000000
,
10000000
00010000
00001000
00000001
00000000
00000000
00000000
00000000
,
00000001
00001000
00010000
10000000
00000000
00000000
00000000
00000000
,
00100000
10000000
01000000
00010000
,
00001000
00000010
00000001
00000100
,
00022000
00000000
00000000
00033000
,
00000000
00000000
00000000
00000000
,
01000000
10000000
00100000
10000000
01000000
00010000
00001000
00000000
,
00000010
00000001
00001000
00000010
00010010
00001010
00000101
00000000
,
00000010
00000001
00000100
00001000
00010000
00100000
10000000
01000000
,
00000000
00100000
01000000
00000000
00010000
01000000
10000000
00000000
,
00010000
00001000
00000100
00000001
00001000
00000100
00000001
00000000
,
00000010
00001000
00010000
00100000
10010000
01100000
10010000
00000000
,
01000000
00001000
00100000
00010000
01000000
00001000
00010000
00100000
,
00000000
10000000
01000000
00000000
00010000
00001000
00000010
00000000
,
00000100
00000010
00001000
00000010
00000001
00000100
00001000
00000000
,
00100000
00010000
01000000
10000000
01000000
00001000
00010000
00000000
,
00000010
00001000
00000100
00000000
01000000
00010000
00100000
00000000
,
10000000
00010000
01000000
00100000
00010000
00001000
00000010
00000100
,
00002000
00000000
00000002
00003000
,
00000200
00000000
00000000
00000303
,
00000000
00000000
00000000
00000000
;

//---------------dance-single - ----------------
#NOTES:
     dance-single:
     :
     Challenge:
     12:
     0.438249,0.528696,0.130542,0.298382,0.335680,329.000000,315.000000,14.000000,32.000000,0.000000,0.000000,0.438249,0.528696,0.130542,0.298382,0.335680,329.000000,315.000000,14.000000,32.000000,0.000000,0.000000:
// measure 0
0000
0000
0000
0000
,  // measure 1
0000
0000
0000
0000
,  // measure 2
0000
0000
0000
0000
,  // measure 3
0000
0000
0000
0000
,  // measure 4
0000
0000
0000
0000
,  // measure 5
1001
0000
1000
0010
1000
0000
1100
0000
0100
0010
0001
0000
0100
0000
0110
0000
,  // measure 6
0010
1000
0100
0000
0010
0001
0100
1000
0100
0001
0010
0000
0100
1000
0010
0000
,  // measure 7
0100
0000
0001
0010
0001
0000
2000
0000
0000
0000
3010
0100
0001
0000
0200
0000
,  // measure 8
0000
0000
0310
0000
1000
0100
1000
0100
0010
0001
0010
0001
0100
0010
0100
0010
,  // measure 9
1000
0000
0100
0010
0200
0000
0000
0000
0310
0001
0020
0000
0001
0000
0130
0000
,  // measure 10
0001
0000
0010
0100
0010
0000
0100
1000
0001
0010
0001
0000
0100
0000
0010
0000
,  // measure 11
1010
1000
1000
0001
0010
0001
0100
0020
,  // measure 12
1000
0000
1030
0000
0001
0000
0020
0000
0000
0000
0031
0000
0100
0000
1000
0100
,  // measure 13
0002
1000
1003
0010
0100
0010
1000
0001
,  // measure 14
0100
0010
1000
0001
0100
0010
1000
0010
,  // measure 15
0200
0000
0000
0000
0301
0000
0010
0000
0001
0000
0100
0000
0010
0000
1000
0001
,  // measure 16
1000
0010
0100
0002
0000
1003
0010
1000
,  // measure 17
0100
0200
0000
0310
0001
1000
0001
0010
,  // measure 18
0200
0000
0000
0000
1300
0000
0001
0000
1000
0010
1000
0000
0001
0000
0100
0001
,  // measure 19
0100
0010
1000
0100
1000
0010
0001
0020
,  // measure 20
0000
0000
1030
0000
0100
0000
1000
0001
2000
0000
0000
0000
3001
0000
0010
0000
,  // measure 21
0200
0000
1000
0000
1300
0000
0001
0000
0010
0000
0010
0000
0001
0000
0001
1000
,  // measure 22
0010
0000
0100
0000
0010
0000
1000
0000
0001
0010
0001
0000
0001
0100
0001
0100
,  // measure 23
0001
1000
0100
0010
0002
0023
2030
3020
,  // measure 24
0000
0032
0100
0103
0010
2000
0001
0000
,  // measure 25
3020
0200
0000
0000
,  // measure 26
0330
0000
0000
0000
,  // measure 27
1001
0000
1000
0000
0100
0010
0000
0010
0001
0000
0010
0000
0110
0000
1100
0000
,  // measure 28
0001
0010
0001
0010
0100
0000
1000
0000
0010
0100
0001
0000
0101
0000
0001
0010
,  // measure 29
0001
0000
1000
0100
1000
0000
0010
0000
0100
0000
0010
1000
0010
1000
0001
0000
,  // measure 30
0011
0000
0010
0000
0010
0100
0000
1000
0100
0000
1000
0001
0010
0001
0100
0010
,  // measure 31
0100
0000
1001
0000
1000
0000
1010
0000
0010
0000
0100
0001
0010
0000
0210
0000
,  // measure 32
0000
0000
0000
0000
0000
0000
1300
0000
0000
0001
0000
0000
1000
0000
0000
0000
0000
0000
0001
0000
0000
0010
0000
0000
0002
0000
0000
0000
0000
0000
0023
0000
0000
0000
0000
0000
0130
0000
0000
0000
1000
0000
0000
0000
0100
0000
0000
0000
,  // measure 33
1000
0000
0001
0010
0001
0000
0100
0000
0010
1000
0000
1000
0010
0000
0100
0000
,  // measure 34
0012
0000
0010
0000
0023
0000
0100
0000
0130
1000
0100
1000
0100
0010
0001
0010
,  // measure 35
0001
0000
1000
0000
1001
0000
0100
0010
1000
0100
0010
0000
0100
0000
1000
0001
,  // measure 36
0010
0000
0001
0000
0100
0001
1000
0000
0010
0100
1000
0100
0020
0000
0000
0000
,  // measure 37
1030
0000
0001
0100
0001
0000
0010
0100
0010
0000
0100
1000
0200
0000
1000
0000
,  // measure 38
0301
0010
0001
0010
0001
1000
0001
1000
0001
0100
0001
0100
0001
0010
0100
1000
,  // measure 39
0002
0000
0000
2000
0000
0000
0003
0000
,  // measure 40
0020
0000
3030
0000
;
