#TITLE:Ticket to Bombay;
#SUBTITLE:;
#ARTIST:Jena Rose;
#TITLETRANSLIT:;
#SUBTITLETRANSLIT:;
#ARTISTTRANSLIT:;
#GENRE:;
#CREDIT:;
#BANNER:Ticket To Bombay.png;
#BACKGROUND:Ticket To Bombay-bg.png;
#LYRICSPATH:;
#CDTITLE:;
#MUSIC:Ticket To Bombay.ogg;
#OFFSET:0.000000;
#SAMPLESTART:54.625000;
#SAMPLELENGTH:15.000000;
#SELECTABLE:YES;
#DISPLAYBPM:145.000000;
#BPMS:0.000000=145.160995
,4.000000=145.003006
;
#STOPS:
;
#BGCHANGES:;
#KEYSOUNDS:;
#ATTACKS:;

//---------------dance-single - ----------------
#NOTES:
     dance-single:
     :
     Beginner:
     3:
     0.130032,0.172942,0.010114,0.000000,0.000000,90.000000,89.000000,1.000000,0.000000,0.000000,0.000000,0.130032,0.172942,0.010114,0.000000,0.000000,90.000000,89.000000,1.000000,0.000000,0.000000,0.000000:
0000
0000
0000
0000
,
0000
0000
0000
0000
,
0000
0000
0000
0000
,
0000
0000
0000
0000
,
0000
0000
0000
0000
,
0001
0000
0001
0000
,
1000
0000
1000
0000
,
0100
0000
0100
0000
,
0001
0000
0001
0000
,
1000
0000
1000
0000
,
0001
0000
0001
0000
,
0100
0000
0100
0000
,
0001
0000
0001
0000
,
1000
0000
1000
0000
,
0001
0000
0001
0000
,
0100
0000
0100
0000
,
0001
0000
0001
0000
,
1000
0000
1000
0000
,
0100
0000
0100
0000
,
0001
0000
0001
0000
,
0100
0000
0100
0000
,
1000
0000
1000
0000
,
0001
0000
0001
0000
,
0100
0000
0100
0000
,
0010
0000
0010
0000
,
0000
0000
0000
0000
,
0000
0000
0000
0000
,
0000
0000
0000
0000
,
0000
0000
0000
0000
,
0100
0000
0000
0000
,
0001
0000
0000
0000
,
1000
0000
0000
0000
,
0100
0000
0000
0000
,
0001
0000
0000
0000
,
1000
0000
0000
0000
,
0001
0000
0000
0000
,
0010
0000
0000
0000
,
1000
0000
1000
0000
,
0001
0000
0001
0000
,
0100
0000
0100
0000
,
0001
0000
0001
0000
,
1000
0000
1000
0000
,
0001
0000
0001
0000
,
0100
0000
0100
0000
,
0001
0000
0001
0000
,
1000
0000
0001
0000
,
0001
0000
0100
0000
,
0100
0000
0001
0000
,
0001
0000
0010
0000
,
0001
0000
1000
0000
,
1000
0000
0100
0000
,
0100
0000
1000
0000
,
1000
0000
0010
0000
,
1000
0000
0001
0000
,
1000
0000
0001
0000
,
0100
0000
1000
0000
,
0100
0000
0001
0000
,
1001
0000
0000
0000
,
0000
0000
0000
0000
;

//---------------dance-single - ----------------
#NOTES:
     dance-single:
     :
     Easy:
     5:
     0.231167,0.288237,0.010114,0.010114,0.000000,160.000000,159.000000,1.000000,1.000000,0.000000,0.000000,0.231167,0.288237,0.010114,0.010114,0.000000,160.000000,159.000000,1.000000,1.000000,0.000000,0.000000:
0000
0000
0000
0000
,
0000
0000
0000
0000
,
0000
0000
0000
0000
,
0000
0000
0000
0000
,
0000
0000
0000
0000
,
0010
0000
0100
0000
,
0001
0000
1000
0000
,
0001
0000
1000
0000
,
0010
0000
0100
0000
,
0010
1000
1000
0000
,
0001
0001
0100
0000
,
1000
1000
1000
0000
,
0010
0001
0010
0000
,
0010
0001
0001
0000
,
1000
1000
0100
0000
,
0001
0001
0001
0000
,
0010
1000
0010
0000
,
0100
0001
1000
0000
,
0001
0100
1000
0000
,
0001
0010
1000
0000
,
0010
0010
0100
0100
,
0100
1000
0001
0000
,
1000
0100
0001
0000
,
1000
0010
0001
0000
,
0010
0010
0100
0100
,
0020
0000
0000
0000
,
0000
0000
0000
0000
,
0000
0000
0000
0000
,
0000
0000
0000
0030
,
0001
0001
0001
0001
,
1000
1000
1000
1000
,
0001
0001
0001
0100
,
1000
1000
1000
0100
,
0100
1000
0001
0010
,
1000
0010
0100
0001
,
1000
0001
0100
0010
,
0100
0100
0000
0100
,
0010
1000
1000
0000
,
0001
0001
0100
0000
,
1000
1000
1000
0000
,
0010
0001
0010
0000
,
0010
0001
0001
0000
,
1000
1000
0100
0000
,
0001
0001
0001
0000
,
0010
1000
0010
0000
,
0100
0010
0000
0010
,
0001
1000
0000
1000
,
0010
0100
0000
0100
,
1000
0001
0000
0001
,
0100
0010
0010
0010
,
0001
1000
1000
1000
,
0010
0100
0100
0100
,
1000
0001
0001
0001
,
1000
0100
0001
0100
,
1000
0100
0001
0100
,
1000
0010
0001
0010
,
1000
0010
0001
0010
,
0110
0000
0000
0000
,
0000
0000
0000
0000
;

//---------------dance-single - ----------------
#NOTES:
     dance-single:
     :
     Medium:
     7:
     0.336638,0.374708,0.161817,0.070795,0.000000,233.000000,217.000000,16.000000,7.000000,0.000000,0.000000,0.336638,0.374708,0.161817,0.070795,0.000000,233.000000,217.000000,16.000000,7.000000,0.000000,0.000000:
0000
0000
0000
0000
,
0000
0000
0000
0000
,
0000
0000
0000
0000
,
0000
0000
0000
0000
,
0000
0000
0000
0000
,
0010
0010
0100
0100
,
1000
1100
0000
0110
,
0000
0011
0000
1001
,
0000
1100
0000
0110
,
0100
0000
0001
0000
1000
0001
0000
0001
,
0000
0100
0000
0100
0010
0000
0010
0000
,
1000
0000
0001
0000
0001
1000
0000
1000
,
0000
0001
0000
0001
0100
0000
0100
0000
,
0010
0000
1000
0000
1000
0001
0000
0001
,
0000
0010
0000
0010
0100
0000
0100
0000
,
1000
0000
0001
0000
0001
1000
0000
1000
,
0000
0001
0000
0001
0010
0000
0010
0000
,
1000
0000
0101
0000
0010
0001
0000
1000
,
0000
0010
0000
0100
0010
0000
1000
0000
,
0001
0000
1100
0000
0100
1000
0000
0001
,
0000
0100
0000
0010
0100
0000
1000
0000
,
0100
0000
1010
0000
0100
0010
0000
0001
,
0000
0100
0000
0100
1000
0000
0001
0000
,
0100
0000
0011
0000
0100
0010
0000
1000
,
0000
0100
0000
0100
0001
0000
0010
0010
,
0200
0000
0000
0000
,
0000
0000
0000
0000
,
0000
0000
0000
0000
,
0000
0000
0000
0300
,
1000
0010
0001
0010
,
0100
1000
0100
0001
,
0010
0100
1000
0100
,
0020
0031
0200
1300
,
0100
1000
0001
0010
,
1000
0010
0100
0001
,
1000
0001
0100
0010
,
1001
1001
0000
1001
,
1000
0100
1000
0000
0100
0000
0010
0000
,
0001
0010
0001
0000
0010
0000
0100
0000
,
1000
0001
1000
0000
0010
0000
0100
0000
,
0001
1000
0001
0000
0100
0000
0010
0000
,
1000
0100
1000
0000
0100
0000
0010
0000
,
0001
0010
0001
0000
0010
0000
0100
0000
,
1000
0001
1000
0000
0010
0000
0100
0000
,
0001
1000
0001
0000
0100
0000
0010
0000
,
1000
0100
0000
0010
0000
0100
0000
0100
,
1000
0100
0000
0001
0000
0100
0000
0100
,
1000
0100
0000
0010
0000
0100
0000
0100
,
1000
0100
0000
0110
0000
0100
0000
0100
,
0001
0100
0000
0010
0000
0100
0000
0100
,
0001
0100
0000
1000
0000
0100
0000
0100
,
0001
0100
0000
0010
0000
0100
0000
0100
,
0001
0100
0000
0110
0000
0110
0000
0100
,
1000
0002
0000
1000
0000
0103
0000
0001
,
1000
0002
0000
0010
0000
0103
0000
0001
,
1000
0002
0000
1000
0000
0103
0000
0001
,
1000
0002
0000
0100
0000
0103
0000
0100
,
0010
0000
0000
0000
,
0000
0000
0000
0000
;

//---------------dance-single - ----------------
#NOTES:
     dance-single:
     :
     Hard:
     10:
     0.472448,0.576474,0.424770,0.080909,0.035398,327.000000,285.000000,42.000000,8.000000,0.000000,0.000000,0.472448,0.576474,0.424770,0.080909,0.035398,327.000000,285.000000,42.000000,8.000000,0.000000,0.000000:
// measure 0
0000
0000
0000
0000
,  // measure 1
0000
0000
0000
0000
,  // measure 2
0000
0000
0000
0000
,  // measure 3
0000
0000
0000
0000
,  // measure 4
0000
0000
0000
0000
,  // measure 5
0010
0000
0010
1000
0100
0000
0100
0010
,  // measure 6
0100
0001
1100
1000
,  // measure 7
0101
0000
0001
0000
1100
0000
0010
0001
,  // measure 8
1000
0100
1000
0001
0100
0000
0010
0000
,  // measure 9
0100
0000
0101
0000
0010
1000
0000
0100
,  // measure 10
0000
0001
1000
0010
0100
0001
1000
0100
,  // measure 11
0010
0000
1010
0000
0100
0001
0000
0010
,  // measure 12
0000
1000
0001
0010
0100
1000
0001
0010
,  // measure 13
0100
0000
1010
0000
0100
0001
0000
0010
,  // measure 14
0000
1000
0001
0100
0010
1000
0001
0010
,  // measure 15
0100
0000
0101
0000
0010
1000
0000
0100
,  // measure 16
0000
0001
1000
0100
0010
0001
1000
0100
,  // measure 17
0010
0000
0011
0000
1100
0000
1000
1000
,  // measure 18
0000
0001
0010
1000
0001
0010
1000
0000
,  // measure 19
0100
0000
0101
0000
1000
1000
0000
0001
,  // measure 20
0000
1000
0100
0001
1000
0100
0001
0000
,  // measure 21
1002
0000
0100
0000
1000
1000
0003
0100
,  // measure 22
0000
0010
1000
0100
0010
0001
0100
0000
,  // measure 23
2001
0000
0100
0000
0001
0001
3000
0100
,  // measure 24
0000
0010
0001
0100
0010
1000
0100
0010
,  // measure 25
2002
0000
0000
0000
,  // measure 26
0000
0000
0000
0000
,  // measure 27
0000
0000
0000
0000
,  // measure 28
0000
0000
0000
0000
0000
0000
3003
0010
,  // measure 29
0100
0010
1000
0100
0000
1001
0000
0010
,  // measure 30
0100
0010
0001
1000
0000
0110
0000
1000
,  // measure 31
0001
1000
0100
0011
0000
1100
0000
0001
,  // measure 32
1000
0001
1000
0110
0000
1001
0000
0010
,  // measure 33
0100
1000
0001
0010
,  // measure 34
1000
0010
0100
0001
,  // measure 35
1000
0001
0100
0010
,  // measure 36
0100
0100
0100
0010
0100
0100
0100
0000
,  // measure 37
1000
0000
0001
0000
1000
0000
0000
0000
0010
0000
0001
0000
0010
0000
0000
0010
,  // measure 38
0001
0000
1000
0000
0001
0000
0000
0000
0100
0000
1000
0000
0010
0000
0000
0010
,  // measure 39
0100
0000
0001
0000
0100
0000
0000
0000
0100
0000
0010
0000
0100
0000
0000
0100
,  // measure 40
0010
0000
1000
0000
0010
0000
0000
0000
0010
0000
0100
0000
0010
0000
0000
0010
,  // measure 41
1000
0000
0001
0000
1000
0000
0100
0000
0010
0000
0001
0000
0010
0000
0000
0010
,  // measure 42
0001
0000
1000
0000
0001
0000
0010
0000
0100
0000
1000
0000
0010
0000
0000
0010
,  // measure 43
0100
0000
0001
0000
0100
0000
1000
0000
0100
0000
0010
0000
0100
0000
0000
0100
,  // measure 44
0001
1000
0001
0000
0101
0000
1100
0000
,  // measure 45
0010
0100
0001
0010
0000
1001
0000
0100
,  // measure 46
0010
0100
1000
0001
0000
0110
0000
0001
,  // measure 47
1000
0001
0010
1000
0000
0011
0000
1000
,  // measure 48
0100
0001
0100
0010
0000
1001
0000
0100
,  // measure 49
0001
0200
0000
0310
0000
1001
0000
0100
,  // measure 50
0010
0200
0000
0301
0000
0110
0000
0001
,  // measure 51
1000
0002
0000
1003
0000
0110
0000
1000
,  // measure 52
0100
0002
0000
0103
0000
1001
0000
0010
,  // measure 53
1000
0100
1000
1001
0000
1001
0000
1001
,  // measure 54
0001
0010
0100
0110
0000
0110
0000
0110
,  // measure 55
0010
0001
0100
0101
0000
0101
0000
0101
,  // measure 56
0100
0010
1000
1010
0000
1010
0000
1010
,  // measure 57
1001
0000
0000
0000
;

//---------------dance-double - ----------------
#NOTES:
     dance-double:
     :
     Easy:
     5:
     0.222499,0.288237,0.010114,0.000000,0.000000,154.000000,153.000000,1.000000,0.000000,0.000000,0.000000,0.222499,0.288237,0.010114,0.000000,0.000000,154.000000,153.000000,1.000000,0.000000,0.000000,0.000000:
00000000
00000000
00000000
00000000
,
00000000
00000000
00000000
00000000
,
00000000
00000000
00000000
00000000
,
00000000
00000000
00000000
00000000
,
00000000
00000000
00000000
00000000
,
00000001
00000000
00001000
00000000
,
00000100
00000000
00010000
00000000
,
00001000
00000000
00100000
00000000
,
01000000
00000000
10000000
00000000
,
00100000
10000000
10000000
00000000
,
00010000
00010000
01000000
00000000
,
00001000
00001000
00001000
00000000
,
00000010
00001000
00000010
00000000
,
00000100
00000001
00000001
00000000
,
00010000
00010000
00001000
00000000
,
00100000
00100000
00100000
00000000
,
00010000
10000000
00010000
00000000
,
10000000
00100000
00010000
00000000
,
00100000
00010000
00001000
00000000
,
00010000
00001000
00000010
00000000
,
00001000
00000010
00000001
00000000
,
00000010
00000001
00001000
00000000
,
00000001
00001000
00010000
00000000
,
00001000
00010000
10000000
00000000
,
00010000
10000000
00100000
00000000
,
00000000
00000000
00000000
00000000
,
00000000
00000000
00000000
00000000
,
00000000
00000000
00000000
00000000
,
00000000
00000000
00000000
00000000
,
00000001
00000001
00000001
00000001
,
00000100
00000100
00000100
00000100
,
00001000
00001000
00001000
00001000
,
00010000
00010000
00010000
00010000
,
00000010
00000010
00000010
00000010
,
00010000
00010000
00001000
00001000
,
00100000
00100000
00100000
00100000
,
10000000
10000000
00010000
00010000
,
01000000
00010000
00010000
00000000
,
00001000
00001000
00100000
00000000
,
00001000
00001000
00001000
00000000
,
00000100
00000001
00000100
00000000
,
00000010
00001000
00001000
00000000
,
00010000
00010000
00001000
00000000
,
01000000
01000000
01000000
00000000
,
10000000
00010000
10000000
00000000
,
10000000
01000000
00010000
00000000
,
01000000
00010000
00001000
00000000
,
00010000
00001000
00000100
00000000
,
00000001
00000100
00001000
00000000
,
00000010
00000100
00001000
00000000
,
00001000
00010000
00010000
00000000
,
00010000
00100000
00100000
00000000
,
10000000
00010000
10000000
00000000
,
10000000
01000000
00010000
01000000
,
10000000
01000000
00010000
01000000
,
00010000
00001000
00010000
00001000
,
00000100
00000001
00000100
00001000
,
00011000
00000000
00000000
00000000
,
00000000
00000000
00000000
00000000
;

//---------------dance-double - ----------------
#NOTES:
     dance-double:
     :
     Medium:
     7:
     0.314966,0.345884,0.202272,0.050568,0.000000,218.000000,198.000000,20.000000,5.000000,0.000000,0.000000,0.314966,0.345884,0.202272,0.050568,0.000000,218.000000,198.000000,20.000000,5.000000,0.000000,0.000000:
00000000
00000000
00000000
00000000
,
00000000
00000000
00000000
00000000
,
00000000
00000000
00000000
00000000
,
00000000
00000000
00000000
00000000
,
00000000
00000000
00000000
00000000
,
00000010
00000010
00000100
00000100
,
00000010
00001000
00000100
00010000
,
00001000
00100000
00010000
01000000
,
00100000
00100000
01000000
01000000
,
00000000
00000000
10000000
00000000
10000000
00010000
00000000
01000000
,
00000000
00001000
00010000
00000000
00010000
00000000
00010000
00000000
,
00001000
00000000
00001000
00000000
00001000
00000100
00000000
00000010
,
00000000
00000100
00000000
00000001
00001000
00000000
00001001
00000000
,
00000000
00000000
00000001
00000000
00000001
00001000
00000000
00000100
,
00000000
00010000
00001000
00000000
00001000
00000000
00001000
00000000
,
00010000
00000000
00010000
00000000
00010000
01000000
00000000
00100000
,
00000000
01000000
00000000
10000000
00010000
00000000
10010000
00000000
,
00000000
00000000
00010000
00000000
00001000
00010000
00000000
00001000
,
00000000
00001000
00000000
00001000
00000010
00000000
00000100
00000000
,
00000010
00000000
00000010
00000000
00000100
00001000
00000000
00001000
,
00000000
00001000
00000000
00010000
00001000
00000000
00000100
00000000
,
00000000
00000000
00001000
00000000
00010000
00001000
00000000
00010000
,
00000000
00010000
00000000
00010000
00100000
00000000
01000000
00000000
,
00100000
00000000
00100000
00000000
01000000
00010000
00000000
00010000
,
00000000
00010000
00000000
00001000
00010000
00000000
01000000
00000000
,
00000000
00000000
00000000
00000000
,
00000000
00000000
00000000
00000000
,
00000000
00000000
00000000
00000000
,
00000000
00000000
00000000
00000000
,
00000001
00000000
00000001
00000010
,
00000100
00000000
00000100
00000010
,
00001000
00000000
00001000
00010000
,
00200000
01000000
01000000
01300000
,
10000000
01000000
00010000
00100000
,
00010000
00100000
00010000
00100000
,
00001000
00000100
00000001
00000010
,
00001000
00000100
00001000
00000100
,
00000001
00000101
00000000
00001010
,
00000010
00011000
00000000
01001000
,
00010000
01100000
00000000
10100000
,
01000000
10010000
00000000
01100000
,
10000000
11000000
00000000
00110000
,
00100000
00011000
00000000
00010100
,
00001000
00000110
00000000
00000011
,
00000100
00001001
00000000
00000110
,
00000100
00000001
00000000
00000010
00000000
00000001
00000000
00000001
,
00000100
00000010
00000000
00001000
00000000
00000010
00000000
00000010
,
00010000
00001000
00000000
00000100
00000000
00001000
00000000
00001000
,
00100000
00010000
00000000
10000000
00000000
00010000
00000000
10010000
,
01000000
10000000
00000000
00100000
00000000
10000000
00000000
10000000
,
01000000
00100000
00000000
00010000
00000000
00100000
00000000
00100000
,
00001000
00010000
00000000
01000000
00000000
00010000
00000000
00010000
,
00000010
00001000
00000000
00001000
00000000
00001000
00000000
00001000
,
00000010
00000200
00000000
00000010
00000000
00001300
00000000
00010000
,
00001000
00200000
00000000
00010000
00000000
01300000
00000000
10000000
,
01000000
00020000
00000000
00001000
00000000
00030100
00000000
00000010
,
00000001
00002000
00000000
00000010
00000000
00003010
00000000
00000001
,
00001001
00000000
00000000
00000000
,
00000000
00000000
00000000
00000000
;

//---------------dance-double - ----------------
#NOTES:
     dance-double:
     :
     Hard:
     9:
     0.417546,0.518826,0.202272,0.010114,0.000000,289.000000,269.000000,20.000000,1.000000,0.000000,0.000000,0.417546,0.518826,0.202272,0.010114,0.000000,289.000000,269.000000,20.000000,1.000000,0.000000,0.000000:
00000000
00000000
00000000
00000000
,
00000000
00000000
00000000
00000000
,
00000000
00000000
00000000
00000000
,
00000000
00000000
00000000
00000000
,
00000000
00000000
00000000
00000000
,
00000001
00000000
00000001
00000010
00001000
00000000
00010000
00010000
,
00001000
00000000
00100000
00100000
00001000
00000000
00010000
00010000
,
00001000
00000000
01000000
01000000
00001000
00000000
01000000
01000000
,
00010000
00000000
00100000
00100000
01000000
00000000
10000000
10000000
,
01000000
00000000
10010000
00000000
00100000
00010000
00000000
00001000
,
00000000
00000010
00001000
00010000
00001000
00000000
00000010
00000000
,
00000100
00000000
00000001
00000000
00001000
00010000
00000000
01000000
,
00000000
00001000
00010000
00001000
00000010
00000000
00000001
00000000
,
00000100
00000000
00001001
00000000
00000010
00001000
00000000
00010000
,
00000000
00100000
00010000
00001000
00010000
00000000
00100000
00000000
,
01000000
00000000
10000000
00000000
00010000
00001000
00000000
00000100
,
00000000
00010000
00001000
00010000
00100000
00000000
10000000
00000000
,
01000000
00000000
11000000
00000000
00100000
00100000
00000000
00010000
,
00000000
10000000
01000000
00100000
00010000
01000000
00100000
00010000
,
00001000
00000000
00011000
00000000
00010000
01000000
00000000
00010000
,
00000000
00001000
00000100
00000001
00000010
00000100
00001000
00000000
,
00000100
00000000
00000101
00000000
00000010
00000010
00000000
00001000
,
00000000
00000001
00000100
00000010
00001000
00000100
00000010
00001000
,
00010000
00000000
00011000
00000000
00001000
00000100
00000000
00001000
,
00000000
00010000
01000000
10000000
00100000
01000000
00010000
00000000
,
20000000
00000000
00000000
00000000
,
00000000
00000000
00000000
30000000
,
00000000
00000000
00000000
00000000
,
00000000
00000000
00000000
00000000
00000000
00000000
00000000
00000010
,
00000100
00000010
00000000
00000001
00000000
00001000
00000000
00000100
,
00000001
00000100
00000000
00000010
00000000
00001000
00000000
00010000
,
00001000
00010000
00000000
00100000
00000000
01000000
00000000
00010000
,
10000000
00010000
00000000
01000000
00000000
01100000
00000000
10000000
,
10000000
01000000
00010000
00100000
,
00010000
00100000
00010000
00100000
,
00001000
00000100
00000001
00000010
,
00001000
00000100
00001000
00000100
,
00000010
00000001
00000010
00000001
00000000
00000001
00000100
00001000
,
00010000
00001000
00010000
00001000
00000000
00010000
00100000
10000000
,
01000000
10000000
01000000
10000000
00000000
10000000
00010000
00100000
,
01000000
00100000
01000000
00100000
00000000
10010000
00000000
00000000
,
00100000
00001000
00000100
00000001
,
00001000
00010000
00001000
00100000
,
10000000
01000000
00001000
00010000
,
00000010
00000001
00001000
00001001
,
00000010
00010000
00000010
00010000
00000000
00001000
00010000
00001000
,
00100000
00010000
00100000
00010000
00000000
10000000
00100000
10000000
,
01000000
00100000
01000000
00100000
00000000
00001000
00010000
00001000
,
00010000
00000100
00010000
00000100
00000000
00010100
00000000
00011000
,
00001000
00000100
00000001
00000100
00000000
00000001
00000010
00001000
,
00010000
00001000
00010000
00100000
00000000
01000000
00100000
10000000
,
01000000
00010000
01000000
00100000
00000000
00001000
00010000
00001000
,
00000100
00000001
00000010
00001000
00000000
00010000
00000000
01100000
,
01000000
10000000
00100000
00010000
00000000
00011000
00000000
00001010
,
00001000
00000001
00000100
00001000
00000000
00011000
00000000
01010000
,
00010000
10000000
01000000
00010000
00000000
00011000
00000000
00001100
,
00001000
00000001
00000010
00001000
00000000
00010100
00000000
00001000
,
00011000
00000000
00000000
00000000
,
00000000
00000000
00000000
00000000
;

//---------------dance-single - ----------------
#NOTES:
     dance-single:
     :
     Challenge:
     14:
     0.680499,0.814143,0.202272,0.222499,0.475338,471.000000,451.000000,20.000000,22.000000,0.000000,0.000000,0.680499,0.814143,0.202272,0.222499,0.475338,471.000000,451.000000,20.000000,22.000000,0.000000,0.000000:
// measure 0
0000
0000
0000
0000
,  // measure 1
0000
0000
0000
0000
,  // measure 2
0000
0000
0000
0000
,  // measure 3
0000
0000
0000
0000
,  // measure 4
0000
0000
0000
0000
,  // measure 5
0001
0010
0001
0000
0010
0100
0010
0000
0100
1000
0100
0000
1000
0001
1000
0000
,  // measure 6
0001
0100
1000
0100
0001
0010
0001
0100
,  // measure 7
0010
1000
0010
0000
1000
0100
1000
0000
0100
0010
0100
0000
0010
0001
0010
0000
,  // measure 8
0001
1000
0001
0000
1000
0100
1000
0000
0100
0001
0100
0000
1000
0000
0010
1000
,  // measure 9
0010
0000
0100
0100
0001
0011
0000
1010
,  // measure 10
0000
0010
0001
0100
0010
1000
0100
0010
,  // measure 11
0011
0000
1001
0000
1000
0010
0001
0010
,  // measure 12
0000
1000
0001
0010
0100
1000
0100
0010
,  // measure 13
0001
0000
2001
0000
3010
0100
0001
0010
,  // measure 14
0002
0000
1003
1000
1010
0000
0100
0001
,  // measure 15
0001
0010
0001
0000
1000
0010
1000
0000
0001
0010
0001
0000
0100
0000
0010
0000
,  // measure 16
1000
0100
1000
0100
1000
0100
1000
0100
0010
0001
0010
0001
0010
0001
0010
0001
,  // measure 17
0100
0010
2000
0000
3001
0010
0001
0100
,  // measure 18
0020
0000
0100
0000
0031
0000
1000
0000
0010
0000
1000
0000
0100
0000
0010
0100
,  // measure 19
0010
0000
0000
0000
0011
0000
0000
0000
0010
0000
0100
0000
1000
0000
0010
1000
,  // measure 20
0010
0000
0100
0000
0001
0000
0010
0000
1000
0000
0010
0000
0001
0000
0000
0001
,  // measure 21
0100
0000
0010
0000
1000
0000
0010
0000
0100
0000
0000
0100
0001
0000
0010
0001
,  // measure 22
0010
0100
1000
1000
0001
0001
0100
0100
,  // measure 23
0010
0000
1000
0000
0010
0000
1000
0000
0100
0000
0010
0000
0001
0000
0100
0001
,  // measure 24
0100
0000
0010
1000
0100
1000
0010
0100
,  // measure 25
0001
0010
0001
0000
1000
0001
1000
0000
0010
0100
0010
0000
0100
0001
0100
0000
,  // measure 26
0001
0010
0001
0000
0010
0100
0010
0000
1000
0001
1000
0000
0001
0010
0001
0000
,  // measure 27
0100
0000
0000
0100
0000
0010
0000
0000
0010
0000
0000
1000
0000
0001
0000
0000
,  // measure 28
0100
0001
0010
0001
1000
0100
1000
0010
,  // measure 29
0100
0000
0101
0000
0000
0000
0001
0010
0000
0000
0010
1000
0000
0000
0010
0000
,  // measure 30
0001
0000
0100
0000
0010
0000
1000
0100
0000
0000
0100
0010
0000
0000
0010
0000
,  // measure 31
0001
0000
0010
0000
1000
0000
0010
0001
0010
0000
0100
1000
0100
0000
1000
0000
,  // measure 32
0001
0100
0001
0100
0001
0100
0001
0100
0010
1000
0010
1000
0010
1000
0010
1000
,  // measure 33
0001
0100
1000
0100
0001
0000
0011
0010
,  // measure 34
1000
0000
0010
0001
0100
0010
0100
0001
,  // measure 35
0010
0100
0000
1010
0000
0011
0000
0010
,  // measure 36
1000
0010
1000
0010
1000
0010
1000
0010
0100
0001
0100
0001
0100
0001
0100
0001
,  // measure 37
0100
0000
0010
0000
2000
0000
0000
0000
3100
0000
0001
0000
0100
0000
0000
1000
,  // measure 38
0010
0000
0100
0000
0010
0000
0000
0010
0001
0000
0010
0000
1000
0000
0100
0010
,  // measure 39
0100
0000
0001
0000
0100
0000
0000
0000
1000
0000
0001
0000
0010
0000
0000
0010
,  // measure 40
0001
0000
0100
0000
0010
0000
1000
0000
0010
0000
1000
0000
0001
0000
0000
0001
,  // measure 41
0100
0000
0010
0000
2000
0000
0001
0000
3200
0000
0001
0000
0300
0000
0000
0001
,  // measure 42
0020
0230
2300
0000
3002
0000
0013
1000
,  // measure 43
0010
0001
0010
0000
2000
0000
0001
0000
3100
0000
0001
0000
0020
0000
0100
0000
,  // measure 44
2030
0000
0001
0000
3100
0000
0000
0000
0101
0000
0000
0001
0010
0000
0001
1000
,  // measure 45
0001
0100
0010
1000
0000
1100
0000
0100
,  // measure 46
0001
0010
0001
0000
0100
0000
0010
0000
1000
0001
0100
0000
0001
0000
0000
0001
,  // measure 47
0010
1000
0010
0001
0000
0101
0000
0100
,  // measure 48
0010
1000
0010
1000
0010
1000
0010
1000
0001
0100
0001
0100
0001
0100
0001
0100
,  // measure 49
0001
0020
0000
1030
0000
1010
0000
0010
,  // measure 50
0001
0000
0100
0000
0010
0000
1000
0001
1000
0000
0001
0000
0010
0000
0001
0000
,  // measure 51
0100
0000
0020
0000
0000
0000
2030
0000
3200
0000
0000
0000
0310
0000
0001
1000
,  // measure 52
0010
0000
1000
0000
0001
0000
0100
0000
0010
0000
0010
0000
1000
0000
1000
0001
,  // measure 53
0100
0010
0200
0001
0300
1000
0000
0010
,  // measure 54
2000
0001
3100
0001
0000
0101
0000
1000
,  // measure 55
0010
0100
0010
0100
0010
0100
0010
0100
0001
1000
0001
1000
0001
1000
0001
1000
,  // measure 56
0001
0100
0010
1010
0000
1100
0000
0110
,  // measure 57
0022
0000
0033
0000
;
