#TITLE:The Wind of Gold;
#SUBTITLE:;
#ARTIST:kors k;
#TITLETRANSLIT:;
#SUBTITLETRANSLIT:;
#ARTISTTRANSLIT:;
#GENRE:;
#CREDIT:;
#BANNER:The Wind of Gold.png;
#BACKGROUND:The Wind of Gold-bg.png;
#LYRICSPATH:;
#CDTITLE:;
#MUSIC:The Wind of Gold.ogg;
#OFFSET:0.000000;
#SAMPLESTART:80.471001;
#SAMPLELENGTH:15.000000;
#SELECTABLE:YES;
#DISPLAYBPM:171.000000;
#BPMS:0.000000=170.615997
,4.000000=169.992996
;
#STOPS:
;
#BGCHANGES:;
#KEYSOUNDS:;
#ATTACKS:;

//---------------dance-single - ----------------
#NOTES:
     dance-single:
     :
     Beginner:
     3:
     0.187705,0.204080,0.018637,0.000000,0.000000,141.000000,139.000000,2.000000,0.000000,0.000000,0.000000,0.187705,0.204080,0.018637,0.000000,0.000000,141.000000,139.000000,2.000000,0.000000,0.000000,0.000000:
0000
0000
0000
0000
,
0000
0000
0000
0000
,
0000
0000
0000
0000
,
0000
0000
0000
0000
,
0000
0000
0000
0000
,
0010
0000
0010
0000
,
0010
0000
0010
0000
,
0010
0000
0010
0000
,
0010
0000
0000
0000
,
0001
0000
0001
0000
,
0001
0001
0001
0000
,
1000
0000
1000
0000
,
1000
1000
1000
0000
,
0001
0000
0001
0000
,
0001
0001
0001
0000
,
1000
0000
1000
0000
,
1000
1000
1000
0000
,
0010
0000
0010
0000
,
0010
0010
0010
0000
,
0100
0000
0100
0000
,
0100
0100
0100
0000
,
0001
0000
0000
0000
,
1000
0000
0000
0000
,
0001
0000
1000
0000
,
0001
0000
1000
0000
,
1001
0000
0000
0000
,
0000
0000
0000
0000
,
0010
0000
0000
0000
,
0000
0000
0000
0000
,
1000
0000
0000
0000
,
0000
0000
0000
0000
,
0001
0000
0000
0000
,
0000
0000
0000
0000
,
1000
0000
1000
0000
,
1000
0000
0000
0000
,
0001
0000
0001
0000
,
0001
0000
0000
0000
,
0010
0000
0010
0000
,
0100
0000
0100
0000
,
0010
0000
0010
0000
,
0100
0000
0000
0000
,
1000
0000
1000
1000
,
1000
0000
1000
0000
,
0100
0000
0100
0100
,
0100
0000
0100
0000
,
0001
0000
0001
0001
,
0001
0000
0001
0000
,
0010
0000
0010
0010
,
0010
0000
0010
0000
,
0001
0000
0001
0001
,
0001
0000
0001
0000
,
0100
0000
0100
0100
,
0100
0000
0100
0000
,
1000
0000
1000
1000
,
1000
0000
1000
0000
,
0010
0000
0100
0100
,
0100
0000
0100
0000
,
0010
0000
0010
0000
,
0001
0001
0001
0000
,
0010
0000
0010
0000
,
1000
1000
1000
0000
,
0001
0000
0001
0000
,
0010
0010
0010
0000
,
1000
0000
1000
0000
,
0010
0010
0010
0000
,
0001
0000
0001
0000
,
0100
0100
0100
0000
,
0010
0000
0010
0000
,
1000
1000
1000
0000
,
0100
0000
0100
0000
,
0010
0010
0010
0000
,
0001
0000
0001
0000
,
0100
0000
0000
0000
,
1001
0000
0000
0000
,
0000
0000
0000
0000
;

//---------------dance-single - ----------------
#NOTES:
     dance-single:
     :
     Easy:
     6:
     0.342130,0.476186,0.288880,0.158418,0.000000,257.000000,226.000000,31.000000,17.000000,0.000000,0.000000,0.342130,0.476186,0.288880,0.158418,0.000000,257.000000,226.000000,31.000000,17.000000,0.000000,0.000000:
0000
0000
0000
0000
,
0000
0000
0000
0000
,
0000
0000
0000
0000
,
0000
0000
0000
0000
,
0000
0000
0000
0000
,
1000
0001
0000
0100
,
0001
1000
0000
0100
,
1000
0001
0000
0010
,
0200
0000
0300
0000
,
1001
0100
0100
0000
,
1001
0010
0010
0000
,
0001
0100
0001
0001
,
1000
0100
1000
1000
,
1001
0010
0100
0000
,
1001
0100
0010
0000
,
0001
0010
0100
0010
,
1000
0100
0010
0100
,
1001
0001
0100
0000
,
1001
1000
0100
0000
,
0010
0100
1000
0001
,
0100
0010
0001
1000
,
0110
0000
0110
0000
,
1001
0000
1001
0000
,
0010
0010
0010
0010
,
1000
0001
1000
0001
,
0200
0000
0000
0300
,
0002
0000
0000
0003
,
0020
0000
0000
0000
,
0000
0030
1000
1000
,
0002
0000
0000
0003
,
0200
0000
0000
0300
,
0020
0000
0000
0000
,
0000
0000
0000
0030
,
1000
1000
1000
1000
,
0010
0010
0010
0010
,
0100
0100
0100
0100
,
0001
0001
0001
0001
,
1000
0001
0100
0100
,
0010
1000
0001
0001
,
0100
0001
0010
0010
,
0001
1000
2002
3003
,
0010
1000
0200
0310
,
0001
1000
0020
0130
,
0001
0002
1000
1003
,
0010
2000
0001
3001
,
0010
0001
2000
3010
,
0100
1000
0002
0103
,
0010
1000
0100
0001
,
0010
0010
0100
0000
,
1000
1001
1000
0100
,
0001
1001
0001
0010
,
0100
0100
0010
1000
,
0001
0100
0010
0010
,
1000
1001
1000
0110
,
0001
1001
0001
0110
,
0010
1000
0100
0001
,
0010
0000
0100
0000
0010
0100
0010
0000
,
1001
0100
0100
1000
,
1001
0010
0010
0001
,
0001
0100
0001
0001
,
1000
0100
1000
1000
,
1001
0010
0100
0001
,
1001
0100
0010
1000
,
0001
0010
0100
0100
,
1000
0100
0020
0030
,
1001
0001
0100
1000
,
1001
1000
0100
0001
,
0010
0100
1000
0010
,
0100
0010
0001
0100
,
0110
0110
0110
0000
,
1001
1001
1001
0000
,
0100
1000
0010
0001
,
0210
0000
0000
0300
,
1001
0000
0000
0000
,
0000
0000
0000
0000
;

//---------------dance-single - ----------------
#NOTES:
     dance-single:
     :
     Medium:
     10:
     0.445967,0.612239,0.335474,0.149099,0.316836,335.000000,299.000000,36.000000,16.000000,0.000000,0.000000,0.445967,0.612239,0.335474,0.149099,0.316836,335.000000,299.000000,36.000000,16.000000,0.000000,0.000000:
0000
0000
0000
0000
,
0000
0000
0000
0000
,
0000
0000
0000
0000
,
0000
0000
0000
0000
,
0000
0000
0000
0000
,
0100
0000
0000
1000
0000
0000
0010
0000
,
0100
0000
0000
0001
0000
0000
0100
0000
,
0010
0000
0000
0010
0000
0000
0100
0000
,
1001
0010
0200
0310
,
1000
0000
0000
1000
0000
0000
1000
0000
0000
0000
0001
0000
0000
0000
0000
0000
,
0010
0000
0000
0010
0000
0000
0010
0000
0000
0001
0000
0000
0001
0000
0000
0000
,
1000
0000
0000
1000
0000
0000
1000
0000
0000
0010
0000
0000
0010
0000
0000
0000
,
0001
0000
0000
0001
0000
0000
0001
0000
0000
1000
0000
0000
1000
0000
0000
0000
,
0100
0000
0000
0100
0000
0000
0100
0000
0000
0000
0010
0000
0000
0000
0000
0000
,
0001
0000
0000
0001
0000
0000
0001
0000
0000
1000
0000
0000
0001
0000
0000
0000
,
0100
0000
0000
0010
0000
0000
0100
0000
0000
0010
0000
0000
0100
0000
0000
0000
,
0001
0000
0000
1000
0000
0000
0001
0000
0000
1000
0000
0000
0001
0000
0000
0000
,
1000
0000
0000
1000
0000
0000
1000
0000
0000
0000
0010
0000
0000
0000
0000
0000
,
0100
0000
0000
0100
0000
0000
0100
0000
0000
0001
0000
0000
0100
0000
0000
0000
,
0010
0000
0000
0010
0000
0000
0010
0000
0000
1000
0000
0000
0010
0000
0000
0000
,
0001
0000
0000
0001
0000
0000
0001
0000
0000
0100
0000
0000
0010
0000
0000
0000
,
1000
0000
0000
1000
0000
0000
1000
0000
0000
0000
0100
0000
0020
0000
0000
0000
,
0031
0000
0000
0001
0000
0000
0001
0000
1000
0000
0001
0000
0020
0000
0000
0000
,
0130
0000
0000
0100
0000
0000
0100
0000
0000
0100
0000
0000
0110
0000
0000
0000
,
0001
0000
0000
1000
0000
0000
0001
0000
0000
1000
0000
0000
1001
0000
0000
0000
,
0200
0000
0000
0000
,
2300
0000
0000
0000
,
3010
0000
0010
0200
0000
0000
0000
0000
,
0000
0000
0301
1000
,
0200
0000
0000
0000
,
2300
0000
0000
0000
,
3010
0000
0010
0200
0000
0000
0000
0000
,
0000
0000
0000
1000
0000
0001
0300
0000
,
0101
0101
0101
0101
,
1100
1100
1100
1100
,
0110
0010
1001
0100
,
0001
0010
1000
0100
,
1001
0000
1000
0000
0001
0010
0001
0000
,
1001
0000
0001
0000
1000
0010
1000
0000
,
0110
0000
0100
0000
0001
1000
0001
0000
,
0100
0100
0001
0000
0020
0000
0130
0000
,
1100
0110
1200
0310
,
0101
0110
0201
0310
,
1000
0000
1000
0000
0010
0100
1000
0000
,
0001
0000
0001
0000
0100
0010
0001
0000
,
0110
1010
0120
1030
,
0110
0011
0120
0031
,
1000
0000
0001
0000
0100
0010
0100
0000
,
0001
1000
1100
0101
,
0010
0000
0000
1000
0001
0000
0000
1000
0001
0000
0000
1000
0001
0000
0000
0000
,
0010
0000
0000
0001
0100
0000
0000
0001
0100
0000
0000
0001
0100
0000
0000
0000
,
1010
0000
1000
0000
0001
1000
0010
0000
,
0100
0000
0000
1000
0100
0000
0000
1000
0100
0000
0000
1000
0100
0000
0000
0000
,
0010
0000
0000
0001
1000
0000
0000
0000
0100
0000
0000
0000
0010
0000
0000
0000
,
0001
0000
0000
1000
0001
0000
0000
0000
0100
0000
0000
0000
0010
0000
0000
0000
,
1000
0000
0000
0001
1000
0000
0000
0000
0001
0000
0000
1000
0001
0000
0000
0000
,
1000
0010
0100
0000
2002
0000
3003
0000
,
0010
0000
0000
0010
0000
0000
0010
0000
0000
0000
1000
0000
0000
0000
0000
0000
,
0001
0000
0000
0001
0000
0000
0001
0000
0000
0100
0000
0000
0010
0000
0000
0000
,
1000
0000
0000
0100
0000
0000
1000
0000
0000
0001
0000
0000
1000
0000
0000
0000
,
0001
0000
0000
0100
0000
0000
0001
0000
0000
1000
0000
0000
0001
0000
0000
0000
,
0010
0000
0000
0010
0000
0000
0010
0000
0000
0000
0100
0000
0000
0000
0000
0000
,
0010
0000
0000
0010
0000
0000
0010
0000
0000
0001
0000
0000
1000
0000
0000
0000
,
0010
0000
0000
1000
0000
0000
0010
0000
0000
0100
0000
0000
0001
0000
0000
0000
,
0010
0000
0000
0001
0000
0000
0010
0000
0000
0100
0000
0000
1000
0000
0000
0000
,
0001
0000
0000
0001
0000
0000
0001
0000
0000
0000
1001
0000
0000
0000
0000
0000
,
0100
0000
0000
0100
0000
0000
0100
0000
0000
1000
0000
0000
0001
0000
0000
0000
,
0100
0000
0000
0010
0000
0000
1000
0000
0000
0100
0000
0000
0001
0000
0000
0000
,
0100
0000
0000
0010
0000
0000
0001
0000
0000
0100
0000
0000
1000
0000
0000
0000
,
0010
0000
0000
0010
0000
0000
0010
0000
0000
0000
0100
0000
0000
0000
0000
0000
,
1000
0000
0000
0001
0000
0000
1000
0000
0000
0001
0000
0000
1000
0000
0000
0000
,
0001
0000
0000
0010
0000
0000
0100
0000
0000
1000
0000
0000
1100
0000
0000
0000
,
1000
0000
0000
0010
0000
0000
0100
0000
0000
0001
0000
0000
0101
0000
0000
0000
,
1001
0000
0000
0000
,
0000
0000
0000
0000
;

//---------------dance-single - ----------------
#NOTES:
     dance-single:
     :
     Hard:
     14:
     0.706891,0.748292,0.680266,0.987783,0.675606,531.000000,458.000000,73.000000,106.000000,0.000000,0.000000,0.706891,0.748292,0.680266,0.987783,0.675606,531.000000,458.000000,73.000000,106.000000,0.000000,0.000000:
// measure 0
0000
0000
0000
0000
,  // measure 1
0000
0000
0000
0000
,  // measure 2
0000
0000
0000
0000
,  // measure 3
0000
0000
0000
0000
,  // measure 4
0000
0000
0000
0000
,  // measure 5
0100
0001
0000
1000
0000
0000
0100
0000
,  // measure 6
1000
0001
0000
0100
0000
0000
1000
0000
,  // measure 7
0100
0001
0010
0001
0100
0010
1000
0100
,  // measure 8
1000
0000
0000
0000
0100
0000
0000
0000
1000
0001
1000
0000
0100
0000
0000
0000
,  // measure 9
1000
0000
0001
1000
0000
0001
1000
0000
0000
0000
0100
0000
1000
0000
0001
0000
,  // measure 10
0100
0000
0001
1000
0000
0001
1000
0000
0000
0010
0000
0000
0100
0000
0000
0000
,  // measure 11
0001
0000
1000
0010
0000
1000
0010
0000
0000
0100
0000
0000
0001
0000
0010
0000
,  // measure 12
0100
0000
1000
0100
0000
1000
0100
0000
0000
0010
0000
0000
0001
0000
0000
0000
,  // measure 13
0100
0000
0001
0100
0000
0001
0100
0000
0000
0000
0100
0000
0001
0000
1000
0000
,  // measure 14
0100
0000
1000
0001
0000
1000
0001
0000
0000
0010
0000
0000
0100
0000
0000
0000
,  // measure 15
1000
0000
0010
1000
0000
0001
0100
0000
0000
0010
0000
0000
1000
0000
0000
0000
,  // measure 16
0001
0000
0010
0001
0000
1000
0001
0000
0001
1000
0000
0001
0000
0000
0010
0000
,  // measure 17
0100
0000
0100
1000
0000
0001
0100
0000
0000
0000
0010
0000
1000
0000
0100
0000
,  // measure 18
1000
0000
1000
0001
0000
0100
0001
0000
0001
0010
0000
0100
1000
0000
0001
0000
,  // measure 19
0100
0000
0100
0010
0000
1000
0010
0000
0010
0100
0000
0001
1000
0000
0010
0000
,  // measure 20
0100
0000
0100
0010
0000
1000
0001
0000
0001
0010
0000
0100
1000
0000
0010
0000
,  // measure 21
1010
0000
0000
0110
0000
0000
0101
0000
0000
0000
0001
0000
2000
0000
0000
0000
,  // measure 22
3001
0000
0000
0101
0000
0000
1000
0000
0010
2000
0000
0000
3001
0100
0001
0100
,  // measure 23
0020
0000
0000
2030
0000
0000
3200
0000
0000
0320
0000
0000
0031
0000
1000
0100
,  // measure 24
0020
0000
0000
0032
0000
0000
0203
0000
0000
0320
0000
0000
1030
0000
0000
0000
,  // measure 25
0120
0000
0000
0000
,  // measure 26
0000
0000
0000
0000
,  // measure 27
1030
0000
0001
2000
0000
0000
0000
0000
,  // measure 28
0000
3010
1000
0100
0001
0000
0100
0000
,  // measure 29
0002
0000
0000
0000
,  // measure 30
0000
0000
0000
0000
,  // measure 31
1003
0000
0001
0200
0000
0000
0000
0000
,  // measure 32
0000
0000
0000
0001
0000
1000
0300
0000
,  // measure 33
0011
0000
0000
0000
0011
0000
0000
0001
0000
0010
0000
0000
0001
0000
0010
0000
,  // measure 34
0110
0000
0000
0000
0110
0000
0000
0100
0000
1000
0000
0000
0100
0000
1000
0000
,  // measure 35
1100
0000
0000
0000
1100
0000
0000
1000
0000
1000
0000
0010
0100
0000
0001
0000
,  // measure 36
1000
0000
1000
0000
0001
1000
0000
0000
0100
0000
1000
0000
0001
0000
1000
0000
,  // measure 37
1010
0000
0000
0000
1010
0000
0000
1000
0010
1000
0000
0000
1000
0000
0010
0000
,  // measure 38
0110
0000
0000
0000
0110
0000
0000
0100
0010
0100
0000
0000
0100
0000
0001
0000
,  // measure 39
0101
0000
0000
0000
0101
0000
0000
0001
0100
0001
0000
0000
1000
0000
0010
0000
,  // measure 40
0100
0000
0001
0010
0200
0000
0000
0000
1300
0001
1000
0001
1000
0000
0000
0000
,  // measure 41
1001
0000
0000
0000
1000
0000
0010
1000
0000
1000
0000
1000
0001
0000
0100
0000
,  // measure 42
0010
0000
1000
0000
0100
0000
0010
0100
0000
0100
0000
0100
0010
0000
0001
0000
,  // measure 43
1000
0000
0001
0000
0100
0000
0010
1000
0000
1000
0000
1000
0100
0000
0010
0000
,  // measure 44
0001
0000
1000
0000
0001
1000
0000
0001
0010
0000
0010
0000
0100
0000
1000
0000
,  // measure 45
0100
0000
0000
0000
0100
0000
1000
0010
0000
0100
0000
0001
0010
0000
0100
0000
,  // measure 46
0010
0000
0001
0000
0100
0000
0001
1000
0000
0010
0000
0100
0010
0000
1000
0000
,  // measure 47
0100
0000
0010
0000
0001
0000
1000
0010
0000
0001
0000
0010
0100
0000
0100
0000
,  // measure 48
0001
1000
0001
0000
0100
0000
0001
0000
0010
0000
0010
0000
0100
0000
1000
0000
,  // measure 49
0010
0000
0000
0000
1001
0000
0000
0100
0001
1000
0000
1000
0001
0000
0010
0000
,  // measure 50
0100
0000
0000
0000
1100
0000
0000
0100
1000
0001
0000
0001
1000
0000
0100
0000
,  // measure 51
0010
0000
0000
0000
0110
0000
0000
0100
1000
0010
0000
1000
0001
0000
0010
0000
,  // measure 52
0100
0000
0010
0000
0100
0010
0000
0000
1000
0000
1000
0000
0001
0000
1000
0000
,  // measure 53
1010
0000
0000
0000
0110
0000
0000
0001
0100
0001
0000
1000
0100
0000
0010
0000
,  // measure 54
0011
0000
0000
0000
0110
0000
0000
0010
0001
0010
0000
0100
1000
0000
0001
0000
,  // measure 55
1001
0000
0000
0000
0011
0000
0000
0001
1000
0001
0000
0010
0100
0000
1000
0000
,  // measure 56
0001
0100
0001
0000
0010
0000
0100
0000
1000
0000
0001
0000
0100
0000
0000
0000
,  // measure 57
2020
3030
0000
0202
0303
0000
2200
0000
3300
0000
2002
0000
0000
0000
3003
0000
,  // measure 58
0202
0303
0000
0022
0033
0000
2200
3300
0000
0202
0303
0000
2020
0000
3030
0000
,  // measure 59
0202
0303
0000
2200
3300
0000
0202
0303
0000
0022
0033
0000
2020
0000
3030
0000
,  // measure 60
0202
0303
0000
2200
3300
0000
0202
0303
0000
0022
0033
0000
2020
0000
3030
0000
,  // measure 61
2200
3300
0000
0220
0330
0000
0022
0033
0000
0000
2002
0000
0000
0000
3003
0000
,  // measure 62
2020
3030
0000
0202
0303
0000
2020
3030
0000
0202
0303
0000
0220
0000
0330
0000
,  // measure 63
2200
3300
0000
0022
0033
0000
2200
3300
0000
0022
0033
0000
2020
0000
3030
0000
,  // measure 64
2002
3003
0000
2200
3300
0000
0202
0303
0000
0220
0330
0000
2002
0000
3003
0000
,  // measure 65
0001
0000
1000
0100
0010
0000
0010
0100
0000
0000
2002
0000
3003
0000
0000
0000
,  // measure 66
0010
0000
0100
0010
0000
1000
0100
0000
0001
0100
0000
0100
0010
0000
0001
0000
,  // measure 67
1000
0000
0010
0100
0000
0001
0010
0000
1000
0010
0000
0100
0010
0000
0001
0000
,  // measure 68
1000
0000
0001
0100
0000
0010
1000
0000
0001
0010
0000
0100
1000
0000
0010
0000
,  // measure 69
0100
0000
0001
1000
0001
0000
1000
0000
0000
0000
2002
0000
3003
0000
0000
0000
,  // measure 70
1000
0000
0010
0100
0000
1000
0010
0000
0001
0100
0000
0010
1000
0000
0001
0000
,  // measure 71
2200
3300
0000
0220
0330
0000
0022
0033
0000
0202
0303
0000
2002
0000
3003
0000
,  // measure 72
1020
0000
0000
0100
0000
0000
0001
0000
0000
0100
0000
0000
1030
0001
1000
0001
,  // measure 73
0100
0000
0000
0000
;

//---------------dance-double - ----------------
#NOTES:
     dance-double:
     :
     Easy:
     6:
     0.324824,0.408159,0.232968,0.149099,0.000000,244.000000,219.000000,25.000000,16.000000,0.000000,0.000000,0.324824,0.408159,0.232968,0.149099,0.000000,244.000000,219.000000,25.000000,16.000000,0.000000,0.000000:
00000000
00000000
00000000
00000000
,
00000000
00000000
00000000
00000000
,
00000000
00000000
00000000
00000000
,
00000000
00000000
00000000
00000000
,
00000000
00000000
00000000
00000000
,
00001000
00000100
00000000
00000000
,
00000001
00000100
00000000
00000000
,
00001000
00010000
00000000
00010000
,
02000000
00000000
03000000
00000000
,
10010000
01000000
01000000
00000000
,
00011000
00010000
00001000
00000000
,
00010000
00000100
00010000
00000100
,
00001000
00000010
00000100
00000100
,
00001001
00000100
00000100
00000000
,
00011000
00001000
00010000
00000000
,
00001000
00100000
00001000
00100000
,
00010000
00100000
00100000
00000000
,
10010000
10000000
01000000
00000000
,
00011000
00010000
00001000
00000000
,
00000100
00000100
00000010
00001000
,
00000100
00000100
00000010
00000001
,
00001001
00000000
00000100
00000000
,
00011000
00000000
00000100
00000000
,
00001000
00010000
00001000
00010000
,
01000000
00100000
01000000
00100000
,
20000000
00000000
00000000
30000000
,
02000000
00000000
00000000
03000000
,
00020000
00000000
00000000
00000000
,
00000000
00030000
00001000
00001000
,
00000020
00000000
00000000
00000030
,
00002000
00000000
00000000
00003000
,
00000002
00000000
00000000
00000000
,
00000000
00000000
00000000
00000003
,
00000100
00000100
00000010
00000010
,
00000100
00000100
00001000
00001000
,
00010000
00010000
00001000
00001000
,
00010000
00010000
01000000
01000000
,
00100000
00100000
10000000
00010000
,
01000000
01000000
00010000
00001000
,
00010000
00010000
00001000
00000100
,
00000010
00000100
00002002
00003003
,
00000010
00000001
00000200
00000310
,
00001000
00000100
00020000
00031000
,
00001000
00200000
00010000
00310000
,
01000000
00200000
10000000
10300000
,
01000000
00100000
00002000
00013000
,
00000100
00000010
00000002
00001003
,
00000100
00000001
00000010
00001000
,
00010000
00001000
00010000
00000000
,
00001000
00001000
00010000
00011000
,
00010000
01000000
10000000
10010000
,
00100000
00100000
00010000
10000000
,
01000000
01000000
00100000
01000000
,
00010000
00010000
00001000
00011000
,
00001000
00000100
00000001
00001001
,
00000010
00000010
00000001
00001000
,
00000010
00000100
00000110
00000000
,
00001001
00000010
00000010
00000000
,
00011000
00001000
00010000
00000000
,
00001000
00100000
00001000
00100000
,
00010000
01000000
00100000
00100000
,
10010000
00100000
00100000
00000000
,
00011000
00010000
00001000
00000000
,
00010000
00000100
00010000
00000100
,
00001000
00000100
00000100
00000000
,
00001001
00001001
00000010
00001000
,
00011000
00001000
00010000
00001000
,
00100000
00100000
01000000
00010000
,
00100000
00100000
01000000
10000000
,
10010000
01100000
00100000
00010000
,
00011000
00010000
00100000
00001000
,
00010000
00001000
00000100
00000010
,
00000200
00000000
00000000
00000300
,
00001001
00000000
00000000
00000000
,
00000000
00000000
00000000
00000000
;

//---------------dance-double - ----------------
#NOTES:
     dance-double:
     :
     Medium:
     10:
     0.460610,0.612239,0.540485,0.149099,0.256265,346.000000,288.000000,58.000000,16.000000,0.000000,0.000000,0.460610,0.612239,0.540485,0.149099,0.256265,346.000000,288.000000,58.000000,16.000000,0.000000,0.000000:
00000000
00000000
00000000
00000000
,
00000000
00000000
00000000
00000000
,
00000000
00000000
00000000
00000000
,
00000000
00000000
00000000
00000000
,
00000000
00000000
00000000
00000000
,
00100000
00000000
00000000
10000000
00000000
00000000
00100000
00000000
,
00010000
00000000
00000000
00001000
00000000
00000000
00010000
00000000
,
00000010
00000000
00000000
00000001
00000000
00000000
00000010
00000000
,
00001001
00000010
00000200
00000310
,
00000001
00000000
00000000
00000001
00000000
00000000
00000100
00000000
00000000
00000000
00001000
00000000
00000000
00000000
00000000
00000000
,
00100000
00000000
00000000
00100000
00000000
00000000
01000000
00000000
00000000
10000000
00000000
00000000
00010000
00000000
00000000
00000000
,
01000000
00000000
00000000
00100000
00000000
00000000
01000000
00000000
00000000
10000000
00000000
00000000
00010000
00000000
00000000
00000000
,
00001000
00000000
00000000
00100000
00000000
00000000
00010000
00000000
00000000
10000000
00000000
00000000
00010000
00000000
00000000
00000000
,
00100000
00000000
00000000
00100000
00000000
00000000
00100000
00000000
00000000
00000000
00010000
00000000
00000000
00000000
00000000
00000000
,
00000010
00000000
00000000
00000010
00000000
00000000
00000100
00000000
00000000
00000001
00000000
00000000
00001000
00000000
00000000
00000000
,
00000100
00000000
00000000
00000001
00000000
00000000
00000010
00000000
00000000
00001000
00000000
00000000
00010000
00000000
00000000
00000000
,
01000000
00000000
00000000
10000000
00000000
00000000
00100000
00000000
00000000
01000000
00000000
00000000
00010000
00000000
00000000
00000000
,
10000000
00000000
00000000
10000000
00000000
00000000
10000000
00000000
00000000
00000000
01000000
00000000
00000000
00000000
00000000
00000000
,
00001000
00000000
00000000
00001000
00000000
00000000
00010000
00000000
00000000
00100000
00000000
00000000
00001000
00000000
00000000
00000000
,
00000100
00000000
00000000
00000001
00000000
00000000
00000100
00000000
00000000
00001000
00000000
00000000
00010000
00000000
00000000
00000000
,
00000010
00000000
00000000
00010000
00000000
00000000
00001000
00000000
00000000
01000000
00000000
00000000
00100000
00000000
00000000
00000000
,
01000000
00000000
00000000
01000000
00000000
00000000
01000000
00000000
00000000
00000000
00100000
00000000
00020000
00000000
00000000
00000000
,
00130000
00000000
00000000
00001000
00000000
00000000
00010000
00000000
00000000
00000000
00010000
00000000
00000200
00000000
00000000
00000000
,
00000310
00000000
00000000
00000010
00000000
00000000
00000010
00000000
00000000
00000010
00000000
00000000
00001001
00000000
00000000
00000000
,
00000001
00000000
00000000
00000100
00000000
00000000
00001000
00000000
00000000
00010000
00000000
00000000
00001000
00000000
00000000
00000000
,
02000000
00000000
00000000
03000000
,
00000200
00000000
00000000
00000300
,
00001000
00000000
00010000
02000000
00000000
00000000
00000000
00000000
,
00000000
00000000
03010000
00001000
,
00000020
00000000
00000000
00000030
,
00200000
00000000
00000000
00000000
,
00310000
00000000
00001000
00000200
00000000
00000000
00000000
00000000
,
00000000
00000000
00000300
00000010
00000000
00000100
00000000
00000000
,
00000101
00000101
00000100
00000010
,
00001100
00001100
00010000
00001000
,
01010000
01010000
01000000
00100000
,
11000000
11000000
10000000
00010000
,
10100000
10100000
01000000
00010000
,
00110000
00110000
00001000
00010000
,
00001010
00001010
00000100
00000001
,
00001000
00000100
00000010
00000000
00000002
00000000
00000103
00000000
,
00001010
00000101
00001020
00010030
,
00011000
00101000
02010000
03100000
,
10100000
00000000
10010000
00000000
10000000
01000000
00010000
00000000
,
00010000
00001000
00010000
00000000
00001000
00000100
00000001
00000000
,
00000101
00000011
00002100
00003010
,
00010100
00101000
00021000
01030000
,
01100000
00000000
11000000
00000000
10000000
00100000
00010000
00000000
,
00001000
00010000
00001000
00000000
00001000
00000010
00000001
00000000
,
00000101
00001100
00000101
00000011
,
00001010
00011000
00110000
10100000
,
11000000
00000000
01010000
00000000
00010000
01000000
10000000
00000000
,
11000000
10100000
00110000
00011000
,
00001010
00000000
00000011
00000000
00000001
00000100
00001000
00000000
,
00011000
00000000
00110000
00000000
00100000
10000000
01000000
00000000
,
01010000
00000000
11000000
00000000
10000000
00100000
00010000
00000000
,
00001000
00000010
00000001
00000000
00002002
00000000
00003003
00000000
,
00000010
00000000
00000000
00000001
00000000
00000000
00000100
00000000
00000000
00000000
00001001
00000000
00000000
00000000
00000000
00000000
,
00000010
00000000
00000000
00010000
00000000
00000000
00000100
00000000
00000000
00010000
00000000
00000000
00000010
00000000
00000000
00000000
,
00010000
00000000
00000000
00001000
00000000
00000000
01000000
00000000
00000000
00001000
00000000
00000000
00100000
00000000
00000000
00000000
,
10000000
00000000
00000000
00100000
00000000
00000000
00001000
00000000
00000000
00100000
00000000
00000000
10000000
00000000
00000000
00000000
,
00010000
00000000
00000000
01000000
00000000
00000000
00010000
00000000
00000000
00000000
00011000
00000000
00000000
00000000
00000000
00000000
,
00000010
00000000
00000000
00000001
00000000
00000000
00001000
00000000
00000000
00010000
00000000
00000000
01000000
00000000
00000000
00000000
,
00100000
00000000
00000000
10000000
00000000
00000000
01000000
00000000
00000000
00001000
00000000
00000000
00010000
00000000
00000000
00000000
,
00100000
00000000
00000000
00001000
00000000
00000000
00000100
00000000
00000000
00000010
00000000
00000000
00010000
00000000
00000000
00000000
,
00000100
00000000
00000000
00000010
00000000
00000000
00000001
00000000
00000000
00000000
00001001
00000000
00000000
00000000
00000000
00000000
,
00000010
00000000
00000000
00010000
00000000
00000000
00001000
00000000
00000000
01000000
00000000
00000000
00010000
00000000
00000000
00000000
,
10000000
00000000
00000000
00010000
00000000
00000000
10000000
00000000
00000000
01000000
00000000
00000000
00010000
00000000
00000000
00000000
,
00001000
00000000
00000000
00100000
00000000
00000000
00001000
00000000
00000000
00000100
00000000
00000000
00001000
00000000
00000000
00000000
,
00010000
00000000
00000000
01000000
00000000
00000000
00100000
00000000
00000000
00000000
11000000
00000000
00000000
00000000
00000000
00000000
,
00010000
00000000
00000000
00001000
00000000
00000000
00000010
00000000
00000000
00000100
00000000
00000000
00010000
00000000
00000000
00000000
,
00000010
00000000
00000000
00001000
00000000
00000000
00100000
00000000
00000000
00001000
00000000
00000000
00000010
00000000
00000000
00000000
,
00000100
00000000
00000000
00000001
00000000
00000000
00000010
00000000
00000000
00001000
00000000
00000000
00100000
00000000
00000000
00000000
,
00011000
00000000
00000000
00000000
,
00000000
00000000
00000000
00000000
;

//---------------dance-double - ----------------
#NOTES:
     dance-double:
     :
     Hard:
     14:
     0.688253,0.748292,0.577760,0.857321,0.680266,517.000000,455.000000,62.000000,92.000000,0.000000,0.000000,0.688253,0.748292,0.577760,0.857321,0.680266,517.000000,455.000000,62.000000,92.000000,0.000000,0.000000:
00000000
00000000
00000000
00000000
,
00000000
00000000
00000000
00000000
,
00000000
00000000
00000000
00000000
,
00000000
00000000
00000000
00000000
,
00000000
00000000
00000000
00000000
,
00010000
00000010
00000000
00001000
00000000
00000000
00010000
00000000
,
00001000
00100000
00000000
00010000
00000000
00000000
00001000
00000000
,
00100000
00001000
00010000
00000010
00001000
00000001
00000100
00000010
,
00000100
00000000
00000000
00000000
00000001
00000000
00000000
00000000
00001000
00000001
00001000
00000001
00000100
00000000
00000000
00000000
,
00000001
00000000
00000010
00000001
00000000
00001000
00000010
00000000
00000000
00000000
00010000
00000000
00001000
00000000
00000100
00000000
,
00000010
00000000
00001000
00000100
00000000
00010000
00001000
00000000
00000000
00100000
00000000
00000000
00010000
00000000
00000000
00000000
,
10000000
00000000
00100000
10000000
00000000
00010000
00100000
00000000
00000000
00001000
00000000
00000000
01000000
00000000
00010000
00000000
,
00100000
00000000
00001000
00010000
00000000
00000100
00001000
00000000
00000000
00000010
00000000
00000000
00000100
00000000
00000000
00000000
,
00000001
00000000
00001000
00000100
00000000
00010000
00001000
00000000
00000000
00000000
00100000
00000000
00001000
00000000
00010000
00000000
,
00000100
00000000
00001000
00000100
00000000
00010000
00001000
00000000
00000000
00100000
00000000
00000000
01000000
00000000
00000000
00000000
,
10000000
00000000
01000000
10000000
00000000
00010000
01000000
00000000
00000000
00001000
00000000
00000000
00010000
00000000
00000000
00000000
,
00000010
00000000
00000100
00000001
00000000
00001000
00000100
00000000
00010000
00001000
00000000
00100000
00000000
00000000
01000000
00000000
,
00100000
00000000
01000000
10000000
00000000
00010000
01000000
00000000
00000000
00000000
00001000
00000000
00010000
00000000
00100000
00000000
,
01000000
00000000
00010000
00100000
00000000
00001000
00010000
00000000
00000100
00001000
00000000
00000010
00000100
00000000
00000001
00000000
,
00000010
00000000
00000001
00001000
00000000
00000100
00010000
00000000
00001000
00100000
00000000
00010000
01000000
00000000
00100000
00000000
,
10000000
00000000
00100000
10000000
00000000
00010000
01000000
00000000
00001000
00100000
00000000
00000010
00010000
00000000
00001000
00000000
,
00011000
00000000
00000000
00010100
00000000
00000000
00001001
00000000
00000000
00000000
00000010
00000000
00000200
00000000
00000000
00000000
,
00010300
00000000
00000000
00011000
00000000
00000000
00101000
00000000
00010000
01000000
00000000
00000000
00200000
00000000
00000000
00000000
,
10300000
00000000
01000000
10000000
00000000
00010000
01000000
00000000
00001000
00010000
00000000
00000010
00001000
00000000
00000001
00000100
,
00000020
00000000
00000000
00000230
00000000
00000000
00002300
00000000
00000000
00023000
00000000
00000000
00130000
00000000
00000000
00000000
,
02100000
00000000
00000000
00000000
,
00000000
00000000
00000000
00000000
,
13000000
00000000
00010000
00002000
00000000
00000000
00000000
00000000
,
00000000
00013000
00100000
10000000
01000000
00000000
00010000
00000000
,
00002000
00000000
00000000
00000000
,
00000000
00000000
00000000
00000000
,
00013000
00000000
00000100
00000002
00000000
00000000
00000000
00000000
,
00000000
00000000
00000000
00000100
00000000
00000010
00000003
00000000
,
00000110
00000000
00000000
00000000
00000100
00000000
00000000
00000001
00000000
00000100
00000000
00000000
00001000
00000000
00010000
00000000
,
00011000
00000000
00000000
00000000
00010000
00000000
00000000
00100000
00000000
10000000
00000000
00000000
01000000
00000000
00100000
00000000
,
01100000
00000000
00000000
00000000
00100000
00000000
00000000
00010000
00000000
00010000
10000000
00000000
01000000
00000000
00010000
00000000
,
00001000
00000000
00010000
00000000
00000100
00010000
00000000
00000000
00001000
00000000
00000010
00000000
00000001
00000000
00000100
00000000
,
00000101
00000000
00000000
00000000
00000010
00000000
00000000
00000001
00000100
00000001
00000000
00000000
00000100
00000000
00000010
00000000
,
00001010
00000000
00000000
00000000
00010000
00000000
00000000
00001000
00010000
00001000
00000000
00000000
01000000
00000000
00010000
00000000
,
01010000
00000000
00000000
00000000
01000000
00000000
00000000
00100000
10000000
00100000
00000000
00000000
10000000
00000000
01000000
00000000
,
00010000
00000000
00001000
00000000
00000020
00000000
00000000
00000000
00000130
00001000
00000100
00001000
00000100
00000000
00000000
00000000
,
00001001
00000000
00000000
00000000
00000001
00000000
00000000
00000100
00000000
00000100
00000000
00000100
00001000
00000000
00010000
00000000
,
01000000
00000000
00000000
00000000
10000000
00000000
00000000
00100000
00000000
00100000
00000000
00100000
10000000
00000000
00010000
00000000
,
10000000
00000000
00000000
00000000
01000000
00000000
00000000
00010000
00000000
00010000
00000000
00010000
00001000
00000000
00000100
00000000
,
00000001
00000000
00001000
00000000
00000001
00000100
00000000
00000100
00000010
00000000
00000100
00000000
00000001
00000000
00000100
00000000
,
00001000
00000000
00000000
00000000
00011000
00000000
00000000
00001000
00000000
00100000
00000000
00010000
01000000
00000000
00100000
00000000
,
10000000
00000000
00000000
00000000
11000000
00000000
00000000
00100000
00000000
00001000
00000000
00010000
01000000
00000000
10000000
00000000
,
00010000
00000000
00000000
00000000
01010000
00000000
00000000
00001000
00000000
00010000
00000000
00000010
00000100
00000000
00000001
00000000
,
00001000
00000001
00001000
00000000
00000010
00000000
00000100
00000000
00000001
00001000
00000001
00000000
00000100
00000000
00001000
00000000
,
00010000
00000000
00000000
00000000
00011000
00000000
00000000
00010000
00001000
00100000
00000000
01000000
10000000
00000000
00100000
00000000
,
01000000
00000000
00000000
00000000
01100000
00000000
00000000
01000000
00010000
00100000
00000000
00001000
00010000
00000000
00000100
00000000
,
00001000
00000000
00000000
00000000
00001100
00000000
00000000
00001000
00010000
00000010
00000000
00000100
00000001
00000000
00000010
00000000
,
00000001
00000000
00000100
00000000
00001000
00010000
00000000
00000000
00001000
00000000
00010000
00000000
00100000
00000000
01000000
00000000
,
01100000
00000000
00000000
00000000
00010000
00000000
01000000
00001000
00000000
00010000
00000000
00000010
00001000
00000000
00000001
00000000
,
00000101
00000000
00000000
00000000
00000010
00000000
00000100
00001000
00000000
00000010
00000000
00010000
00001000
00000000
00100000
00000000
,
01100000
00000000
00000000
00000000
00010000
00000000
01000000
00100000
00000000
00010000
00000000
00001000
00100000
00000000
00010000
00000000
,
00100000
01000000
00100000
00000000
01000000
00000000
00010000
00000000
00001000
00000000
00000100
00000000
00000010
00000000
00000100
00000000
,
00000202
00000303
00000000
00000022
00000033
00000000
00002020
00000000
00003030
00000000
00000022
00000000
00000000
00000000
00000033
00000000
,
00000202
00000303
00000000
00002200
00003300
00000000
00020200
00030300
00000000
00022000
00033000
00000000
00020020
00000000
00030030
00000000
,
02002000
03003000
00000000
00022000
00033000
00000000
00220000
00330000
00000000
22000000
33000000
00000000
20200000
00000000
30300000
00000000
,
00220000
00330000
00000000
20200000
30300000
00000000
22000000
33000000
00000000
00220000
00330000
00000000
00022000
00000000
00033000
00000000
,
00002200
00003300
00000000
00000202
00000303
00000000
00000022
00000000
00000033
00000000
00000220
00000000
00000000
00000000
00000330
00000000
,
00002200
00003300
00000000
00022000
00033000
00000000
02020000
03030000
00000000
22000000
33000000
00000000
20200000
00000000
30300000
00000000
,
00220000
00330000
00000000
00022000
00033000
00000000
00002020
00003030
00000000
00000022
00000033
00000000
00000202
00000000
00000303
00000000
,
00000022
00000033
00000000
00002020
00003030
00000000
00022000
00033000
00000000
00220000
00330000
00000000
20200000
00000000
30300000
00000000
,
00010000
00000000
10000000
01000000
00100000
00000000
01000000
00000000
00000000
00000000
20020000
00000000
30030000
00000000
00000000
00000000
,
00100000
00000000
01000000
10000000
00000000
00010000
01000000
00000000
00001000
00010000
00000000
00000010
00001000
00000000
00000001
00000000
,
00000100
00000000
00000100
00000001
00000000
00001000
00000100
00000000
00010000
00001000
00000000
00100000
00010000
00000000
10000000
00000000
,
01000000
00000000
00100000
01000000
00000000
00010000
00001000
00000000
00000100
00000010
00000000
00001000
00000001
00000000
00000100
00000000
,
00000010
00000000
00001000
00000001
00001000
00000000
00000100
00000000
00000000
00000000
00002002
00000000
00003003
00000000
00000000
00000000
,
00000001
00000000
00001000
00000001
00000000
00010000
00001000
00000000
01000000
00010000
00000000
10000000
01000000
00000000
10000000
00000000
,
00100000
00000000
10000000
00010000
00000000
00100000
00001000
00000000
00010000
00000100
00000000
00001000
00000001
00000000
00000100
00000000
,
00000020
00000000
00000000
00000001
00000000
00000000
00000100
00000000
00000000
00001000
00000000
00000000
00000130
00000001
00000100
00000001
,
00001000
00000000
00000000
00000000
,
00000000
00000000
00000000
00000000
;

//---------------dance-single - ----------------
#NOTES:
     dance-single:
     :
     Challenge:
     15:
     0.894596,0.999897,0.764134,0.941190,0.959827,672.000000,590.000000,82.000000,101.000000,0.000000,0.000000,0.894596,0.999897,0.764134,0.941190,0.959827,672.000000,590.000000,82.000000,101.000000,0.000000,0.000000:
// measure 0
0000
0000
0000
0000
,  // measure 1
0000
0000
0000
0000
,  // measure 2
0000
0000
0000
0000
,  // measure 3
0000
0000
0000
0000
,  // measure 4
0000
0000
0000
0000
,  // measure 5
1000
0100
0000
0001
0100
0000
1000
0000
,  // measure 6
0001
0100
0010
0100
0001
0010
0100
1000
,  // measure 7
0010
1000
0010
1000
0010
1000
0010
1000
0001
0100
0001
0100
0001
0100
0001
0000
,  // measure 8
1000
0001
1000
0001
1000
0000
0000
0000
0010
0100
0010
0100
0001
0000
0000
0000
,  // measure 9
1001
0000
1000
0010
0000
1000
0001
0000
0000
0000
0100
0000
0001
1000
0001
0000
,  // measure 10
1000
0000
0010
0100
0000
0010
0100
0000
0001
0010
0000
0001
0010
0000
0000
0000
,  // measure 11
0100
0000
1000
0010
0000
1000
0010
0000
0100
0001
0000
0100
0001
0000
1000
0000
,  // measure 12
1010
0000
0000
0110
0000
0000
0101
0000
0000
0011
0000
0000
0110
0000
0000
0000
,  // measure 13
1100
0000
1000
0001
0000
1000
0001
0000
0000
0000
0010
0000
0011
0000
0000
0000
,  // measure 14
0100
0000
0010
1000
0000
0010
1000
0000
0001
0100
0000
0001
0100
0000
0000
0000
,  // measure 15
0010
0000
0010
1000
0000
1000
0001
0000
0001
0100
0000
0100
0010
0000
0000
0000
,  // measure 16
1001
0000
1000
0010
0000
0100
0010
0100
0001
0000
0000
0011
0000
0000
0010
0000
,  // measure 17
0100
0000
1000
0001
0000
0001
0010
0000
0010
0000
0100
1000
0100
0000
1000
0000
,  // measure 18
0001
0000
0010
0001
0000
0001
0100
0000
0100
0010
0000
0010
1000
0000
0001
0000
,  // measure 19
0100
0000
0001
1000
0000
0010
1000
0000
0100
0010
0001
0000
1000
0000
0000
0000
,  // measure 20
0001
0000
0100
0001
0000
1000
0010
0000
1000
0100
1000
0000
0001
0000
0100
0000
,  // measure 21
0101
0000
0000
0011
0000
0000
1010
0000
0000
0011
0000
0000
0101
0000
0001
1000
,  // measure 22
0001
0000
0000
1001
0000
0000
1100
0000
0000
0110
0000
0000
0010
0001
0010
0001
,  // measure 23
0100
0000
0000
0110
0000
0000
1010
0000
0000
1001
0000
0000
0101
0000
0100
0010
,  // measure 24
1000
0000
0001
0000
1000
0000
0010
0000
0100
0001
0100
0001
1000
0000
0000
0000
,  // measure 25
1020
0032
0023
2030
,  // measure 26
3200
0320
0032
1000
,  // measure 27
2003
0000
3010
0200
0000
0000
0000
0000
,  // measure 28
0000
0301
1000
0010
1000
0100
0020
0000
,  // measure 29
0032
2003
3200
2300
,  // measure 30
3020
0230
0302
0203
,  // measure 31
0320
0000
1030
0002
1000
0010
1000
0000
,  // measure 32
0203
0000
0000
0000
0310
0000
1000
0000
0010
0000
0100
0000
0001
0010
0001
1000
,  // measure 33
0001
0000
0000
0000
1001
0000
0000
1000
0000
1010
0000
0000
0010
0000
0100
0000
,  // measure 34
0101
0000
0000
0000
0011
0000
0000
0010
0000
0110
0000
0000
0100
0000
1000
0000
,  // measure 35
1001
0000
0000
0000
0101
0000
0000
0100
0000
0101
0000
0001
1000
0000
1010
0000
,  // measure 36
0010
0000
0100
0000
0001
0100
0000
0000
0010
0000
1010
0000
1000
0000
0100
0000
,  // measure 37
0010
0001
0010
0000
0101
0000
0000
0100
0001
0100
0000
0000
0110
0000
0010
1000
,  // measure 38
0001
0000
1000
0000
1010
0000
0000
0010
0100
0001
0000
0000
1000
0100
1000
0000
,  // measure 39
0001
0010
0001
0010
0001
0010
0001
0010
0100
1000
0100
1000
0100
1000
0100
1000
,  // measure 40
0010
0000
0100
0001
0020
0000
0000
0000
0031
1000
0100
1000
0001
0000
0000
0000
,  // measure 41
0101
0000
0000
0000
0110
0000
0010
1000
0000
1000
0000
1000
0001
0000
0100
0001
,  // measure 42
0010
0000
0100
0000
1000
0000
0001
0010
0000
0010
0000
0010
0100
0000
1000
0001
,  // measure 43
1000
0000
0010
0000
0100
0000
0001
0010
0000
0010
0001
1000
0001
0000
0100
0000
,  // measure 44
0010
0000
1000
0000
0100
1000
0000
0001
1000
0000
1000
0000
0010
0000
0100
0000
,  // measure 45
0202
0000
0303
0000
0022
0000
0033
1000
0000
0001
0000
1000
0010
0000
1000
0100
,  // measure 46
0020
0000
0031
0000
0100
0000
0001
1000
0000
0010
1000
0001
1000
0000
0100
0000
,  // measure 47
0022
0000
0033
0000
0100
0000
0010
1000
0000
0100
0001
0000
0100
0000
1000
0000
,  // measure 48
0010
0100
0001
0000
0010
0000
0001
1000
0010
0000
1000
0000
0100
0000
0010
0000
,  // measure 49
0022
0000
0033
0000
0202
0000
0303
0100
0010
1000
0001
1000
0200
0000
0310
0000
,  // measure 50
0220
0000
0330
0000
0001
1000
0000
0001
0100
0010
0000
0010
1000
0000
0100
1000
,  // measure 51
0001
0000
0000
0000
0011
0000
0000
0010
0100
1000
0000
1000
0001
0000
0100
0000
,  // measure 52
0001
0000
0010
0000
0001
1000
0100
0000
1000
0010
0100
0000
0010
1000
0001
0000
,  // measure 53
0100
0010
0100
0010
1000
0000
0001
0000
1000
0001
1000
0001
0100
0000
0010
1000
,  // measure 54
0010
0000
1000
0000
0100
0010
0100
0010
0001
1000
0001
1000
0100
0010
0100
0000
,  // measure 55
0010
0001
0000
1000
0001
0000
1000
0000
0010
1000
0010
1000
0001
0100
0001
0100
,  // measure 56
0001
1000
0010
0000
0100
0000
0001
0000
0011
0000
0010
0000
0110
0000
0100
0000
,  // measure 57
2200
3300
0000
0202
0303
0000
0022
0033
0010
0100
0000
0100
1000
0000
0001
0000
,  // measure 58
0202
0303
0000
0220
0330
0000
2020
3030
0000
2002
3003
0000
0202
0303
0000
0000
,  // measure 59
2020
3030
0000
2200
3300
0000
0202
0303
0000
0022
0033
0000
0010
0100
1000
0100
,  // measure 60
0010
0000
0000
0022
0033
0000
0202
0303
0000
2020
3030
0000
2002
3003
2002
3003
,  // measure 61
0100
0010
0000
0010
1000
0000
0100
0010
0000
0010
0001
1000
0001
0000
0000
0000
,  // measure 62
0202
0303
0000
0220
0330
0000
2020
3030
0000
2002
3003
0000
0202
0303
2002
3003
,  // measure 63
2020
3030
0000
0220
0330
0000
0202
0303
0000
0022
0033
0000
0110
0000
0100
1000
,  // measure 64
0100
0000
0000
2200
3300
0000
2020
3030
0000
0220
0330
0000
0202
0303
0001
0000
,  // measure 65
0010
0100
1000
0000
0010
0000
1000
0000
0001
0000
0100
0001
0010
0000
0000
0000
,  // measure 66
1001
0000
1000
0001
0000
0010
0001
0000
0100
0010
0000
1000
0010
0100
0001
0000
,  // measure 67
0010
0001
0000
1000
0001
0000
0100
1000
0000
0100
0001
0000
0010
0100
1000
0000
,  // measure 68
0001
1000
0000
0001
1000
0000
0010
0100
0010
0100
0001
0000
1000
0001
1000
0000
,  // measure 69
0010
0100
0001
0010
0100
0000
1000
0000
0000
0000
2002
0000
3003
0000
0000
0000
,  // measure 70
0101
0000
0100
0010
0000
1000
0100
0000
0001
0100
0000
0010
0001
0000
0000
0000
,  // measure 71
1000
0010
1000
0010
1000
0010
1000
0010
0100
0001
0100
0001
0100
0001
0100
0001
,  // measure 72
1000
0010
0000
0010
0100
0000
0001
1000
0000
1000
0010
0000
0100
0001
0010
0100
,  // measure 73
2000
0000
0000
0000
,  // measure 74
3000
0000
0000
0000
;
