#TITLE:天空の華;
#SUBTITLE:;
#ARTIST:S-C-U × U1 overground;
#TITLETRANSLIT:Tenkuu no hana;
#SUBTITLETRANSLIT:;
#ARTISTTRANSLIT:;
#GENRE:;
#CREDIT:;
#BANNER:Tenkuu no hana.png;
#BACKGROUND:Tenkuu no hana-bg.png;
#LYRICSPATH:;
#CDTITLE:./CDTitles/DDR (2014).png;
#MUSIC:Tenkuu no hana.ogg;
#OFFSET:0.000000;
#SAMPLESTART:24.000000;
#SAMPLELENGTH:15.000000;
#SELECTABLE:YES;
#DISPLAYBPM:90.000000:180.000000;
#BPMS:0.000000=90.000000
,20.000000=180.000000
,176.000000=90.000000
,192.000000=180.000000
;
#STOPS:175.937500=1.333000
;
#BGCHANGES:;
#KEYSOUNDS:;
#ATTACKS:;

//---------------dance-single - ----------------
#NOTES:
     dance-single:
     :
     Beginner:
     4:
     0.139556,0.153450,0.008645,0.034580,0.000000,108.000000,1.000000,4.000000,0.000000,0.000000,0.000000,0.139556,0.153450,0.008645,0.034580,0.000000,108.000000,1.000000,4.000000,0.000000,0.000000,0.000000:
0000
0000
0000
0000
,
0001
0000
1000
1000
,
1000
0000
0010
0000
,
0001
0000
1000
1000
,
2000
0000
3000
0000
,
0010
0000
0010
0000
,
0010
0000
0000
0000
,
0001
0000
0000
0000
,
1000
0000
0000
0000
,
0010
0000
0010
0000
,
0010
0000
0000
0000
,
1000
0000
1000
0000
,
0001
0000
0000
0000
,
0100
0000
0000
0000
,
0100
0000
0000
0000
,
0001
0000
1000
0000
,
0001
0000
0000
0000
,
0100
0000
0100
0000
,
0010
0000
0010
0000
,
0020
0000
0000
0000
,
0030
0000
0000
0000
,
0100
0000
0000
0000
,
0100
0000
0000
0000
,
0001
0000
1000
0000
,
0001
0000
0000
0000
,
0100
0000
0100
0000
,
0001
0000
0001
0000
,
1000
0000
1000
0000
,
0010
0000
0000
0000
,
0001
0000
0000
0000
,
1000
1000
1000
0000
,
0010
0000
0000
0000
,
0010
0000
0000
0000
,
1000
0000
0000
0000
,
0001
0001
0001
0000
,
1000
0000
0000
0000
,
1001
0000
0000
0000
,
0002
0000
0003
0000
,
2000
0000
3000
0000
,
0010
0000
0010
0000
,
0010
0000
0000
0000
,
0100
0000
0000
0000
,
0001
0000
0000
0000
,
0010
0000
0010
0000
,
0000
0001
0000
1000
,
0000
0001
0000
1000
,
0000
0010
0000
1000
,
0000
0001
0000
0000
,
0001
0000
0001
0000
,
0010
0000
0000
0000
,
1000
0000
1000
0000
,
1000
0000
0000
0000
,
0001
0000
0001
0000
,
0010
0000
0000
0000
,
1000
0000
1000
0000
,
0100
0000
0000
0000
,
0010
0000
0010
0000
,
0010
0000
0000
0000
,
0001
0000
1000
0000
,
0001
0000
1000
0000
,
0001
0000
0000
0000
,
0100
0000
0000
0000
,
0001
0000
0001
0000
,
0001
0000
0000
0000
,
1000
0000
1000
0000
,
1000
0000
0001
0000
,
1000
0000
0000
0000
,
0010
0000
0010
0000
,
0100
0000
0100
0000
,
0001
0000
0001
0000
,
1000
0000
1000
0000
,
0001
0000
0000
0000
,
0000
0000
0000
0000
;

//---------------dance-single - ----------------
#NOTES:
     dance-single:
     :
     Easy:
     7:
     0.226007,0.245520,0.043225,0.077806,0.000000,169.000000,5.000000,9.000000,0.000000,0.000000,0.000000,0.226007,0.245520,0.043225,0.077806,0.000000,169.000000,5.000000,9.000000,0.000000,0.000000,0.000000:
0000
0000
0000
0000
,
1000
0010
0001
0010
,
1000
0010
1000
0100
,
0001
0100
1000
0100
,
0001
0100
0010
0100
,
0001
0000
1000
0000
,
0001
0010
0001
0000
,
1000
0000
0100
0000
,
1000
0100
1000
0000
,
0010
0000
0100
0000
,
0001
0000
1000
0000
,
0010
0010
1000
0000
,
0001
0000
0000
0000
,
0020
0000
0000
0031
,
0001
0000
1000
0000
,
0001
0010
0001
0010
,
0100
0000
0000
0000
,
1000
0000
0010
0000
,
1000
0000
0001
1000
,
0100
0000
0000
0000
,
0110
0000
0000
0000
,
0200
0000
0000
1300
,
1000
0000
0001
0000
,
1000
0010
1000
0010
,
0100
0000
0000
0000
,
0001
0000
0100
0000
,
1000
0000
0001
0100
,
0001
0100
0001
0100
,
0001
1000
0001
1000
,
0001
0000
0000
0000
,
0001
1000
0100
0000
,
1100
0000
0000
0000
,
0020
0030
0020
0030
,
0001
0000
0000
0000
,
1000
0001
0100
0000
,
0200
0000
0300
0000
,
1001
0000
0000
0000
,
2000
3000
0002
0003
,
0200
0300
0020
0030
,
1000
0000
0010
0000
,
1000
0001
0000
0000
,
0001
0000
0010
0000
,
0001
0000
0001
0000
,
1000
1000
0100
0000
,
0000
0001
1000
0100
,
1000
0000
0001
0000
0100
0000
0100
0001
,
0001
0001
1000
0100
,
0001
0100
0010
0000
,
1000
0000
0001
0000
,
1000
0010
1000
0000
,
0001
0000
1000
0000
,
0001
0010
0001
0000
,
0100
0000
0010
0000
,
1000
0000
0001
0000
,
0010
0010
0001
0000
,
0110
0000
0000
0000
,
0001
0000
0000
1000
,
0100
0000
0010
0000
,
0001
0100
0001
0100
,
0001
0001
1000
0000
,
0001
0000
0000
0001
,
0100
0000
0010
0000
,
1000
0000
0001
0000
,
0100
0000
0000
0000
,
0001
0001
1000
1000
,
0100
0000
0010
0000
,
0001
0000
0010
0001
,
0010
0000
0001
1000
,
0100
0000
0000
0100
,
1000
0000
0010
0000
,
0100
0000
0000
0000
,
1001
0000
0000
0000
,
0000
0000
0000
0000
;

//---------------dance-single - ----------------
#NOTES:
     dance-single:
     :
     Medium:
     12:
     0.453248,0.398970,0.103741,0.095096,0.103741,344.000000,12.000000,11.000000,0.000000,0.000000,0.000000,0.453248,0.398970,0.103741,0.095096,0.103741,344.000000,12.000000,11.000000,0.000000,0.000000,0.000000:
// measure 0
0000
0000
0000
0000
,  // measure 1
1000
0000
0000
0000
0000
0000
0000
0000
0010
0000
0000
0000
0000
0000
0000
0000
0100
0000
0000
0001
0000
0000
1000
0000
0100
0000
0000
0000
1000
0000
0000
0000
,  // measure 2
0001
0000
0010
0000
0001
0000
1000
0100
,  // measure 3
0010
0000
0000
0000
0000
0000
0000
0000
0010
0000
0000
0000
0000
0000
0000
0000
0001
0000
0000
1000
0000
0000
0001
0000
0100
0000
0000
0000
0001
0000
0000
0000
,  // measure 4
1000
0000
0100
0000
0001
0000
1000
0100
,  // measure 5
1000
0001
0100
0001
,  // measure 6
1000
0010
1000
0000
0001
0100
0001
0000
,  // measure 7
0010
0100
0010
0001
,  // measure 8
1000
0000
0100
0000
1100
0000
0010
0001
,  // measure 9
0010
0100
1000
0010
,  // measure 10
0002
0000
0103
0000
1000
0100
1000
0000
,  // measure 11
0010
0000
0100
0000
0001
0100
0001
0000
,  // measure 12
2002
0000
3003
0000
,  // measure 13
0001
0100
0000
0010
0000
0100
0000
0001
,  // measure 14
1000
0000
0100
0000
1000
0001
0100
0000
,  // measure 15
0010
1010
0101
1001
,  // measure 16
0200
2300
3001
0100
,  // measure 17
0001
0010
0000
0001
0100
0000
1000
0100
,  // measure 18
0000
0000
1000
0000
0010
0000
0000
0000
0001
0000
0000
0010
0000
0000
0100
0000
,  // measure 19
1000
0000
0001
0000
1000
0000
0010
0100
,  // measure 20
0001
0000
0000
0000
,  // measure 21
0001
0100
0000
0010
0000
0100
0000
0001
,  // measure 22
1000
0000
0100
0000
1000
0001
0100
0000
,  // measure 23
0001
1001
1100
1010
,  // measure 24
0200
0001
0301
1000
,  // measure 25
0001
0010
0000
0100
0000
1000
0000
0100
,  // measure 26
0000
1000
0000
0010
0000
0100
0000
0010
,  // measure 27
1000
0100
1000
0100
0010
0100
0010
0100
,  // measure 28
1000
0100
0010
0100
0010
0001
0010
0000
,  // measure 29
0000
0000
0001
0000
0100
0001
1000
0000
,  // measure 30
0001
0000
0010
0000
0100
0010
0100
1000
,  // measure 31
0100
0000
1000
0000
0001
0100
0001
0000
,  // measure 32
1000
0100
0000
0010
0001
0100
0000
0010
,  // measure 33
1000
0000
0001
0000
1000
0010
1000
0000
,  // measure 34
0001
0000
0100
0000
0010
0100
0001
0000
,  // measure 35
2000
3010
0100
0020
,  // measure 36
0031
0000
1000
0100
1000
0100
1000
0000
,  // measure 37
2000
0000
0010
3010
,  // measure 38
0002
0000
0100
0103
,  // measure 39
1000
0100
1000
0000
1000
0010
1000
0000
,  // measure 40
0001
0010
0001
0000
0000
0000
0100
0000
,  // measure 41
0010
1010
0001
0100
,  // measure 42
0110
0000
0001
1000
0100
1000
0100
0000
,  // measure 43
1000
0000
0001
0000
0100
0001
0000
0000
,  // measure 44
0000
0000
0000
0000
0000
0000
0000
0000
1000
0000
0000
0000
0000
0000
0000
0000
0100
0000
0000
1000
0000
0000
0100
0000
0010
0000
0000
0000
0001
0000
0000
0000
,  // measure 45
0100
0000
0010
0000
0100
0000
0001
0010
,  // measure 46
0100
0000
0000
0000
0000
0000
0000
0000
0010
0000
0000
0000
0000
0000
0000
0000
0001
0000
0000
0100
0000
0000
0010
0000
0100
0000
0000
0000
0001
0000
0000
0000
,  // measure 47
1000
0010
0100
0000
,  // measure 48
1000
0001
0100
0001
,  // measure 49
1000
0010
1000
0000
0001
0100
0001
0000
,  // measure 50
0010
0100
0010
0001
,  // measure 51
1000
0000
1001
0000
0001
0000
1000
0100
,  // measure 52
1000
0010
0100
0001
,  // measure 53
0001
0010
0001
0000
0100
1000
0100
0000
,  // measure 54
1000
0000
0010
0000
0100
0001
0100
0000
,  // measure 55
0020
0000
0030
0000
,  // measure 56
1000
0000
0000
0000
0001
0000
0000
0010
0000
0000
0100
0000
1000
0000
0000
0000
,  // measure 57
0001
0000
0000
0100
0000
0000
0010
0000
0000
0100
0000
0000
0001
0000
0000
0000
,  // measure 58
1000
0000
0000
0001
0000
0000
0100
0000
0000
0001
0000
0000
0010
0000
0100
0000
,  // measure 59
0010
0001
1000
0001
0000
0001
0100
0010
,  // measure 60
0100
0010
1000
0010
0000
0100
0001
1000
,  // measure 61
0001
0000
0000
0100
0000
0000
0010
0000
0000
0000
0001
0000
0010
0000
0100
0000
,  // measure 62
0001
0000
0000
1000
0000
0000
0100
0000
0000
0000
0000
0000
0010
0000
0000
0000
,  // measure 63
0100
0000
0000
0000
,  // measure 64
1000
0000
0000
0000
0001
0000
0000
0100
0000
0000
0001
0000
0100
0000
0010
0000
,  // measure 65
1000
0000
0000
0100
0000
0000
0010
0000
0000
0001
0000
0000
0010
0000
0100
0000
,  // measure 66
0010
0000
0000
0001
0000
0000
1000
0000
0000
0010
0000
0000
0100
0000
0001
0000
,  // measure 67
0010
0000
0000
0000
0010
0000
0000
0001
0000
0000
0100
0000
0010
0000
1000
0000
,  // measure 68
0001
0000
0010
0001
0100
0001
1000
0100
,  // measure 69
1000
0000
0000
0010
0000
0000
0100
0000
0000
0000
0001
0000
1000
0000
0010
0000
,  // measure 70
1000
0000
0000
0001
0000
0000
0100
0000
0000
0000
0000
0000
0000
0000
0000
0000
,  // measure 71
0110
0000
0000
0000
;

//---------------dance-single - ----------------
#NOTES:
     dance-single:
     :
     Hard:
     15:
     0.800286,1.000000,0.414963,0.043225,0.583542,595.000000,48.000000,5.000000,0.000000,0.000000,0.000000,0.800286,1.000000,0.414963,0.043225,0.583542,595.000000,48.000000,5.000000,0.000000,0.000000,0.000000:
// measure 0
0000
0000
0000
0000
,  // measure 1
1000
0000
0001
0000
1000
0000
0001
0100
0000
0000
0001
0000
0010
0000
0100
0000
0010
0000
0000
0001
0000
0000
1000
0000
0000
0001
0000
0000
0100
0000
0000
0000
,  // measure 2
1000
0001
0000
1000
0100
0000
0010
0001
0000
0010
0001
0000
1000
0000
0100
0000
1000
0000
0001
0000
1000
0000
0001
0100
0000
0000
0010
0000
1000
0000
0100
0000
,  // measure 3
0010
0000
0001
0000
1000
0000
0010
0000
0100
0000
0001
0000
0010
0000
0100
0000
1000
0000
0000
1010
0000
0000
0110
0000
0000
0000
0100
0000
0001
0000
1000
0000
,  // measure 4
0001
0000
0000
0011
0000
0000
0110
0000
0000
0000
1000
0000
0100
0000
0010
0000
0001
0000
1000
0000
0100
0000
1000
0000
0010
0000
0100
0000
1000
0000
0100
0000
,  // measure 5
0001
0000
0000
0000
1001
0000
0000
0000
1000
0000
0001
0100
0001
0000
0000
0000
,  // measure 6
0010
0001
0100
1000
0100
0001
0010
0000
,  // measure 7
0001
1000
0100
0010
1000
0010
0001
1000
,  // measure 8
0001
0000
0101
0000
1010
0000
0010
0001
,  // measure 9
0010
0100
0110
0000
0001
0100
0010
0001
,  // measure 10
0010
1000
0100
0010
0100
1000
0100
0010
,  // measure 11
0001
0000
0110
0000
0101
0000
1000
0001
,  // measure 12
1000
0000
0100
0000
0001
0000
0100
0010
0100
0010
0100
0000
0001
0100
0001
0000
,  // measure 13
0010
0011
0000
1001
0000
0001
0010
0001
,  // measure 14
0100
0110
0000
1010
0000
0001
1000
0100
,  // measure 15
0010
0000
0001
0010
0001
0000
1000
0001
1000
0000
0001
0010
0001
0000
0010
0000
,  // measure 16
0100
0010
0000
0011
0000
1100
0000
0001
,  // measure 17
0100
0001
0100
0000
0010
0000
0100
0010
0100
0000
0001
0000
1000
0100
1000
0000
,  // measure 18
0100
0000
0010
0100
0010
0000
0100
0000
1000
0000
0000
0101
0000
0000
0100
0000
,  // measure 19
0001
0000
0000
0010
0000
0000
0001
0000
1000
0000
0100
0000
0010
0000
0001
0000
,  // measure 20
0010
0100
0010
0000
0001
0000
0010
0000
0001
0010
0001
0000
0010
0000
0100
0000
,  // measure 21
0010
1010
0000
1001
0000
1000
0010
1000
,  // measure 22
0100
1100
0000
0110
0000
0010
0001
1000
,  // measure 23
0010
0000
1000
0010
1000
0000
0001
1000
0001
0000
1000
0010
1000
0000
0010
0000
,  // measure 24
0100
0001
1000
0100
0001
0000
1100
0001
,  // measure 25
0100
1000
0100
0000
0010
0000
0100
0010
0100
0000
1000
0000
0001
0100
0001
0000
,  // measure 26
0100
0000
0010
0100
0010
0000
0100
0000
0001
0000
1000
0000
0001
0000
0100
0000
,  // measure 27
0001
1000
0001
0000
1000
0000
0100
0000
1000
0100
1000
0000
0001
0000
0010
0000
,  // measure 28
0001
0010
0001
0000
0010
0100
0010
0000
0100
1000
0100
0000
2000
0000
0000
0000
,  // measure 29
3001
0000
0110
0000
1000
0010
0001
0000
,  // measure 30
1000
0000
0100
0000
1000
0000
0001
0000
0100
0000
0001
0000
1000
0000
0000
0100
0000
0000
0010
0000
0000
0100
0000
0000
,  // measure 31
0110
0000
0000
0000
0010
0000
0001
0000
1000
0100
1000
0100
1000
0000
0001
0000
,  // measure 32
0000
0000
1100
0000
0000
0000
0010
0100
0010
0000
0001
0000
0000
0000
0010
1000
,  // measure 33
0010
0000
0000
0000
0100
0010
0100
0000
0001
0000
0100
0000
1000
0000
0100
0000
,  // measure 34
1000
0000
0010
0000
1000
0000
0001
0000
0010
0000
0001
0000
1000
0000
0000
0100
0000
0000
1100
0000
0000
0000
0000
0000
,  // measure 35
0002
0100
0203
0010
0320
0001
0031
0000
,  // measure 36
1000
0000
0000
0000
0010
0000
1000
0000
0001
0100
0010
1000
0010
0000
0100
0000
,  // measure 37
0001
0000
0010
0000
0001
0000
0100
0010
1000
0000
0010
0000
1000
0000
0100
1000
,  // measure 38
0100
0010
0100
0001
0100
0010
0001
0000
,  // measure 39
0010
0000
0001
1000
0001
0000
0010
0001
0010
0000
0001
1000
0100
0000
1000
0010
,  // measure 40
0100
0010
0100
0000
1100
0000
0110
0100
,  // measure 41
1000
0000
0101
0000
1000
0100
1000
0010
,  // measure 42
1010
0000
0001
0100
0010
0100
0001
1000
,  // measure 43
0100
0010
0100
0010
0001
1000
0000
0000
,  // measure 44
0001
0000
0000
0000
1000
0000
0000
0000
0100
0000
0000
0000
0010
0000
0000
0000
0001
0000
0000
0100
0000
0000
0010
0000
1000
0000
0000
0000
0100
0000
0000
0000
,  // measure 45
0010
0100
1000
0001
0000
0010
0001
0010
0100
0000
0100
0000
1000
0000
0010
0000
,  // measure 46
1001
0000
0000
0000
0001
0000
0100
0000
0001
0000
0000
0000
0010
0000
0000
0000
1000
0000
0000
0001
0000
0000
0100
0000
1000
0000
0000
0000
0010
0000
0000
0000
,  // measure 47
0100
0000
0001
1000
0100
0000
0010
0000
1100
0000
0000
0000
0000
0000
0000
0000
,  // measure 48
0010
0000
0000
0000
1001
0000
0000
0000
1000
0000
0001
0100
0001
0000
0000
0000
,  // measure 49
0010
0001
0100
1000
0100
0001
0010
0010
,  // measure 50
0001
1000
0100
0010
1000
0010
0001
1000
,  // measure 51
0010
0000
0101
0000
1010
0000
0100
0001
,  // measure 52
0010
0000
0110
0000
0001
0100
0010
0001
,  // measure 53
0010
1000
0001
0100
1000
0001
0010
1000
,  // measure 54
0100
0000
0110
0000
1001
0000
1000
0010
,  // measure 55
0110
1100
0011
1001
,  // measure 56
1000
0000
0001
0100
0001
0000
1000
0100
0000
1000
0001
0000
0010
0000
0100
0000
,  // measure 57
0010
0000
0001
0010
0000
0100
0010
0000
0001
0010
0000
1000
0010
0000
0001
0000
,  // measure 58
1000
0100
0000
1000
0100
0000
0010
0001
0000
0010
0001
0000
1000
0000
0010
0000
,  // measure 59
1000
0000
0001
0000
0100
0001
0010
0001
0000
0000
1000
0000
0001
0010
0001
0100
,  // measure 60
0010
0000
1010
0000
0001
0000
0010
0000
0001
0000
0010
0000
0100
1000
0100
0010
,  // measure 61
0001
0000
1000
0001
0000
0100
0001
0000
0000
0000
1001
0000
0100
0000
1000
0000
,  // measure 62
0001
0000
0000
0011
0000
0000
0100
0000
0001
0000
1000
0000
0010
0000
1000
0000
,  // measure 63
0001
0010
0100
1000
0001
0100
1000
0100
,  // measure 64
0001
0000
0010
0001
1000
0000
0100
0010
0000
0001
0010
0000
0100
0000
1000
0000
,  // measure 65
0001
0000
1000
0010
0000
1000
0001
0000
0100
0010
0000
1000
0001
0000
1000
0000
,  // measure 66
0100
0010
0000
0100
1000
0000
0100
0010
0000
0100
0010
0000
0001
0000
0010
0000
,  // measure 67
0100
0000
1000
0000
0001
0010
0100
1000
0000
0000
0010
0000
1000
0010
0100
0001
,  // measure 68
0100
0000
0101
0000
1000
0000
0001
0000
0100
0000
0010
0000
0100
0001
0010
0001
,  // measure 69
1000
0000
0100
1000
0000
0001
1000
0000
0100
0000
0010
0000
0001
0000
1000
0000
,  // measure 70
0010
0000
0000
1010
0000
0000
0101
0000
0000
0000
0001
0000
0010
0000
0100
0000
,  // measure 71
2000
0000
0000
0000
,  // measure 72
0000
0000
0000
0000
0000
0000
0000
3000
;

//---------------dance-double - ----------------
#NOTES:
     dance-double:
     :
     Easy:
     7:
     0.226007,0.276210,0.034580,0.077806,0.000000,170.000000,4.000000,9.000000,0.000000,0.000000,0.000000,0.226007,0.276210,0.034580,0.077806,0.000000,170.000000,4.000000,9.000000,0.000000,0.000000,0.000000:
00000000
00000000
00000000
00000000
,
10000000
01000000
00010000
00001000
,
00000010
00000000
00000001
00000000
00000100
00000000
00001000
00010000
,
00001000
00010000
01000000
10000000
,
00100000
00010000
00001000
00000000
,
00000010
00000000
00000100
00000000
,
00000010
00001000
00010000
00000000
,
00001000
00000000
00010000
00000000
,
00100000
01000000
00100000
00000000
,
10000000
00000000
01000000
00000000
,
00010000
00000000
00001000
00000000
,
00000010
00000010
00000001
00000000
,
00000100
00000000
00000000
00000000
,
00002000
00000000
00000000
00013000
,
00010000
00000000
00001000
00000000
,
00100000
00001000
00010000
00001000
,
00100000
00000000
00000000
00000000
,
00001000
00000000
01000000
00000000
,
00100000
00000000
00010000
00001000
,
00000100
00000000
00000000
00000000
,
00000001
00000000
00000000
00000000
,
00000020
00000000
00000000
00001030
,
00001000
00000000
00010000
00000000
,
00001000
01000000
00010000
01000000
,
00001000
00000000
00000000
00000000
,
00010000
00000000
00001000
00000000
,
00000010
00000000
00001000
00000000
,
00010000
00001000
00000100
00001000
,
00010000
00010000
00100000
01000000
,
00010000
00000000
00000000
00000000
,
10000000
01000000
00010000
00000000
,
00011000
00000000
00000000
00000000
,
00000200
00000310
00000002
00000103
,
00001000
00000000
00000000
00000000
,
00010000
00001000
00000100
00000000
,
00000002
00000000
00000003
00000000
,
00000110
00000000
00000000
00000000
,
00002000
00003000
00020000
00030000
,
02000000
03000000
20000000
30000000
,
00100000
00000000
00010000
00000000
,
00001000
00011000
00000000
00000000
,
00001000
00000000
00100000
00000000
,
00010000
00000000
00001000
00000000
,
00000010
00000010
00000100
00000000
,
00000000
00000001
00001000
00000100
,
00000010
00000000
00001000
00000000
00010000
00000000
01000000
01000000
,
10000000
00010000
10000000
00100000
,
00010000
00001000
00000100
00000000
,
00000001
00000000
00000100
00000000
,
00001000
00010000
00001000
00000000
,
00010000
00000000
00100000
00000000
,
10000000
00100000
00010000
00000000
,
00001000
00000000
00000010
00000000
,
00001000
00000000
00010000
00000000
,
00001000
00001000
00000100
00000000
,
00000001
00000000
00000000
00000000
,
00000001
00000000
00000000
00000100
,
00001000
00000000
00010000
00000000
,
00001000
00010000
00001000
00010000
,
01000000
01000000
10000000
00000000
,
00100000
00000000
00000000
00010000
,
00001000
00000000
00000010
00000000
,
00000001
00000000
00000100
00000000
,
00001000
00000000
00000000
00000000
,
00010000
00010000
00001000
00001000
,
00000100
00000000
00000001
00000000
,
00000010
00000000
00001000
00010000
,
00001000
00000000
00010000
01000000
,
10000000
00000000
00000000
00100000
,
00010000
00000000
00001000
00000000
,
00000100
00000000
00000000
00000000
,
00001001
00000000
00000000
00000000
,
00000000
00000000
00000000
00000000
;

//---------------dance-double - ----------------
#NOTES:
     dance-double:
     :
     Medium:
     12:
     0.448308,0.429659,0.112386,0.077806,0.103741,341.000000,13.000000,9.000000,0.000000,0.000000,0.000000,0.448308,0.429659,0.112386,0.077806,0.103741,341.000000,13.000000,9.000000,0.000000,0.000000,0.000000:
00000000
00000000
00000000
00000000
,
00000100
00000000
00000000
00000000
00000000
00000000
00000000
00000000
00000001
00000000
00000000
00000000
00000000
00000000
00000000
00000000
00000010
00000000
00000000
00001000
00000000
00000000
00010000
00000000
00001000
00000000
00000000
00000000
00010000
00000000
00000000
00000000
,
01000000
00000000
10000000
00000000
00100000
00000000
00010000
00001000
,
00011000
00000000
00000000
00000000
00000000
00000000
00000000
00000000
00001000
00000000
00000000
00000000
00000000
00000000
00000000
00000000
00000010
00000000
00000000
00000001
00000000
00000000
00000100
00000000
00001000
00000000
00000000
00000000
00010000
00000000
00000000
00000000
,
00001000
00000000
00010000
00000000
01000000
00000000
10000000
01000000
,
00010000
00001000
00000100
00000001
,
00001000
00000100
00001000
00000000
00000001
00000010
00000001
00000000
,
00000100
00001000
00010000
00100000
,
10000000
00000000
01000000
00000000
00010000
00000000
00001000
00010000
,
00001000
00000100
00000010
00000001
,
00000010
00000000
00000100
00000000
00001000
00010000
00001000
00000000
,
00010000
00000000
01000000
00000000
10000000
01000000
10000000
00000000
,
20020000
00000000
30030000
00000000
,
01000000
00100000
00000000
00100000
00000000
00010000
00000000
00001000
,
00010000
00000000
01000000
00000000
00010000
00001000
00010000
00000000
,
00001000
00011000
00010100
00001100
,
00000002
00000103
00002000
00013000
,
00010000
00001000
00000000
00010000
00000100
00000000
00001000
00010000
,
00000000
00000000
00001000
00000000
01000000
00000000
00000000
00000000
00100000
00000000
00000000
00010000
00000000
00000000
00001000
00000000
,
00010000
00000000
00001000
00000000
00000100
00000000
00000010
00000100
,
00000001
00000000
00000000
00000000
,
00000010
00000100
00000000
00000010
00000000
00001000
00000000
00010000
,
00001000
00000000
00000010
00000000
00001000
00010000
00001000
00000000
,
00010000
00011000
01001000
01010000
,
10000000
01000000
01000000
00010000
,
00001000
00010000
00000000
00000100
00000000
00000010
00000000
00001000
,
00000000
00010000
00000000
00100000
00000000
00010000
00000000
00001000
,
00010000
01000000
10000000
00000000
01000000
00010000
00001000
00000000
,
00010000
00000000
00000100
00000000
00000010
00000100
00001000
00000000
,
00000001
00000000
00000100
00000000
00000100
00001000
00010000
00000000
,
00100000
00000000
00010000
00000000
00001000
00010000
00001000
00000100
,
00001000
00000000
00010000
00000000
00010000
01000000
00100000
00000000
,
00001000
00010000
00000000
00000010
00000100
00001000
00000000
00010000
,
00001000
00000000
00010000
00000000
01000000
00100000
01000000
00000000
,
00010000
00000000
00001000
00000000
00000010
00001000
00010000
00000000
,
00002000
00003100
00000001
00000020
,
00001030
00000000
00010000
00001000
00010000
00001000
00010000
00000000
,
02000000
00000000
13000000
00100000
,
00020000
00000000
00001000
01030000
,
00100000
00000000
01000000
00010000
00001000
00000000
01000000
00100000
,
00010000
00001000
00010000
00000000
00000000
00000000
00001000
00000000
,
00000100
00000101
00000010
00001000
,
00011000
00000000
00010000
01000000
00100000
01000000
00010000
00000000
,
00001000
00000000
00010000
00000000
00100000
01000000
00000000
00000000
,
00000000
00000000
00000000
00000000
00000000
00000000
00000000
00000000
00010000
00000000
00000000
00000000
00000000
00000000
00000000
00000000
00001000
00000000
00000000
00000100
00000000
00000000
00000001
00000000
00000100
00000000
00000000
00000000
00001000
00000000
00000000
00000000
,
00010000
00000000
01000000
00000000
10000000
00000000
00100000
00010000
,
00001000
00000000
00000000
00000000
00000000
00000000
00000000
00000000
00010000
00000000
00000000
00000000
00000000
00000000
00000000
00000000
01000000
00000000
00000000
00010000
00000000
00000000
00001000
00000000
00010000
00000000
00000000
00000000
00001000
00000000
00000000
00000000
,
00000100
00000001
00000110
00000000
,
00001000
00010000
00001000
00000100
,
00000001
00000010
00000001
00000000
00000010
00001000
00000010
00000000
,
00001000
00010000
00100000
10000000
,
01000000
00000000
10010000
00000000
00100000
00000000
00010000
00001000
,
00010000
01000000
10000000
00100000
,
00010000
00001000
00010000
00000000
00001000
00000000
00000100
00000000
,
00000001
00000000
00000010
00000000
00001000
00010000
00001000
00000000
,
00000020
00000000
00000030
00001000
,
00010000
00000000
00000000
00000000
00001000
00000000
00000000
00010000
00000000
00000000
01000000
00000000
00100000
00000000
00000000
00000000
,
00010000
00000000
00000000
01000000
00000000
00000000
00100000
00000000
00000000
00010000
00000000
00000000
00001000
00000000
00000000
00000000
,
00000010
00000000
00000000
00001000
00000000
00000000
00010000
00000000
00000000
01000000
00000000
00000000
10000000
00000000
01000000
00000000
,
00010000
00000000
00001000
00010000
00000000
00000010
00000100
00001000
,
00010000
00001000
00000100
00000010
00000000
00000100
00001000
00010000
,
00001000
00000000
00000000
00010000
00000000
00000000
01000000
00000000
00000000
00000000
10000000
00000000
00100000
00000000
00010000
00000000
,
00001000
00000000
00000000
00010000
00000000
00000000
01000000
00000000
00000000
00000000
00000000
00000000
10000000
00000000
00000000
00000000
,
00100000
00000000
00000000
00000000
,
00010000
00000000
00000000
00000000
00001000
00000000
00000000
00010000
00000000
00000000
00001000
00000000
00000100
00000000
00000010
00000000
,
00000001
00000000
00000000
00000010
00000000
00000000
00000100
00000000
00000000
00001000
00000000
00000000
00010000
00000000
00001000
00000000
,
00010000
00000000
00000000
01000000
00000000
00000000
10000000
00000000
00000000
00100000
00000000
00000000
00010000
00000000
00001000
00000000
,
00010000
00000000
00000000
00000000
00100000
00000000
00000000
10000000
00000000
00000000
01000000
00000000
00010000
00000000
00001000
00000000
,
00010000
00010000
00001000
00000010
00001000
00010000
00000100
00000010
,
00001000
00000000
00000000
00010000
00000000
00000000
01000000
00000000
00000000
00000000
10000000
00000000
00100000
00000000
00010000
00000000
,
00001000
00000000
00000000
00010000
00000000
00000000
01000000
00000000
00000000
00000000
00000000
00000000
00000000
00000000
00000000
00000000
,
10010000
00000000
00000000
00000000
,
00000000
00000000
00000000
00000000
;

//---------------dance-double - ----------------
#NOTES:
     dance-double:
     :
     Hard:
     15:
     0.744710,1.000000,0.285287,0.034580,0.548961,566.000000,33.000000,4.000000,0.000000,0.000000,0.000000,0.744710,1.000000,0.285287,0.034580,0.548961,566.000000,33.000000,4.000000,0.000000,0.000000,0.000000:
00000000
00000000
00000000
00000000
,
00001000
00000000
00010000
00000000
00000010
00000000
00010000
00001000
00000000
00000000
00000100
00000000
00000001
00000000
00000100
00000000
00001000
00000000
00000000
00010000
00000000
00000000
00100000
00000000
00000000
00010000
00000000
00000000
00001000
00000000
00000000
00000000
,
00010000
00001000
00000000
00010000
00001000
00000000
01000000
00010000
00000000
01000000
00010000
00000000
00100000
00000000
00010000
00000000
10000000
00000000
01000000
00000000
10000000
00000000
00100000
01000000
00000000
00000000
00100000
00000000
00010000
00000000
00001000
00000000
,
00000010
00000000
00001000
00000000
00010000
00000000
00001000
00000000
00000010
00000000
00000001
00000000
00000010
00000000
00000100
00000000
00001000
00000000
00000000
00000010
00000000
00000000
00000100
00000000
00000000
00000000
00001000
00000000
00010000
00000000
00001000
00000000
,
00010000
00000000
00000000
00100000
00000000
00000000
01000000
00000000
00000000
00000000
00100000
00000000
00010000
00000000
00001000
00000000
00010000
00000000
00001000
00000000
00000100
00000000
00000010
00000000
00000100
00000000
00001000
00000000
00010000
00000000
00001000
00000000
,
00010000
00000000
00000000
00000000
00001000
00000000
00000000
00000000
00000010
00000000
00000001
00000010
00000001
00000000
00000000
00000000
,
00000100
00001000
00010000
00100000
10000000
01000000
00010000
00000000
,
00001000
00000100
00000001
00000010
00001000
00010000
01000000
10000000
,
00100000
00000000
00011000
00000000
00010100
00000000
00000010
00000100
,
00000001
00000000
00001100
00000000
00011000
00000000
00010000
00001000
,
00000100
00000001
00000100
00001000
00010000
01000000
10000000
00100000
,
00010000
00000000
00011000
00000000
00001010
00000000
00000001
00000100
,
00001000
00000000
00000000
00000000
00010000
00000000
00001000
00000000
00000100
00000010
00000100
00000000
00000001
00000000
00000010
00000000
,
00000100
00001000
00000000
00011000
00000000
00010000
00100000
00010000
,
10000000
00100000
00000000
01100000
00000000
00001000
00010000
00001000
,
00000010
00000000
00000100
00000010
00000100
00000000
00001000
00000100
00001000
00000000
00000001
00000100
00000001
00000000
00000100
00000000
,
00001000
00010000
00000000
01100000
00000000
10000000
00000000
00010000
,
01000000
00100000
01000000
00000000
00100000
00000000
00010000
00001000
00010000
00000000
00001000
00000000
01000000
00010000
01000000
00000000
,
00100000
00000000
10000000
01000000
10000000
00000000
01000000
00000000
00010000
00000000
00000000
00001000
00000000
00000000
00000100
00000000
,
00000010
00000000
00000000
00000001
00000010
00000000
00000100
00000000
00001000
00000000
00010000
00000000
01000000
00000000
10000000
00000000
,
00100000
00000000
00010000
00000000
00000000
00000000
00001000
00000000
00010000
00001000
00010000
00000000
00000100
00000000
00000010
00000000
,
00001000
00010000
00000000
01010000
00000000
10000000
00100000
00010000
,
00001000
00010000
00000000
00010100
00000000
00000010
00000001
00000100
,
00001000
00000000
00010000
00001000
00010000
00000000
00000010
00001000
00000010
00000000
00000100
00000010
00000100
00000000
00001000
00000000
,
00010000
00000000
00100000
00010000
00001000
01000000
00100000
00010000
,
00001000
00000010
00000000
00001100
00000000
00011000
00000000
00100000
,
01000000
10000000
00000000
01010000
00000000
00011000
00000000
00000010
,
00001000
00010000
00001000
00000000
00010000
00000000
00100000
00000000
00010000
00001000
00010000
00000000
00000100
00000000
00001000
00000000
,
00000010
00000100
00000010
00000000
00001000
00000010
00001000
00000000
00000001
00001000
00000001
00000000
00000020
00000000
00000000
00000000
,
00001030
00000000
00011000
00000000
00000100
00001000
00010000
00000000
,
00000010
00000000
00010000
00000000
00001000
00000000
00010000
00000000
00001000
00000000
00000100
00000000
00000001
00000000
00000000
00000010
00000000
00000000
00001000
00000000
00000000
00010000
00000000
00000000
,
00100000
00000000
00000000
00000000
01000000
00000000
00100000
00000000
00010000
00001000
00010000
00001000
00010000
00000000
00001000
00000000
,
00000000
00000000
00000110
00000000
00000000
00000000
00000001
00000100
00000001
00000000
00000100
00000000
00000000
00000000
00001000
00010000
,
00001000
00000000
01100000
00000000
10000000
00100000
00010000
00000000
,
00001000
00000000
01000000
00000000
00100000
00000000
00010000
00000000
00001000
00000000
00010000
00000000
00100000
00000000
00000000
00010000
00000000
00000000
00011000
00000000
00000000
00000000
00000000
00000000
,
00000200
00000310
00002000
00013000
,
01000000
00000000
00000000
00000000
00010000
00000000
00001000
00000000
01000000
00010000
01000000
00010000
00000000
00000000
00000000
00000000
,
00100000
00000000
00001000
00000000
00010000
00000000
00001000
00010000
00001000
00000000
00000100
00000000
00000001
00000000
00001000
00000100
,
00001000
00000100
00000010
00001000
00010000
01000000
00100000
00000000
,
00001000
00000000
00010000
00001000
00010000
00000000
00000100
00010000
00000100
00000000
00001000
00000001
00001000
00000000
00000010
00000100
,
00000010
00000100
00001000
00000000
00000000
00000000
00010000
00001000
,
00010000
00000000
01010000
00000000
10000000
01000000
00010000
00000000
,
00011000
00000000
00001000
00000100
00000010
00000100
00001000
00010000
,
01000000
00010000
00001000
00000100
00000001
00001000
00000000
00000000
,
10000000
00000000
00000000
00000000
01000000
00000000
00000000
00000000
00010000
00000000
00000000
00000000
00001000
00000000
00000000
00000000
00000010
00000000
00000000
00000001
00000000
00000000
00000010
00000000
00000100
00000000
00000000
00000000
00000010
00000000
00000000
00000000
,
00001000
00010000
00100000
01000000
00000000
00100000
00010000
00001000
00000100
00000000
00000001
00000000
00000100
00000000
00001000
00000000
,
00010000
00000000
00000000
00000000
01000000
00000000
10000000
00000000
01000000
00000000
00000000
00000000
00010000
00000000
00000000
00000000
00001000
00000000
00000000
00000010
00000000
00000000
00001000
00000000
00010000
00000000
00000000
00000000
00100000
00000000
00000000
00000000
,
01000000
00000000
00001000
00010000
00100000
00000000
00010000
00000000
00001000
00000000
00000000
00000000
00000000
00000000
00000000
00000000
,
00010000
00000000
00000000
00000000
00001000
00000000
00000000
00000000
00000010
00000000
00000001
00000010
00000001
00000000
00000000
00000000
,
00000100
00001000
00010000
00100000
10000000
01000000
00010000
00000000
,
00001000
00000100
00000001
00000010
00001000
00010000
01000000
10000000
,
00100000
00000000
00011000
00000000
00010100
00000000
00000100
00000010
,
00000001
00000010
00001000
00010000
00100000
00000000
00010000
00001000
,
00000100
00000001
00000100
00001000
00010000
01000000
10000000
00100000
,
00010000
00000000
00011000
00000000
00001010
00000000
00000001
00000100
,
00001000
00000100
00000000
00000000
00000000
00000000
00011000
00000000
,
00000010
00000000
00000100
00001000
00000100
00000000
00010000
00001000
00000000
00100000
00010000
00000000
01000000
00000000
00100000
00000000
,
10000000
00000000
01000000
00100000
00000000
01000000
00010000
00000000
00001000
00010000
00000000
00001000
00000100
00000000
00000010
00000000
,
00000100
00000001
00000000
00000100
00000001
00000000
00001000
00000100
00000000
00001000
00000100
00000000
00010000
00000000
00001000
00000000
,
01000000
00000000
00010000
00000000
01000000
00100000
01000000
00100000
00000000
00000000
00010000
00000000
00001000
00010000
00001000
00010000
,
00000100
00000000
00000110
00000000
00000001
00000000
00000100
00000000
00001000
00000000
00010000
00000000
00001000
00010000
00001000
00010000
,
00001000
00000000
00000100
00000010
00000000
00000100
00000001
00000000
00000000
00000000
00000110
00000000
00001000
00000000
00010000
00000000
,
00001000
00000000
00000000
00101000
00000000
00000000
00110000
00000000
00000000
00000000
01000000
00000000
10000000
00000000
01000000
00000000
,
00010000
00001000
00000010
00000001
00000100
00001000
00010000
01000000
,
10000000
00000000
00100000
00010000
00100000
00000000
00010000
00001000
00000000
00010000
00000100
00000000
00000010
00000000
00001000
00000000
,
00000001
00000000
00000100
00000010
00000000
00001000
00000010
00000000
00001000
00010000
00000000
00001000
00010000
00000000
00100000
00000000
,
01000000
00100000
00000000
01000000
10000000
00000000
00010000
00100000
00000000
00010000
00001000
00000000
00010000
00000000
00000100
00000000
,
00000010
00000000
00000001
00000000
00000010
00000100
00000010
00000100
00000000
00000000
00001000
00000000
00000001
00000100
00000001
00000100
,
00000010
00000000
00001000
00000000
00010000
00000000
01000000
00000000
10000000
00000000
00010000
00000000
00100000
01000000
00100000
01000000
,
00010000
00000000
10000000
01000000
00000000
00100000
01000000
00000000
00000000
00000000
00011000
00000000
00001000
00000000
00010000
00000000
,
00001000
00000000
00000000
00001100
00000000
00000000
00000101
00000000
00000000
00000000
00000100
00000000
00001000
00000000
00010000
00000000
,
02000000
00000000
00000000
00000000
,
00000000
00000000
00000000
00000000
00000000
00000000
00000000
03000000
,
00000000
00000000
00000000
00000000
;

//---------------dance-single - ----------------
#NOTES:
     dance-single:
     :
     Challenge:
     16:
     0.965777,1.000000,0.397673,0.008645,1.000000,735.000000,46.000000,1.000000,0.000000,0.000000,0.000000,0.965777,1.000000,0.397673,0.008645,1.000000,735.000000,46.000000,1.000000,0.000000,0.000000,0.000000:
// measure 0
0000
0000
0000
0000
,  // measure 1
0001
0000
0010
0001
0010
0000
0100
1000
0000
0001
1000
0000
1010
0000
0110
0000
0101
0000
0000
1001
0000
0000
1010
0000
0100
0001
0010
0100
1000
0001
1000
0000
,  // measure 2
0010
0100
0000
0100
0010
0000
1000
0100
0000
0100
0001
0000
0100
0000
1000
0000
0010
0000
0001
0010
1000
0100
0010
0001
0100
0000
0010
0000
1000
0100
1000
0100
,  // measure 3
0010
0000
0001
1000
0001
0000
0100
0000
0010
0000
1000
0000
0100
0010
0100
0010
0100
0000
0000
0011
0000
0000
1001
0000
0000
0000
0100
0010
0001
0000
0010
0000
,  // measure 4
1000
0000
0000
0011
0000
0000
0101
0000
0000
0000
0010
1000
0100
1000
0001
0010
0001
0100
0001
0100
0010
1000
0010
1000
0100
0010
0100
0010
0001
1000
0001
1000
,  // measure 5
0010
0000
0100
0000
0010
0000
0100
0000
0001
0000
0010
0001
0010
0000
0100
0000
,  // measure 6
1000
0000
0100
1000
0100
0000
0010
0001
0010
0000
0001
0100
0001
0000
1000
0000
,  // measure 7
0010
0000
0100
0001
0100
0000
0010
0000
1000
0000
0100
0010
0001
0000
1000
0000
,  // measure 8
0001
0000
0000
0000
0101
0000
0000
0000
1000
0100
1000
0000
0100
0000
0001
1000
,  // measure 9
0001
0100
0110
0000
0001
0010
0100
1000
,  // measure 10
0001
0010
0001
0000
0010
0000
0100
0000
0001
0000
0010
0000
1000
0000
0010
0000
,  // measure 11
0001
0100
0001
0000
1000
0000
0010
0000
0001
0000
0010
0000
1000
0000
0100
0000
,  // measure 12
0001
0000
0100
0000
1000
0000
0010
0100
0010
0100
0001
0000
0010
0100
1000
0000
,  // measure 13
0001
0101
0000
1100
0000
0001
0010
0100
,  // measure 14
1000
0000
0010
0000
0001
0000
1010
0000
0000
0000
1001
0000
0001
0000
0010
0100
,  // measure 15
0010
0000
0001
0100
0001
0000
1000
0010
1000
0001
0100
0001
0100
0000
0010
0000
,  // measure 16
1000
0000
1000
0000
1001
0000
0000
0000
0010
0100
0010
0100
1000
0000
0001
0000
,  // measure 17
0010
1000
0010
0000
0001
0000
0100
1000
0100
0000
0001
0000
0010
0100
1000
0000
,  // measure 18
0010
0000
0100
0001
0010
0000
0100
0000
1000
0000
0000
1001
0000
0000
0001
0000
,  // measure 19
0101
0000
0000
0100
0000
0000
0010
0000
1000
0100
1000
0001
0100
0000
0010
0000
,  // measure 20
0100
0001
1000
0000
0001
0000
0000
1000
0001
1000
0000
0001
1000
0001
1000
0000
,  // measure 21
0010
0000
0110
0000
0100
0000
0001
0000
0010
0000
0100
0010
0001
0000
0100
0000
,  // measure 22
0010
0000
1000
0000
0100
0000
1000
0000
0010
0100
0010
0100
0001
0000
1000
0000
,  // measure 23
0100
0000
0010
0100
0010
0000
0100
1000
0100
1000
0001
0010
0001
0000
0100
0000
,  // measure 24
0010
1000
0010
1000
0001
0000
0100
0000
0010
0000
0000
0000
1001
0000
0001
0000
,  // measure 25
0100
0010
0100
0000
0001
0000
0010
0100
1000
0100
0010
0000
0001
1000
0001
1000
,  // measure 26
0001
0000
0000
1000
0010
1000
0010
0000
0001
0010
0001
0010
0001
0000
0010
1000
,  // measure 27
0100
1000
0100
1000
0010
0000
0001
0010
1000
0010
1000
0010
1000
0000
0001
0100
,  // measure 28
0010
0100
0010
0000
1000
0001
1000
0000
0001
1000
0001
1000
0100
0010
0100
0010
,  // measure 29
0001
0000
0000
0100
0000
0000
0001
0000
0000
0000
0000
0000
1001
0000
0000
0000
0000
0000
0000
0000
0000
0000
0000
0000
1000
0000
0000
0000
0000
0000
0010
0000
0000
0000
0000
0000
0001
0000
0000
0000
0010
0000
0000
0000
1000
0000
0000
0000
,  // measure 30
0100
0000
0001
0000
1000
0000
0010
0000
0001
0000
0100
0000
0010
0000
0000
1000
0000
0000
0100
0000
0000
0010
0000
0000
,  // measure 31
0101
0000
0000
0000
1000
0001
1000
0000
0001
0100
0001
0000
0100
0010
1000
0000
,  // measure 32
0001
0000
1001
0000
0000
0000
0010
1000
0010
0000
0100
0000
0001
0000
0010
0000
,  // measure 33
1100
0000
0000
0000
0000
0000
0000
0000
0000
0000
0000
0000
0001
0000
0000
0100
0000
0000
0001
0000
0000
0000
0000
0000
0010
0000
0000
0000
0000
0000
0001
0000
0000
0000
0000
0000
1000
0000
0000
0000
0100
0000
0000
0000
1000
0000
0000
0000
,  // measure 34
0010
0000
0100
0000
0001
0000
0010
0000
0100
0000
1000
0000
0001
0000
0000
0100
0000
0000
0010
0000
0000
0000
0000
0000
,  // measure 35
1000
0100
1000
0000
0100
0010
0100
0000
0010
0001
0010
0001
0100
0000
0110
0000
,  // measure 36
1010
0000
0000
0000
1001
0000
1001
0000
0001
0100
0010
0100
0001
0000
0000
0000
,  // measure 37
1000
0000
0100
0000
0001
0000
0100
1000
0100
0000
0001
0000
0100
0000
1000
0010
,  // measure 38
1000
0000
0001
0000
0010
0000
0001
0000
0100
0000
0010
0000
1000
0001
1000
0000
,  // measure 39
0001
0000
0010
0100
1000
0000
0010
0100
0001
0000
1000
0010
0100
0000
0001
0010
,  // measure 40
0100
0010
0001
0010
0001
0000
1000
0000
1010
0000
0000
0000
0011
0000
0000
0000
,  // measure 41
1000
0000
0100
0000
0010
0001
0010
0000
0001
0100
0001
0000
1000
0000
0010
0000
,  // measure 42
0100
0010
0100
0000
0001
0000
0010
0000
0100
0000
0001
0000
0100
0000
1000
0000
,  // measure 43
0001
0001
0010
0010
1100
0000
0000
0000
,  // measure 44
0001
0000
0010
0000
0100
0000
0000
0000
1100
0000
0000
0000
0010
0000
0100
0000
0011
0000
0000
0110
0000
0000
1000
0000
1001
0000
0000
0000
1001
0000
0000
0000
,  // measure 45
0010
0100
0001
0100
0000
0010
1000
0001
1000
0010
0100
0001
0011
0000
0110
0000
,  // measure 46
1000
0100
1000
0100
0010
0001
0010
0000
0100
1000
0010
0001
0010
1000
0001
0000
,  // measure 47
0100
0010
1000
0010
0100
0001
0010
0000
0100
0000
0000
0000
0000
0000
0000
0000
,  // measure 48
1000
0000
0001
0100
0001
0000
0100
0010
0100
0000
0010
0000
1000
0000
0000
0000
,  // measure 49
0001
0000
0010
1000
0010
0000
0001
0100
0001
0000
1000
0001
1000
0000
0100
0000
,  // measure 50
0010
0001
0010
0001
0100
0010
0100
0010
,  // measure 51
1000
0000
0100
0000
1000
0000
0100
0000
0001
0100
0001
0000
0100
0000
1000
0000
,  // measure 52
0001
0010
0001
0000
0100
0000
0010
0000
1000
0000
0010
0000
0001
0000
0010
0000
,  // measure 53
1000
0001
1000
0000
0001
0100
0001
0000
0010
0000
1000
0000
0010
0000
0001
0000
,  // measure 54
0100
0010
1000
0100
0001
0100
1000
0010
,  // measure 55
0100
0110
0011
1100
,  // measure 56
0001
0000
0100
0010
0100
0000
0001
0010
0000
0100
1000
0000
0010
0100
0010
0000
,  // measure 57
1000
0100
0000
0010
0001
0000
0100
0010
0000
1000
0100
0000
0001
0000
0100
0000
,  // measure 58
1000
0010
0000
0001
0010
0000
1000
0100
0000
0010
1000
0000
0010
0000
0001
0000
,  // measure 59
0100
0000
0010
1000
0010
0100
0001
0100
0001
0000
0010
0000
0100
1000
0100
1000
,  // measure 60
0100
0000
1000
0001
1000
0000
0001
0010
0100
0000
1000
0000
0010
0100
0001
0100
,  // measure 61
0010
0000
1000
0001
0000
0010
0100
0000
0000
0000
1000
0100
1000
0000
0100
0000
,  // measure 62
0010
0000
0000
0011
0000
0000
0001
0000
0100
0000
0010
1000
0010
1000
0001
0100
,  // measure 63
0001
0100
0010
0100
0010
1000
0001
1000
0001
0000
0010
0000
0100
0000
1000
0000
,  // measure 64
1001
0000
0100
0010
0000
1000
0100
0000
0010
0000
0001
0000
1000
0000
0010
0000
,  // measure 65
0100
0000
0001
0010
0000
0001
0100
0000
0010
1000
0010
1000
0100
0000
0010
0000
,  // measure 66
0100
1000
0000
0100
0001
0000
0100
1000
0000
0100
0001
0000
0100
0000
1000
0000
,  // measure 67
0010
0000
0100
0000
0001
0010
0100
1000
0001
0000
0100
0000
0010
1000
0100
1000
,  // measure 68
0010
0000
0110
0000
0100
0000
0001
0000
0010
0000
0100
0000
1000
0100
0010
0100
,  // measure 69
1000
0000
0001
0100
0000
0001
0010
0000
0100
0000
0000
1000
0100
0010
0001
0000
,  // measure 70
0100
0000
0000
1010
0000
0000
1001
0000
0000
0000
0001
0000
0010
0000
0100
0000
,  // measure 71
2000
0000
0000
0000
,  // measure 72
0000
0000
0000
0000
0000
0000
0000
3000
;
