#TITLE:Taj He Spitz;
#SUBTITLE:;
#ARTIST:DKC Crew;
#TITLETRANSLIT:;
#SUBTITLETRANSLIT:;
#ARTISTTRANSLIT:;
#GENRE:;
#CREDIT:;
#BANNER:Taj He Spitz.png;
#BACKGROUND:Taj He Spitz-bg.png;
#LYRICSPATH:;
#CDTITLE:./CDTITLES/DanceDanceRevolution X.png;
#MUSIC:Taj He Spitz.ogg;
#OFFSET:0.000000;
#SAMPLESTART:47.164978;
#SAMPLELENGTH:15.000000;
#SELECTABLE:YES;
#DISPLAYBPM:107.000000;
#BPMS:0.000000=107.783997
,4.000000=107.473999
,62.000000=107.498001
;
#STOPS:62.000000=0.553000
;
#BGCHANGES:0.000=Taj He Spitz.avi=1.000=0=0=0=StretchNoLoop====,
99999=-nosongbg-=1.000=0=0=0 // don't automatically add -songbackground-
;
#KEYSOUNDS:;
#ATTACKS:;

//---------------dance-single - ----------------
#NOTES:
     dance-single:
     :
     Beginner:
     2:
     0.106466,0.105698,0.009555,0.000000,0.000000,77.000000,1.000000,0.000000,0.000000,0.000000,0.000000,0.106466,0.105698,0.009555,0.000000,0.000000,77.000000,1.000000,0.000000,0.000000,0.000000,0.000000:
0000
0000
0000
0000
,
0000
0000
0000
0000
,
0000
0000
0000
0000
,
0010
0000
0000
0000
,
0001
0000
1000
0000
,
0010
0000
0100
0000
,
0010
0000
0100
0000
,
0001
0000
1000
0000
,
1001
0000
0000
0000
,
0000
0100
0000
1000
,
0000
0100
0000
0001
,
0000
0100
0000
1000
,
0000
0010
0000
0100
,
0100
0000
0100
0000
,
0001
0000
0001
0000
,
1000
0000
1000
0000
,
0000
0100
0000
0010
,
0000
0001
0000
0100
,
0000
0010
0000
1000
,
0000
0001
0000
1000
,
0000
0001
0000
0000
,
0010
0010
0000
0000
,
0100
0100
0000
0000
,
1000
1000
0000
0010
,
0000
0100
0000
0000
,
0001
0000
1000
0000
,
0001
0000
1000
0000
,
0001
0000
1000
0000
,
0100
0000
0010
0010
,
0000
0001
0000
0010
,
0000
0001
0000
1000
,
0000
0100
0000
1000
,
0000
0100
0000
0010
,
0000
0000
0000
0001
,
0000
0000
0000
0100
,
0000
0000
0000
0010
,
0000
0000
0000
0000
,
1000
1000
0000
0000
,
0100
0100
0000
0000
,
0010
0010
0000
0001
,
0000
1000
0000
0000
,
0010
0010
0000
0000
,
0100
0100
0000
0000
,
0001
0001
0000
1000
,
0000
0001
0000
0000
,
0000
0000
0000
0000
;

//---------------dance-single - ----------------
#NOTES:
     dance-single:
     :
     Easy:
     4:
     0.204743,0.212591,0.047773,0.133765,0.000000,131.000000,5.000000,14.000000,0.000000,0.000000,0.000000,0.204743,0.212591,0.047773,0.133765,0.000000,131.000000,5.000000,14.000000,0.000000,0.000000,0.000000:
0000
0000
0000
0000
,
0000
0000
0000
0000
,
0000
0000
0000
0000
,
0001
0001
1000
1000
,
0001
0100
0010
1000
,
0002
0003
2000
3000
,
0001
1000
0100
0100
,
0020
0030
0200
0300
,
0110
0000
0000
1000
,
0001
0100
0001
0100
,
0010
1000
0010
0100
,
0001
1000
0001
1000
,
0020
0030
0200
0300
,
0001
0001
1000
1000
,
0100
0010
0100
0010
,
0001
0001
1001
2000
,
3000
0002
0003
0100
,
0100
0010
0010
1000
,
0001
1000
0000
0100
,
0100
0010
0010
0002
,
0003
2000
3000
0000
,
0100
0010
0100
0000
,
0010
0001
0100
0000
,
0010
0100
0010
0110
,
0000
1001
0000
0000
,
1000
0000
0001
0000
,
1000
0000
0001
0000
,
1000
0000
0001
1000
,
0100
0010
0001
0100
,
0100
0001
1000
0100
,
0100
1000
0001
0010
,
0010
0001
1000
0020
,
0030
0200
0300
0001
,
0000
0010
0000
1000
,
0000
0010
0000
0001
,
0001
1000
1000
0020
,
0030
0200
0300
0000
,
0001
0100
1000
0000
,
1000
0100
0001
0000
,
0010
1000
0100
0110
,
0000
0010
0100
1000
,
0010
1000
0100
0010
,
0001
0100
0001
0010
,
0100
1000
0001
1000
,
0100
0010
0001
0000
;

//---------------dance-single - ----------------
#NOTES:
     dance-single:
     :
     Medium:
     7:
     0.300289,0.277145,0.171984,0.000000,0.000000,202.000000,18.000000,0.000000,0.000000,0.000000,0.000000,0.300289,0.277145,0.171984,0.000000,0.000000,202.000000,18.000000,0.000000,0.000000,0.000000,0.000000:
0000
0000
0000
0000
,
0000
0000
0000
0000
,
0000
0000
0000
0000
,
1001
1001
1000
0001
,
1100
0101
0011
1010
,
1000
0000
1000
0000
0001
0000
0001
0010
,
0000
0100
0000
0010
0100
0010
0100
1000
,
0001
0001
1000
1000
,
0110
0000
0000
0000
1000
0001
1000
0001
,
0100
0100
0010
0010
,
1000
1000
0010
0000
0100
0100
0001
0000
,
0010
0010
0100
0100
,
1100
0000
0101
0000
,
0001
0000
1000
0000
0010
0010
1000
0000
,
0001
0000
0010
0000
0001
0001
1000
0000
,
0010
0000
0100
0000
0001
0000
1000
0100
,
1000
0000
0001
0100
0001
0010
0100
0000
,
1000
0000
0001
0001
0100
0000
0001
0000
,
1000
0000
0100
0100
1000
0000
0001
0000
,
0100
0010
1000
1001
,
0000
0110
1001
0100
,
0010
0000
0100
0000
1000
1000
0100
0000
,
0010
0000
0001
0000
0100
0100
0001
0000
,
1000
0000
0010
0000
0100
0100
0001
0100
,
0001
0100
0010
1000
0010
1000
0001
0000
,
0001
1000
1000
0100
,
0001
0100
1000
0010
,
0010
0100
0100
0001
,
0010
1000
0010
0001
,
0100
0000
0001
0001
0010
0000
0100
0000
,
1000
0000
0010
0010
1000
0000
0100
0000
,
0010
0000
0001
0001
0100
0000
0010
0000
,
0001
0100
1000
0010
,
0100
0001
0101
0010
,
0100
0000
1000
0000
1100
0000
0100
0001
,
0001
0000
0100
1000
1000
0000
1001
0000
,
0000
0110
0000
1000
,
0010
0000
0100
0000
0001
0001
0100
0000
,
0010
0000
1000
0000
0100
0100
1000
0000
,
0001
0000
0010
0000
0100
0100
1000
0001
,
1000
0001
0100
0010
0100
0010
1000
0000
,
0001
0000
0100
0010
1000
1000
0010
0000
,
0100
0000
0001
1000
0100
0100
1000
0000
,
0010
0000
0100
0001
0010
0010
0011
0000
,
1100
0000
1000
1000
0001
0001
0000
0000
;

//---------------dance-single - ----------------
#NOTES:
     dance-single:
     :
     Hard:
     10:
     0.434054,0.405058,0.324858,0.028664,0.062105,281.000000,34.000000,3.000000,0.000000,0.000000,0.000000,0.434054,0.405058,0.324858,0.028664,0.062105,281.000000,34.000000,3.000000,0.000000,0.000000,0.000000:
// measure 0
0000
0000
0000
0000
,  // measure 1
0000
0000
0000
0000
,  // measure 2
0000
0000
0000
0000
,  // measure 3
0001
0000
0000
0001
0000
0000
0010
0000
0100
0000
1000
0000
0001
0000
0001
0000
,  // measure 4
1000
0100
0001
0100
1000
0010
0100
0001
,  // measure 5
1000
0000
0000
1000
0000
0000
1000
0000
0001
0000
0000
0001
0000
0000
0110
0000
,  // measure 6
0000
1001
0000
0100
1000
0010
0100
0001
,  // measure 7
1000
0000
0000
1000
0000
0000
0001
0000
0100
0000
1000
0000
0100
0000
0001
0000
,  // measure 8
2002
0000
3003
0000
0001
0001
1000
1000
,  // measure 9
0100
0010
0011
0000
0100
1000
0001
1000
,  // measure 10
0010
0100
0101
0000
0010
1000
0001
1000
,  // measure 11
0100
0010
1001
0000
0010
0100
1001
0000
,  // measure 12
0110
0000
1001
0000
0001
0001
1000
1000
,  // measure 13
0001
0010
0100
0000
1000
0001
0010
0100
,  // measure 14
1000
0010
0100
0000
0001
1000
0010
0100
,  // measure 15
0001
0001
1000
1000
1001
0000
0110
0000
,  // measure 16
1001
0000
0010
0010
0100
0100
1000
0001
,  // measure 17
0100
0000
0010
1000
0001
0000
0100
1000
,  // measure 18
0100
0001
0010
0000
1001
0000
1000
0010
,  // measure 19
0100
0000
0001
0010
0100
0000
1100
0000
,  // measure 20
0101
0000
0001
0010
0100
1000
0001
0100
,  // measure 21
0010
0000
0010
1000
0000
0000
0001
0000
0100
0000
0100
0000
0010
0000
1000
0000
,  // measure 22
0001
0100
0010
0100
1001
0000
1000
0100
,  // measure 23
0010
0000
0010
0001
0000
0000
1000
0000
0100
0000
0010
0000
0110
0000
0000
0000
,  // measure 24
1001
0000
1000
1000
0001
0001
0100
0000
,  // measure 25
0100
0000
0010
0100
1001
0000
0001
0000
,  // measure 26
0001
0000
1000
0001
0110
0000
0010
0000
,  // measure 27
0010
0000
0100
0010
1001
0000
1000
1000
,  // measure 28
0001
0000
0001
0000
0101
0000
0101
0000
1010
0000
1010
0000
1000
0000
0000
1000
,  // measure 29
0000
0000
0010
0000
0100
0000
0010
0000
1000
0000
1000
0000
0001
0000
0000
0001
,  // measure 30
0000
0000
0100
0000
0010
0000
0100
0000
0001
0000
0001
0000
1000
0000
0000
1000
,  // measure 31
0000
0100
0010
0100
1000
1000
0001
0010
,  // measure 32
0100
0010
0001
0001
1000
1000
0001
0100
,  // measure 33
0010
0001
0010
0100
2000
0000
3100
0010
,  // measure 34
1000
0001
0010
0100
1000
0010
0100
0001
,  // measure 35
0101
0000
1000
0100
1100
0000
0110
0000
,  // measure 36
1001
0000
1000
1000
0001
0001
1000
0100
,  // measure 37
0010
0000
0010
0001
0000
0000
1000
0000
0100
0000
0100
0000
0010
0000
0100
0000
,  // measure 38
1000
0010
0100
0010
1001
0000
0001
0100
,  // measure 39
0010
0000
0010
1000
0000
0000
0001
0000
0100
0000
0010
0000
0110
0000
0000
0000
,  // measure 40
1001
0000
1000
0100
0010
0001
1000
0010
,  // measure 41
0100
0000
0001
1000
0000
0000
0001
0000
0100
0000
0100
0000
0010
0000
1000
0000
,  // measure 42
0100
0010
0001
1000
0100
0100
1000
0010
,  // measure 43
0100
0000
0001
1000
0000
0000
0001
0000
0100
0000
0100
0000
1001
0000
0000
0000
,  // measure 44
0110
0000
1000
0100
0010
0001
0000
0000
;

//---------------dance-double - ----------------
#NOTES:
     dance-double:
     :
     Easy:
     5:
     0.200648,0.191332,0.143320,0.047773,0.000000,127.000000,15.000000,5.000000,0.000000,0.000000,0.000000,0.200648,0.191332,0.143320,0.047773,0.000000,127.000000,15.000000,5.000000,0.000000,0.000000,0.000000:
00000000
00000000
00000000
00000000
,
00000000
00000000
00000000
00000000
,
00000000
00000000
00000000
00000000
,
00001000
00001000
00000000
00000001
,
00000001
00000100
00000010
00001000
,
00000200
00000300
00000020
00000030
,
00001000
00010000
00001000
00010000
,
00200000
00300000
01000000
00100000
,
02200000
03300000
01000000
00100000
,
10000000
01000000
00010000
00000000
,
00100000
00001000
00010000
00000000
,
00001000
00000100
00000001
00000000
,
00001001
00000000
00000110
00000000
,
00000001
00000010
00001000
00000000
,
00000100
00010000
00001000
00000000
,
00010000
00100000
10000000
10010000
,
00000000
01100000
00000000
10000000
,
01000000
00100000
00000000
00010000
,
01000000
00001000
00000000
00010000
,
00000100
00001000
00000010
00000110
,
00000000
00001001
00000000
00001000
,
00000001
00000100
00000000
00000010
,
00001000
00000100
00010000
00001000
,
00100000
00010000
00000000
10010000
,
00000000
01100000
00000000
00010000
,
10000000
00000000
01000000
00000000
,
00010000
00000000
00001000
00000000
,
00000010
00000000
00000001
00001001
,
00000000
00000110
00000000
00000001
,
00000001
00000100
00000010
00001000
,
00001000
00000100
00010000
00001000
,
00001000
00100000
00010000
10000000
,
10000000
00010000
00010000
01000000
,
00000000
00100000
00000000
00010000
,
00000000
00001000
00000000
00000100
,
00000000
00000010
00000010
00000110
,
00000000
00001001
00000000
00001000
,
00000001
00000010
00000000
00000100
,
00001000
00000010
00010000
00001000
,
01000000
00010000
00000000
10010000
,
00000000
01100000
00000000
10000000
,
00010000
01000000
00100000
00100000
,
01000000
00010000
00100000
00100000
,
00001000
00010000
00000010
00000010
,
00001000
00000001
00000100
00000000
,
00000000
00000000
00000000
00000000
;

//---------------dance-double - ----------------
#NOTES:
     dance-double:
     :
     Medium:
     7:
     0.319399,0.298464,0.210202,0.047773,0.000000,207.000000,22.000000,5.000000,0.000000,0.000000,0.000000,0.319399,0.298464,0.210202,0.047773,0.000000,207.000000,22.000000,5.000000,0.000000,0.000000,0.000000:
00000000
00000000
00000000
00000000
,
00000000
00000000
00000000
00000000
,
00000000
00000000
00000000
00000000
,
00011000
00011000
00001000
00010000
,
00100000
00010000
00100000
00010000
00100000
10000000
00100000
10000000
,
00010000
10010000
10000000
10010000
,
11000000
00000000
00110000
00000000
00001000
00000000
00010000
00001000
,
00000100
00000110
00000010
00000110
,
00002002
00000000
00003003
00000000
00001000
00000001
00001000
00000001
,
00000100
00000010
00000100
00001000
,
00010000
00001000
00100000
00000000
00001000
00010000
00000100
00000000
,
00010000
00001000
01000000
00010000
,
10010000
00000000
00000000
00000000
00010000
10000000
00010000
10000000
,
01000000
00000000
00100000
00000000
01000000
01000000
00100000
00000000
,
00001000
00000000
00100000
00000000
00001000
00001000
00010000
00000000
,
00001000
00000000
00010000
00000000
00011000
00000000
00000100
00001000
,
00000010
00000000
00000100
00000001
00000010
00000000
00000100
00000000
,
00001000
00000000
00000100
00000100
00001000
00000000
00000100
00000000
,
00010000
00000000
00001000
00001000
00010000
00000000
00001000
00000000
,
00100000
00010000
01000000
01100000
,
00000000
00000000
01000000
00100000
01000000
00100000
10000000
00000000
,
00010000
00000000
00100000
00000000
01000000
00100000
00010000
00000000
,
01000000
00000000
00001000
00000000
00010000
00001000
00010000
00000000
,
00001000
00000000
00000100
00000000
00000001
00000100
00000010
00000000
,
00001010
00001001
00001100
00000010
,
00000001
00000100
00001000
00010000
,
00100000
00010000
00001000
00010000
,
01000000
00000000
10000000
00000000
00100000
00000000
01000000
00100000
,
01000000
00100000
10000000
00010000
10000000
00010000
10000000
00000000
,
10010000
00000000
01000000
00001000
00010000
00000000
00001000
00000000
,
00011000
00000000
00000100
00001000
00000001
00000000
00001000
00000000
,
00001001
00000000
00000100
00000001
00000010
00000000
00001000
00000000
,
00010000
00000000
00001000
00010000
00001000
00010000
00100000
00000000
,
01000000
00000000
00010000
01000000
00100000
00000000
10000000
00000000
,
01000000
00000000
00100000
01000000
10000000
00000000
00010000
00000000
,
01000000
00001000
00010000
00000200
,
00002300
00003020
00000130
00000001
,
00000010
00000000
00000100
00000010
00000001
00000000
00001000
00000000
,
00000100
00000000
00010000
00001000
00010000
00000000
00001000
00000000
,
01000000
00000000
00100000
01000000
00010000
00000000
00110000
00000000
,
10010000
01010000
01100000
10000000
,
00010000
00000000
00100000
00001000
00010000
00000000
00000100
00000000
,
00001000
00000000
00000010
00010000
00001000
00000000
01000000
00000000
,
00010000
00000000
00100000
00001000
00010000
00000000
00000100
00001000
,
00000100
00001000
00000001
00000010
00000100
00001000
00000000
00000000
,
00000000
00000000
00000000
00000000
;

//---------------dance-double - ----------------
#NOTES:
     dance-double:
     :
     Hard:
     11:
     0.443609,0.383739,0.286640,0.057328,0.195870,289.000000,30.000000,6.000000,0.000000,0.000000,0.000000,0.443609,0.383739,0.286640,0.057328,0.195870,289.000000,30.000000,6.000000,0.000000,0.000000,0.000000:
00000000
00000000
00000000
00000000
,
00000000
00000000
00000000
00000000
,
00000000
00000000
00000000
00000000
,
02000000
00000000
00000000
00000000
03000000
00000000
10000000
00010000
00000000
00010000
00000000
00010000
01000000
00000000
00001000
00000000
,
00010000
00000010
00000100
00000001
00000010
00000100
00010000
00001000
,
00011000
00000000
00000000
00101000
00000000
00000000
00000000
00000000
00011000
00000000
00000000
00010100
00000000
00000000
00101000
00000000
,
00000000
00000000
00010100
00000000
00000000
00000000
00001000
00100000
00010000
00000000
01000000
00000000
00100000
00000000
10000000
00000000
,
10100000
00000000
00000000
10010000
00000000
00000000
00010000
00000000
01000000
00000000
00100000
00000000
00010000
00000000
00001000
00000000
,
00010100
00000000
00000000
00001000
00001000
00000010
00000100
00000001
,
00001000
00000000
00000000
00000100
00000000
00000100
00000000
00000100
00000010
00000000
00000001
00000000
00000010
00000000
00001000
00000000
,
00020000
00000000
00130000
00010000
00001000
00100000
00010000
01000000
,
00100000
00000000
00000000
10000000
00000000
10000000
00000000
10000000
00010000
00000000
01000000
00000000
10010000
00000000
00000000
00000000
,
10000000
00000000
00000000
10000000
00000000
00000000
01000000
00000000
00010000
00000000
00010000
00000000
00001000
00000000
00001000
00000000
,
00000100
00000000
00000000
00000010
00000000
00000010
00000000
00000010
00001000
00000000
00000100
00000000
00010000
00000000
00001000
00000000
,
00200000
00000000
01300000
00100000
00010000
10000000
00100000
01000000
,
00010000
00000000
00000000
00100000
00000000
00100000
00000000
00100000
00001000
00000000
00010000
00000000
00000010
00000000
00000000
00000010
,
00000000
00000100
00000001
00000001
00001000
00001000
00000001
00000100
,
00000010
00000000
00010000
00000010
00000100
00001000
00010000
00100000
,
01000000
00000000
00001000
00100000
01000000
00010000
00001000
00000010
,
00000100
00000000
00000000
00000000
00010000
00000000
00000010
00000000
00000100
00000000
00001000
00000000
00010000
00000000
00000000
00100000
,
00000000
00000000
00010000
00000000
00001000
00000000
00000000
00000100
00000000
00000000
00001000
00000000
00011000
00000000
00000000
00000000
,
00110000
00000000
00001000
00100000
00010000
10000000
00100000
01000000
,
00100000
00010000
00001000
00100000
00001000
00010000
00000010
00000000
,
00001001
00000000
00000000
00000000
00000100
00000000
00000001
00000000
00001000
00000000
00000010
00000000
00000110
00000000
00000000
00000110
,
00000000
00000000
00000000
00000000
00001001
00000000
00000000
00001001
00000000
00000000
00000000
00000000
00000200
00000000
00000000
00000000
,
00010300
00000000
00001000
00100000
00010000
00000000
02000000
00000000
,
03001000
00000000
00010000
00000010
00001000
00000000
00000200
00000000
,
00000310
00000000
00000001
00001000
00000100
00010000
00001000
00100000
,
00010000
00000000
01000000
00000000
00001000
00000000
00010000
00000000
00000010
00000000
00001000
00000000
00000100
00000000
00000000
00000010
,
00000000
00000010
00000000
00000010
00000001
00000000
00001000
00000000
00000100
00000000
00010000
00000000
00001000
00000000
00000000
01000000
,
00000000
01000000
00000000
01000000
00010000
00000000
10000000
00000000
00100000
00000000
01000000
00000000
00010000
00000000
00000000
00100000
,
00000000
00100000
00000000
00100000
00001000
00000000
00010000
00000000
00000010
00000000
00001000
00000000
00000100
00000000
00010000
00000000
,
00001000
00100000
00010000
01000000
00001000
00010000
00000010
00000000
,
00001001
00000000
00000000
00000000
00000001
00000100
00000000
00000001
00000100
00000000
00000010
00000000
00001000
00000000
00000100
00000000
,
00010000
00000000
00001000
00000000
00100000
00010000
00000000
00100000
00010000
00000000
10000000
00000000
01000000
00000000
10000000
00000000
,
00100000
00000000
01000000
00000000
00010000
00000000
00100000
00000000
00001000
00000000
00010000
00000000
00001000
00000000
00000000
00001000
,
00000000
00000100
00000001
00000001
00001000
00001000
00001001
00000000
,
00000110
00000000
00001000
00000100
00010000
00001000
01000000
00100000
,
10000000
00010000
10000000
00100000
00010000
00001000
00000100
00000000
,
00001001
00000000
00000000
00000000
00000010
00000000
00000100
00000000
00001000
00000000
00000001
00000000
00000101
00000000
00000000
00001001
,
00000000
00001000
00001100
00000100
00010100
00010000
00011000
00000000
,
00011000
00000000
00001000
00100000
00010000
01000000
00100000
10000000
,
01000000
00100000
01000000
10000000
00100000
00010000
00001000
00000000
,
00010100
00000000
00000000
00000000
00001000
00000000
00010000
00000000
00000010
00000000
00001000
00000000
00001100
00000000
00000000
00001100
,
00000000
00000010
00000001
00001000
00000100
00000010
00000000
00000000
,
00000000
00000000
00000000
00000000
;

//---------------dance-single - ----------------
#NOTES:
     dance-single:
     :
     Challenge:
     15:
     0.831255,0.746159,0.592389,0.009555,1.000000,546.000000,62.000000,1.000000,0.000000,0.000000,0.000000,0.831255,0.746159,0.592389,0.009555,1.000000,546.000000,62.000000,1.000000,0.000000,0.000000,0.000000:
// measure 0
0000
0000
0000
0000
,  // measure 1
0000
0000
0000
0000
,  // measure 2
0000
0000
0000
0000
,  // measure 3
1000
0000
0000
0010
1000
0000
0001
0010
0001
0010
0001
0000
0100
0000
0110
0000
,  // measure 4
0010
0000
1000
0100
1000
0000
0001
0010
0001
0100
0000
0010
1000
0100
1000
0100
,  // measure 5
0010
0000
0001
0000
0101
0000
0010
1000
0100
1000
0010
0000
0110
0000
0100
0001
,  // measure 6
0010
0000
0010
0100
1000
0000
0010
1000
0010
0001
0010
0000
0100
0001
0100
1000
,  // measure 7
0100
0000
0010
0000
0001
0000
1000
0100
0010
1000
0100
0000
0011
0000
0001
0000
,  // measure 8
1001
0000
0000
0000
1000
0000
0010
0000
0100
0000
0000
0000
0001
0000
0010
0000
0100
1000
0100
0000
1000
0000
0010
0100
0010
0000
0000
0000
0100
0000
0000
0000
,  // measure 9
0011
0000
0000
0001
1000
0001
0000
0100
0010
1000
0000
0010
0100
0000
0101
0001
,  // measure 10
0010
0100
0010
0100
0010
0000
0100
0000
0001
0000
0100
0000
0010
0000
0100
0000
1000
0000
0000
0000
1000
0000
0001
0000
0000
0000
0000
0000
1000
0000
0010
0000
,  // measure 11
1000
0000
0100
0010
0100
0000
0010
0000
0001
0000
0100
0000
0000
0000
0010
0000
1000
0000
0001
0000
1000
0000
0010
0000
0000
0000
0100
0000
0001
0000
0000
0000
,  // measure 12
0110
0000
0000
1100
0000
0000
0101
0000
0011
0000
0000
0110
0000
0000
1100
0000
,  // measure 13
1000
0001
1000
0001
1000
0000
0100
0000
0010
0000
0001
0000
0000
0000
0100
0000
0010
0000
1000
0000
0010
0000
0100
0000
0001
0000
0000
0000
0010
0000
0100
0000
,  // measure 14
1000
0000
0010
0100
0010
0100
0010
0000
1000
0000
0001
0000
0010
0000
0001
0000
0100
0000
0000
0000
0010
0000
0000
0000
1010
0000
0000
0000
1000
0000
0000
0000
,  // measure 15
0001
0000
0100
0001
0100
0000
0001
0000
0100
0000
0001
0000
0010
0000
0000
0000
1001
0000
0000
0000
1000
0000
0000
0000
0010
0000
0000
0000
0100
0000
0001
0000
,  // measure 16
0010
0000
0000
0000
0100
0000
1000
0000
0010
0100
0010
0000
0100
0000
0001
0000
0010
0000
0000
0000
0100
0000
1000
0000
0010
0000
0100
0000
0001
0000
0100
0000
,  // measure 17
0010
0000
0000
0000
1000
0000
0100
0000
0001
0000
0100
0000
1000
0000
0001
0010
0001
0000
0100
0000
0010
0000
1000
0000
0010
0000
0000
0000
0100
0000
1000
0000
,  // measure 18
0010
0001
0010
1000
0100
0010
0001
0100
0010
1000
0010
0100
0001
0000
0011
0000
,  // measure 19
0010
1000
0010
0001
0100
0000
0110
0000
1010
0000
0000
0000
1001
0000
0000
0101
,  // measure 20
0000
0000
0100
0000
0010
0000
1000
0000
0001
0000
0010
0000
0100
0000
1000
0001
1000
0000
0000
0000
0010
0000
0000
0000
0100
0000
0000
0000
0001
0000
0000
0000
,  // measure 21
1000
0000
0001
0000
1000
0000
0010
0000
0000
0000
0100
0000
0001
0000
0010
0000
0100
0000
0000
0000
1100
0000
0000
0000
0001
0010
0001
0010
0001
0000
0100
0000
,  // measure 22
0010
0000
1000
0000
0010
0000
0100
0000
0001
0000
0010
0000
0100
0000
1000
0000
1001
0000
0000
0000
1001
0000
0000
0000
0001
0100
0001
0100
0001
0000
1000
0000
,  // measure 23
0010
0100
0001
0010
0100
1000
0010
0001
0010
0000
1010
0000
1000
0000
0100
0001
,  // measure 24
0100
0000
0000
0000
1000
0000
0010
0000
0001
0000
0010
0000
1000
0000
0100
0010
0100
0000
0000
0000
0011
0000
0000
0000
1001
0000
0000
0000
0000
0000
1010
0000
,  // measure 25
0000
0000
0010
0100
0001
0010
0001
1000
0010
1000
0001
0000
0101
0000
0000
0110
,  // measure 26
0000
0000
0010
1000
0100
0010
0001
0100
0010
1000
0001
1000
0010
0000
0000
0110
,  // measure 27
0000
0000
0100
0001
0010
1000
0010
0001
0100
1000
0100
0001
0010
0000
0110
0000
,  // measure 28
1100
0000
0000
0000
1001
0000
0000
0000
0001
0000
0100
0000
0010
0000
1000
0010
1000
0000
0001
0000
0100
0000
0000
0000
0010
1000
0010
1000
0010
0000
0100
0000
,  // measure 29
0001
0000
0010
0000
0001
0000
1000
0000
0010
0000
0100
0000
0010
0000
1000
0000
0001
0000
0010
0000
0100
0000
0000
0000
0010
0001
0010
0001
0010
0000
0001
0000
,  // measure 30
0100
0000
0010
0000
1000
0000
0000
0000
1001
0000
0000
0000
0101
0000
0000
0000
1100
0000
0000
0000
0101
0000
0000
0000
0001
1000
0001
1000
0001
0000
0100
0000
,  // measure 31
0010
1000
0100
0010
0001
0100
1000
0100
0001
0010
1000
0010
0001
0000
1001
0000
,  // measure 32
1100
0000
0011
0000
0100
0001
0010
0000
1100
0000
1001
0000
0001
0010
1000
0010
,  // measure 33
0001
0000
0100
0000
0010
0000
0100
0000
0001
0000
0000
1000
0000
0000
0010
0000
2000
0000
0000
0000
3100
0000
0000
0000
0010
0001
0010
0000
0100
1000
0100
0000
,  // measure 34
0010
0001
0100
0010
1000
0001
0010
0100
1000
0010
0001
0010
1000
1010
0000
0010
,  // measure 35
0001
0000
0100
0010
1000
0010
0100
0001
0010
0000
0100
1000
0001
0001
0010
0010
,  // measure 36
0100
0000
0000
0100
0000
0000
1000
0000
0001
0000
0010
0000
0001
0000
0100
0001
0100
0000
0000
0000
1010
0000
0000
0000
1000
0000
0000
0000
0100
0000
0000
0000
,  // measure 37
0010
0000
0001
0000
0010
0000
0001
0000
0100
0010
0100
0000
0010
1000
0010
0000
1001
0000
0000
0000
0011
0000
0000
0000
0110
0000
0000
0000
0100
0000
0000
0000
,  // measure 38
1000
0000
0100
0000
0010
0000
1000
0000
0010
0000
0001
0000
0100
0000
0010
0000
1010
0000
0000
0000
1001
0000
0000
0000
0001
0010
0001
0000
0100
0000
0010
0000
,  // measure 39
1000
0001
0010
0001
0100
0010
1000
0010
0110
0000
0101
0000
0011
0000
0000
1010
,  // measure 40
0000
0000
0000
0000
0011
0000
0000
0000
0001
0000
1000
0000
0001
1000
0001
0000
0100
0000
0000
0000
0110
0000
0000
0000
0010
0000
1000
0000
0100
0000
0001
0000
,  // measure 41
0100
0000
1000
0000
0010
0000
0001
0000
0010
1000
0010
0000
0001
0000
0010
1000
0010
0000
0000
0000
0101
0000
0000
0000
0100
0000
0010
0000
1000
0000
0010
0000
,  // measure 42
0100
0000
0001
0000
0010
0000
0100
0000
1000
0000
0001
0010
0001
0010
0001
0000
0010
0000
0000
0000
1010
0000
0000
0000
1000
0000
0100
0000
0010
0000
0001
0000
,  // measure 43
1000
0000
0100
0000
0010
0000
0001
0000
0100
0010
0100
0000
0010
0000
0100
0000
0010
0000
0000
0000
1001
0000
0000
0000
0011
0000
0000
0000
0000
0000
0110
0000
,  // measure 44
0000
1100
1000
1000
0001
0011
0000
0000
;
