#TITLE:TRIP MACHINE survivor;
#SUBTITLE:;
#ARTIST:DE-SIRE;
#TITLETRANSLIT:;
#SUBTITLETRANSLIT:;
#ARTISTTRANSLIT:;
#GENRE:;
#CREDIT:;
#BANNER:TRIP MACHINE survivor.png;
#BACKGROUND:TRIP MACHINE survivor-bg.png;
#LYRICSPATH:;
#CDTITLE:;
#MUSIC:TRIP MACHINE survivor.ogg;
#OFFSET:0.000000;
#SAMPLESTART:16.944000;
#SAMPLELENGTH:15.000000;
#SELECTABLE:YES;
#DISPLAYBPM:170.000000;
#BPMS:0.000000=42.502998
,8.000000=169.996002
,138.500000=170.026993
;
#STOPS:138.500000=0.353000
;
#BGCHANGES:;
#KEYSOUNDS:;
#ATTACKS:;

//---------------dance-single - ----------------
#NOTES:
     dance-single:
     :
     Beginner:
     4:
     0.183302,0.211073,0.041060,0.000000,0.000000,125.000000,121.000000,4.000000,0.000000,0.000000,0.000000,0.183302,0.211073,0.041060,0.000000,0.000000,125.000000,121.000000,4.000000,0.000000,0.000000,0.000000:
0000
0000
0000
0000
,
0000
0000
0000
0000
,
0100
0000
0010
0000
,
0000
0100
0000
0010
,
0000
1000
0000
0010
,
0010
0000
0000
0001
,
0000
0100
0000
0010
,
0010
0000
0100
0000
,
0000
1000
0000
0001
,
0001
0000
1000
0000
,
0000
0010
0000
0100
,
0100
0000
0010
0000
,
0000
0001
0000
1000
,
1000
0000
0001
0000
,
0100
0100
0100
0100
,
0100
0000
0010
0000
,
0000
0100
0000
0010
,
0000
0010
0010
0000
,
1001
0000
0000
0000
,
0000
0000
0000
0000
,
0100
0000
0010
0000
,
0100
0000
0010
0000
,
1000
0000
0001
0000
,
0010
0010
0010
0010
,
0010
0000
1000
0000
,
0001
0000
0100
0000
,
0010
0000
1000
0000
,
0001
0000
0100
0000
,
1000
0000
0001
0000
,
0010
0000
0100
0000
,
0010
0000
0001
0000
,
1000
0000
0100
0000
,
0001
0000
0100
0000
,
0010
0000
1001
0000
,
0100
0000
1001
0000
,
0100
0000
0010
0000
,
1000
0000
0001
0000
,
1000
1000
0000
0000
,
0001
0001
0000
0010
,
0000
0100
0000
0000
,
0010
0010
0000
1000
,
0000
0001
0000
0000
,
1000
1000
0000
0100
,
0000
0010
0000
0000
,
0100
0100
0000
0001
,
0000
1000
0000
0000
,
0001
0001
0000
1000
,
1000
0000
0001
0000
,
0001
0000
0001
0000
,
1000
0000
1000
0000
,
0100
0000
0010
0010
,
0010
0000
0100
0000
,
0100
0000
0100
0000
,
0010
0000
0010
0000
,
0001
0000
1000
1000
,
1000
0000
0001
0001
,
0001
0000
1000
1000
,
1000
0000
0100
0100
,
0000
0010
0000
0110
,
0000
0000
0000
0000
;

//---------------dance-single - ----------------
#NOTES:
     dance-single:
     :
     Easy:
     5:
     0.274220,0.305382,0.030795,0.030795,0.000000,187.000000,184.000000,3.000000,3.000000,0.000000,0.000000,0.274220,0.305382,0.030795,0.030795,0.000000,187.000000,184.000000,3.000000,3.000000,0.000000,0.000000:
0000
0000
0000
0000
,
0000
0000
0000
0000
,
0100
0100
0100
0010
,
0000
0100
0100
0010
,
0000
0010
0010
0100
,
0010
0000
0000
1001
,
0100
0100
0010
0010
,
1000
0000
0001
0000
,
1000
1000
0001
0001
,
0100
0000
0010
0000
,
0100
0000
0001
0001
,
0100
0000
1000
1000
,
0010
0000
0001
0001
,
0010
0000
1000
1000
,
0100
0100
0100
0100
,
0001
0000
0010
0100
,
1000
0000
0100
0010
,
0001
0000
1000
0100
,
0020
0000
0000
0030
,
0010
0010
0001
1000
,
0100
0000
0010
0000
,
0100
0000
0010
0000
,
1000
0000
0001
0000
,
1000
0001
0100
0010
,
0100
0000
0010
0010
,
1000
0000
0001
0001
,
0010
0000
0100
0100
,
0001
0000
1000
1000
,
0100
0010
0100
0010
,
0100
0010
0001
0100
,
0010
0100
0010
0100
,
0010
0100
1000
0010
,
0100
0010
0001
1000
,
0100
0010
1000
0001
,
0100
0100
1001
0000
,
0010
0000
0010
0000
,
0100
0000
0100
0000
,
1000
0000
1000
0000
,
0001
0000
0001
1000
,
1000
0000
0001
0010
,
0010
0000
0100
0001
,
0001
0000
1000
0100
,
0100
0000
0010
1000
,
1000
0000
0001
0010
,
0010
0000
0100
0001
,
0001
0000
1000
0100
,
0100
0000
0010
1000
,
0001
1000
0001
1000
,
0100
0001
0100
1000
,
0100
0001
0100
1000
,
0100
0001
0100
1000
,
0001
1000
0001
1000
,
0010
0001
0010
1000
,
0010
0001
0010
1000
,
0010
0001
0010
0100
,
0100
0001
0010
0100
,
0100
1000
0010
0001
,
0001
0100
0010
1000
,
1000
0100
0010
2002
,
0000
0000
3003
0000
,
0000
0000
0000
0000
;

//---------------dance-single - ----------------
#NOTES:
     dance-single:
     :
     Medium:
     11:
     0.442859,0.492717,0.133444,0.030795,0.010265,302.000000,289.000000,13.000000,3.000000,0.000000,0.000000,0.442859,0.492717,0.133444,0.030795,0.010265,302.000000,289.000000,13.000000,3.000000,0.000000,0.000000:
// measure 0
0000
0000
0000
0000
,  // measure 1
0000
0000
0000
0000
,  // measure 2
0100
0000
0100
0000
0010
0100
1000
0100
,  // measure 3
0000
0100
0000
0100
0010
0100
0001
0100
,  // measure 4
0000
0010
0000
0010
0100
1000
0100
0010
,  // measure 5
0100
0000
0100
0001
0000
0100
1000
0100
,  // measure 6
0000
0010
0000
0010
1000
0001
1000
0001
,  // measure 7
0100
0000
0100
0000
0001
1000
0001
1000
,  // measure 8
0000
0010
0010
0000
0000
1000
0000
0001
,  // measure 9
0000
0100
0000
0100
0010
0100
0010
0100
,  // measure 10
0000
0010
0000
0010
0100
0001
0100
1000
,  // measure 11
0100
0000
0100
0000
0010
1000
0010
0001
,  // measure 12
0000
0010
0010
0000
0100
0001
0000
1000
,  // measure 13
0000
0100
0000
0100
0010
0010
0000
0100
,  // measure 14
1000
1000
0001
0001
0100
0100
0010
0010
,  // measure 15
0100
0000
0010
0000
0100
0001
0100
1000
,  // measure 16
0100
0010
0010
0000
0000
1000
0000
0001
,  // measure 17
0000
0100
0000
0010
1000
1000
0001
0001
,  // measure 18
0200
0000
0010
0000
0000
1000
0000
0010
,  // measure 19
0000
0001
0300
0010
0100
1000
0100
0001
,  // measure 20
1000
0000
0000
0000
0010
0100
0001
0000
,  // measure 21
0001
0000
0000
0000
0010
0100
1000
0000
,  // measure 22
1000
0000
0001
0000
,  // measure 23
1000
0001
0100
0010
,  // measure 24
0100
0000
0000
0100
0000
0000
0100
0000
0010
0000
0010
0000
0010
0000
0000
0000
,  // measure 25
0100
0000
0010
0100
0001
0001
1000
1000
,  // measure 26
0010
0000
0000
0010
0000
0000
0010
0000
0100
0000
0100
0000
0100
0000
0000
0000
,  // measure 27
0010
0000
0100
0010
1000
1000
0001
0001
,  // measure 28
0100
0000
0010
0100
0000
0001
1000
0000
,  // measure 29
0100
0100
0000
0010
0100
0000
0100
0000
,  // measure 30
1000
1000
0000
0001
1000
0000
1000
0000
,  // measure 31
0001
0100
0000
0010
1000
0000
0001
0000
,  // measure 32
1000
0100
0000
0010
0001
0000
1000
0000
,  // measure 33
0001
0100
0000
0010
1000
0001
0000
0010
,  // measure 34
0100
0100
0010
0000
1001
0000
0100
0000
,  // measure 35
0010
0000
0000
0100
0000
0010
0000
1000
,  // measure 36
0000
1000
0100
0000
0010
0000
0100
0000
,  // measure 37
0010
0000
0000
0100
0000
0010
0000
0001
,  // measure 38
0000
0001
0100
0000
0010
0000
1000
0000
,  // measure 39
0000
0001
0000
0000
0100
0000
0000
0010
,  // measure 40
0000
0010
0100
0110
0000
0000
0001
0000
,  // measure 41
0000
1000
0000
0000
0100
0000
0000
0010
,  // measure 42
0000
0010
0100
0000
0110
0000
0000
0001
,  // measure 43
0000
0100
0000
0000
0010
0000
0000
1000
,  // measure 44
0000
1000
0001
1001
0000
0000
1000
0000
,  // measure 45
0000
0100
0000
0000
0010
0000
0000
0001
,  // measure 46
0000
0001
1000
0000
1001
0000
0100
0110
,  // measure 47
0000
0010
0100
0000
0100
0000
0000
1000
,  // measure 48
0100
1000
0000
0001
0100
0001
0000
1000
,  // measure 49
0100
1000
0001
0100
0001
1000
0100
1000
,  // measure 50
0001
0100
0001
0000
0000
0110
0000
1001
,  // measure 51
0000
1000
0001
0000
0001
0000
0000
1000
,  // measure 52
0010
1000
0000
0001
0010
0001
0000
1000
,  // measure 53
0010
1000
0001
0010
0001
1000
0010
1000
,  // measure 54
0001
0010
0001
0000
0000
1001
0000
0110
,  // measure 55
0000
0000
1000
0001
1000
0000
0000
0001
,  // measure 56
1000
0001
0000
0110
0000
0100
0000
0110
,  // measure 57
0010
0000
0100
0010
0000
0000
1000
0000
,  // measure 58
0100
1000
0000
0001
1000
1000
0220
0000
,  // measure 59
0000
0000
0000
0000
,  // measure 60
0330
0000
0000
0000
;

//---------------dance-single - ----------------
#NOTES:
     dance-single:
     :
     Hard:
     13:
     0.511781,0.492717,0.020530,0.041060,0.138577,349.000000,347.000000,2.000000,4.000000,0.000000,0.000000,0.511781,0.492717,0.020530,0.041060,0.138577,349.000000,347.000000,2.000000,4.000000,0.000000,0.000000:
// measure 0
0000
0000
0000
0000
,  // measure 1
0000
0000
0000
0000
,  // measure 2
0100
1000
0100
0001
0100
0010
1000
0010
,  // measure 3
0001
1000
0000
0100
0000
0010
0000
0001
,  // measure 4
0100
0001
0000
0010
0000
0100
0000
1000
,  // measure 5
0010
0000
0000
0000
0001
0000
0010
0000
0000
0000
0100
0010
0100
0000
0010
0000
,  // measure 6
1000
0100
1000
0010
0100
0001
0100
0010
,  // measure 7
1000
0000
0100
0000
0010
0001
0010
0100
,  // measure 8
0000
0010
0010
0000
0001
0010
0100
0010
,  // measure 9
0000
0001
0000
1000
0100
0001
0100
0010
,  // measure 10
0001
0000
0100
0000
0000
0000
0010
1000
0010
0000
1000
0000
0000
0000
0001
0000
,  // measure 11
0100
1000
0100
0010
1000
0100
0001
0000
,  // measure 12
0000
0000
0100
0000
0010
0000
0000
0000
0001
0010
0001
0000
0010
0000
0100
0000
,  // measure 13
0000
1000
0000
0001
0100
0010
1000
0001
,  // measure 14
1000
0100
0000
0000
0100
0010
0000
0000
0010
0001
0000
0000
0001
0100
0000
0000
,  // measure 15
0000
0010
0000
0010
0000
1000
0100
0010
,  // measure 16
0000
0001
0001
0000
0100
0010
1000
0100
,  // measure 17
0000
0001
0000
0001
0000
0100
1000
0010
,  // measure 18
0100
0000
0100
0000
0010
1000
0010
0001
,  // measure 19
0000
0001
0000
0010
0100
0001
1000
0100
,  // measure 20
1000
0000
0000
0000
0010
0100
0001
0000
,  // measure 21
0001
0000
0000
0000
0010
0100
1000
0000
,  // measure 22
1000
0000
0001
0000
,  // measure 23
1000
0001
0100
0010
,  // measure 24
1000
0000
0000
0010
0000
0000
0100
0000
0001
0000
0100
0000
0010
0000
1000
0000
,  // measure 25
0001
0000
0000
0010
0000
0000
0100
0000
1000
0000
0000
1000
0100
0000
0000
0100
,  // measure 26
0010
0000
0000
0001
0000
0000
1000
0000
0010
0000
0001
0000
0010
0000
1000
0000
,  // measure 27
0100
0001
0100
1000
0010
0100
0001
0010
,  // measure 28
0100
0000
0010
0001
0000
1000
0001
0010
,  // measure 29
0100
0100
0000
1000
0100
0010
0100
1000
,  // measure 30
0001
0100
0000
0010
0000
0100
0001
0000
,  // measure 31
1000
0100
0000
0010
0001
0010
1000
0010
,  // measure 32
0001
0100
0000
0010
1000
0010
0001
0010
,  // measure 33
1000
0100
0000
1000
0001
0100
0000
0001
,  // measure 34
0100
0000
0000
0000
0000
0000
0000
0000
0010
0000
0000
0000
0000
0000
0000
0000
1000
0000
0000
0000
0000
0000
0000
0000
0001
0000
0000
0000
0000
0000
0000
0000
2002
0000
0000
0000
0000
0000
0000
0000
0000
3003
0000
0000
0000
0000
0000
0000
1000
0000
0000
0000
0000
0000
0000
0000
0100
0000
0000
0000
0000
0000
0000
0000
,  // measure 35
1000
0000
0100
0010
0000
0100
0010
0001
,  // measure 36
0000
1000
0000
0010
1000
0010
0001
0100
,  // measure 37
0001
0000
0100
0010
0000
0100
0010
1000
,  // measure 38
0000
0001
0000
0010
0001
0000
0100
0000
,  // measure 39
0010
0000
1000
0000
0000
0000
0010
0000
1000
0001
1000
0000
0000
0000
0100
0000
,  // measure 40
0000
0001
0000
0100
0000
0000
0100
0000
,  // measure 41
0010
0000
0001
0000
0000
0000
0010
0000
0001
1000
0001
0000
0000
0000
0100
0000
,  // measure 42
0000
1000
0000
0100
0010
0000
1000
0100
,  // measure 43
0000
0000
0010
0000
0000
0000
0100
0000
1000
0001
1000
0000
0000
0000
0100
0000
,  // measure 44
0000
1000
0000
0100
0000
0000
0001
0000
,  // measure 45
0100
0000
0010
0000
0000
0000
0100
0000
1000
0001
1000
0000
0000
0000
0100
0000
,  // measure 46
0000
0000
0001
0000
0000
0000
0100
0000
0010
0000
0000
0000
0001
0000
0000
0100
,  // measure 47
0000
0000
0100
0000
0010
1000
0000
1000
0010
0000
0000
0000
0000
0000
1000
0000
,  // measure 48
0100
0001
0000
0001
0100
1000
0000
1000
,  // measure 49
0100
0001
0001
0100
1000
1000
0100
0001
,  // measure 50
0001
0000
0100
0000
1000
0000
0000
0100
0010
0000
0001
0000
0000
0000
0010
0000
,  // measure 51
0000
0000
0010
0000
0100
1000
0000
1000
0100
0000
0000
0000
0000
0000
1000
0000
,  // measure 52
0010
0001
0000
0001
0010
1000
0000
1000
,  // measure 53
0010
0001
0001
0010
1000
1000
0010
0001
,  // measure 54
0001
0000
0010
0000
1000
0000
0000
0010
0100
0000
0001
0000
0000
0000
1000
0000
,  // measure 55
1000
0000
0000
0000
0001
0100
0000
0100
0001
0000
0000
0000
0000
0000
0010
0000
,  // measure 56
0001
0100
0010
1000
0000
1000
0100
0010
,  // measure 57
0001
0000
0000
0000
0010
0000
1000
0000
0000
0000
0010
0000
0001
0000
0000
0100
,  // measure 58
0010
0000
1000
0000
0000
0100
0010
0000
0001
0000
1000
0000
0220
0000
0000
0000
,  // measure 59
0000
0000
0000
0000
,  // measure 60
0330
0000
0000
0000
;

//---------------dance-double - ----------------
#NOTES:
     dance-double:
     :
     Easy:
     6:
     0.259556,0.307948,0.030795,0.030795,0.000000,177.000000,174.000000,3.000000,3.000000,0.000000,0.000000,0.259556,0.307948,0.030795,0.030795,0.000000,177.000000,174.000000,3.000000,3.000000,0.000000,0.000000:
00000000
00000000
00000000
00000000
,
00000000
00000000
00000000
00000000
,
10000000
01000000
10000000
01000000
,
00010000
00000000
00010000
00001000
,
00000010
00000000
00000100
00000001
,
00000100
00000000
00010000
00011000
,
00100000
10000000
00100000
01000000
,
00010000
00000000
00100000
00000000
,
00001000
00010000
00001000
00010000
,
00000000
00000100
00000000
00000010
,
00000000
00000001
00000001
00000100
,
00001000
00001000
00000000
00010000
,
00000000
01000000
01000000
00100000
,
00001000
00000000
00010000
00000100
,
00000010
00000010
00000010
00000010
,
00000001
00000000
00000100
00001000
,
00010000
00000000
00001000
00000100
,
00000000
00001000
00001000
00100000
,
20000000
00010000
00000000
00010000
,
00000000
00010000
00010000
30010000
,
01000000
00000000
00010000
00010000
,
00001000
00000000
00000100
00000100
,
00000010
00000000
00001000
00000000
,
00000100
00000010
00000001
00000100
,
00001000
00000000
00001000
00010000
,
00010000
00000000
01000000
00100000
,
01000000
00000000
10000000
01000000
,
00010000
00000000
00001000
00000010
,
00000001
00000100
00001000
00000100
,
00000010
00010000
00001000
00010000
,
01000000
00100000
00010000
00100000
,
10000000
00100000
00010000
01000000
,
00001000
00010000
00000100
00000010
,
00000001
00000100
00001000
00010000
,
00100000
10000000
01100000
00000010
,
00000001
00000000
00000100
00000000
,
00001000
00000000
00010000
00100000
,
10000000
00000000
00010000
00000000
,
01000000
00000000
10000000
01000000
,
00100000
00100000
00000000
10000000
,
00000000
01000000
00000000
00010000
,
00001000
00001000
00000000
00000100
,
00000000
00000010
00000000
00000001
,
00001000
00001000
00000000
00000100
,
00000000
00010000
00000000
00001000
,
00010000
00010000
00000000
01000000
,
00000000
00100000
00000000
10000000
,
10000000
00000000
01000000
00000000
,
00010000
00000000
00001000
00000000
,
01000000
00001000
00010000
00000100
,
00010000
00001000
01000000
00001000
,
00001000
00000010
00000000
00001000
,
00000000
00010000
00000000
00000000
,
00000010
00010000
00001000
00100000
,
00001000
00010000
00000010
00000100
,
00001000
00001000
00000000
00010000
,
00000000
00100000
00000000
10000000
,
01000000
00010000
00001000
00010000
,
00000000
00001000
00000010
00000220
,
00000000
00000000
00000000
00000000
,
00000330
00000000
00000000
00000000
,
00000000
00000000
00000000
00000000
;

//---------------dance-double - ----------------
#NOTES:
     dance-double:
     :
     Medium:
     11:
     0.436993,0.523512,0.020530,0.030795,0.015397,298.000000,296.000000,2.000000,3.000000,0.000000,0.000000,0.436993,0.523512,0.020530,0.030795,0.015397,298.000000,296.000000,2.000000,3.000000,0.000000,0.000000:
00000000
00000000
00000000
00000000
,
00000000
00000000
00000000
00000000
,
01000000
00000000
10000000
00000000
01000000
00010000
01000000
10000000
,
01000000
00100000
00000000
00001000
00000000
00010000
00000000
00000100
,
00000000
00000010
00000000
00000001
00000000
00000100
00000000
00001000
,
00010000
00000000
01000000
00100000
00000000
00010000
10000000
01000000
,
00000000
00100000
00000000
00100000
00001000
00000000
00001000
00010000
,
00000100
00000000
00000100
00000000
00000010
00000001
00000010
00000001
,
00000000
00000100
00000100
00000000
00000000
00001000
00000000
00010000
,
00000000
00100000
00000000
01000000
00100000
10000000
00100000
10000000
,
00000000
01000000
00000000
00010000
01000000
00000000
10000000
00000000
,
01000000
00000000
00010000
00000000
00001000
00010000
00001000
00010000
,
00000000
00000100
00000100
00000000
00000000
00000010
00000000
00000001
,
00000000
00000100
00000000
00000010
00001000
00000100
00010000
00001000
,
01000000
01000000
01000000
01000000
,
00100000
00000000
00000000
10000000
01000000
00010000
00001000
00000010
,
00000000
00000100
00000100
00000000
00000000
00000010
00000000
00000010
,
00000000
00000010
00000000
00000010
00000001
00000100
00001000
00010000
,
00200000
00000000
10000000
00000000
00000000
01000000
00000000
00010000
,
00000000
01000000
00300000
10000000
01000000
00100000
00001000
00010000
,
00000100
00000000
00000010
00000000
,
00000100
00000000
00010000
00000000
,
00000100
00000000
00000001
00000000
,
00000100
00010000
00001000
01000000
,
10000000
00000000
00000000
01000000
00000000
00000000
01000000
00000000
00010000
00000000
01000000
00000000
01000000
00000000
00000000
00000000
,
00100000
00000000
10000000
00000000
01000000
00010000
00001000
00000010
,
00000001
00000000
00000000
00000100
00000000
00000000
00000100
00000000
00001000
00000000
00000100
00000000
00000100
00000000
00000000
00000000
,
00000001
00000010
00001000
00000010
00001000
00010000
01000000
10000000
,
00100000
00000000
01000000
00010000
00000000
10000000
01000000
00000000
,
00010000
00010000
00000000
00001000
00000100
00000000
00000100
00000000
,
00000010
00000000
00000100
00000001
00000000
00001000
00000100
00000000
,
00010000
00010000
00000000
00001000
01000000
00000000
01000000
00000000
,
00100000
10000000
00000000
00010000
01000000
00000000
00100000
00000000
,
01000000
00001000
00000000
00010000
00000100
00000000
00000000
00000010
,
00000001
00000100
00000010
00000000
00000110
00000000
00100000
00000000
,
10000000
00000000
01000000
00010000
00000000
01000000
00000000
00100000
,
00000000
00001000
00000000
00010000
00000100
00000000
00000010
00000001
,
00000001
00000000
00000100
00001000
00000000
00000100
00000000
00000010
,
00000000
00010000
00000000
00001000
01000000
00000000
00100000
10000000
,
00010000
10000000
00000000
01000000
00000000
00010000
00000000
00001000
,
00000000
00000010
00000000
00000001
00001000
00000000
00000010
00000001
,
00001000
00000001
00000000
00000100
00000000
00001000
00000000
00010000
,
00000000
00100000
00000000
10000000
00010000
00000000
01000000
10000000
,
00010000
10000000
00000000
00100000
00000000
00010000
00000000
00001000
,
00000000
00000100
00000000
00000001
00001000
00000000
00000100
00000001
,
00001000
00000001
00000000
00000010
00000000
00001000
00000000
00010000
,
00000000
00000000
01000000
00000000
00000000
00000000
10000000
00000000
00010000
00000000
00000000
00000000
01000000
00000000
00000000
01000000
,
00000000
01000000
01000000
00000000
00100000
00000000
00000000
10000000
,
01000000
10000000
00000000
00010000
00100000
00010000
01000000
00001000
,
00010000
00000010
00010000
00001000
01000000
00001000
00010000
00000010
,
00010000
00001000
01000000
00001000
00000000
00000010
00000000
00000001
,
00000000
00001000
00000100
00000100
00000100
00000000
00000000
00000001
,
00000010
00000001
00000000
00001000
00000100
00001000
00000010
00010000
,
00001000
01000000
00001000
00010000
00000010
00010000
00001000
01000000
,
00001000
00010000
00000010
00000000
00010000
00001000
00000000
00100000
,
00000000
00000000
01000000
01000000
01000000
00000000
00000000
00010000
,
00001000
00000100
00000010
00001000
00000000
00000000
00000100
00000010
,
00000000
00000000
00000001
00000001
00000001
00000000
00000100
00001000
,
00010000
00010000
00100000
10000000
10000000
01000000
02200000
00000000
,
00000000
00000000
00000000
00000000
,
03300000
00000000
00000000
00000000
,
00000000
00000000
00000000
00000000
;

//---------------dance-double - ----------------
#NOTES:
     dance-double:
     :
     Hard:
     12:
     0.511781,0.492717,0.020530,0.020530,0.133444,349.000000,347.000000,2.000000,2.000000,0.000000,0.000000,0.511781,0.492717,0.020530,0.020530,0.133444,349.000000,347.000000,2.000000,2.000000,0.000000,0.000000:
00000000
00000000
00000000
00000000
,
00000000
00000000
00000000
00000000
,
01000000
10000000
01000000
00010000
00100000
00001000
00010000
00000100
,
00000010
00000100
00000000
00000001
00000000
00000100
00000000
00001000
,
00000000
00000010
00000000
00000100
00000000
00001000
00000000
00010000
,
00100000
00000000
00000000
00000000
01000000
00000000
10000000
00000000
00000000
00000000
01000000
00100000
01000000
00000000
00010000
00000000
,
00000000
10000000
00000000
01000000
00100000
01000000
00010000
01000000
,
10000000
00000000
00100000
00000000
00010000
00001000
00010000
00000100
,
00000000
00000010
00000001
00000000
00001000
00000010
00000100
00000001
,
00000000
00000100
00000000
00001000
00010000
00001000
01000000
00100000
,
00000000
00000000
10000000
00000000
00000000
00000000
01000000
00100000
01000000
00000000
00010000
00000000
00000000
00000000
01000000
00000000
,
00010000
00001000
00000100
00000001
00000100
00000010
00010000
00000000
,
00000000
00000000
00000100
00000000
00000010
00000000
00000000
00000000
00000001
00001000
00000001
00000000
00000100
00000000
00001000
00000000
,
00000000
00000100
00000000
00000001
00000010
00001000
00010000
01000000
,
10000000
00010000
00000000
00000000
00010000
01000000
00000000
00000000
01000000
00001000
00000000
00000000
00001000
00010000
00000000
00000000
,
00000000
00000100
00000000
00000010
00000000
00000001
00001000
00000010
,
00000000
00000100
00001000
00000000
00010000
00001000
00100000
01000000
,
00000000
10000000
00000000
00010000
00000000
00100000
01000000
00010000
,
00001000
00000000
00000100
00000000
00000010
00000100
00000001
00001000
,
00000000
00000100
00000000
00000010
00000001
00000100
00001000
00010000
,
00000100
00000000
00000000
00000000
00000010
00000001
00000100
00000000
,
00001000
00000000
00000000
00000000
00010000
00100000
10000000
00000000
,
01000000
00000000
00100000
00000000
,
01000000
00100000
00001000
00010000
,
00001000
00000000
00000000
00000100
00000000
00000000
00000100
00000000
00000010
00000000
00000010
00000000
00001000
00000000
00001000
00000000
,
00000001
00000000
00000000
00000100
00000000
00000000
00000100
00000000
00001000
00000000
00000000
00001000
00010000
00000000
00000000
00010000
,
00100000
00000000
00000000
01000000
00000000
00000000
01000000
00000000
00100000
00000000
10000000
00000000
00010000
00000000
01000000
00000000
,
00001000
00100000
00010000
10000000
01000000
00010000
00001000
00000100
,
00000010
00000000
00001000
00000001
00000000
00000100
00001000
00010000
,
01000000
00100000
00000000
00010000
10000000
10000000
01000000
01000000
,
00100000
10000000
00000000
01000000
00000000
00010000
00001000
00000000
,
00010000
00000100
00000000
00000010
00000001
00000001
00000100
00000100
,
00010000
00001000
00000000
01000000
00100000
00100000
00010000
00010000
,
10000000
01000000
00000000
00100000
00001000
00010000
00000000
00001000
,
00010000
00000100
00000010
00000001
00000110
00000000
01000000
00100000
,
10000000
00000000
00010000
01000000
00000000
00001000
00100000
01000000
,
00000000
00010000
00000000
00001000
00000100
00000010
00001000
00000001
,
00000100
00000000
00001000
00010000
00000000
00100000
01000000
00010000
,
00000000
10000000
00000000
01000000
00010000
00000000
00001000
00000000
,
00000100
00000000
00000010
00000000
00000000
00000000
00001000
00000000
00000100
00000010
00000100
00000000
00000000
00000000
00000010
00000000
,
00000000
00000001
00000000
00000100
00001000
00000000
00010000
00000000
,
00100000
00000000
01000000
00000000
00000000
00000000
00010000
00000000
00100000
01000000
00100000
00000000
00000000
00000000
01000000
00000000
,
00000000
10000000
00000000
00100000
00010000
00000000
00001000
00000100
,
00000000
00000000
00000010
00000000
00000000
00000000
00001000
00000000
00000100
00000010
00000100
00000000
00000000
00000000
00000010
00000000
,
00000000
00000001
00000000
00000100
00001000
00000000
00010000
00000000
,
00100000
00000000
01000000
00000000
00000000
00000000
00010000
00000000
00100000
01000000
00100000
00000000
00000000
00000000
01000000
00000000
,
00000000
10000000
00000000
00100000
01000000
00010000
10000000
01000000
,
00000000
00000000
00010000
00000000
00001000
00010000
00000000
00010000
00001000
00000000
00000000
00000000
00000000
00000000
00000010
00000000
,
00000100
00000010
00000000
00000001
00001000
00000001
00000000
00000100
,
00001000
00000100
00001000
00010000
00001000
01000000
00100000
01000000
,
00010000
00000000
10000000
00000000
00010000
00000000
00000000
00100000
00001000
00000000
00010000
00000000
00000000
00000000
00000100
00000000
,
00000000
00000000
00001000
00000000
00010000
00001000
00000000
00001000
00010000
00000000
00000000
00000000
00000000
00000000
00100000
00000000
,
01000000
00100000
00000000
10000000
00010000
10000000
00000000
01000000
,
00010000
01000000
00010000
00001000
00010000
00000100
00000010
00000100
,
00001000
00000000
00000001
00000000
00001000
00000000
00000000
00000100
00000010
00000000
00000001
00000000
00000000
00000000
00000100
00000000
,
00000010
00000000
00000000
00000000
00001000
00000100
00000000
00000000
00000100
00000000
00000010
00000000
00000001
00000000
00000100
00000000
,
00001000
00000000
00000000
00000000
00010000
00001000
00000000
00000000
01000000
00000000
00100000
00000000
10000000
00000000
01000000
00000000
,
00010000
00000000
00000000
00000000
00001000
00000000
00000100
00000000
00000000
00000000
00000010
00000000
00001000
00000000
00000000
00000100
,
00000010
00000000
00000001
00000000
00000000
00000100
00000010
00000000
00010000
00000000
00001000
00000000
00022000
00000000
00000000
00000000
,
00000000
00000000
00000000
00000000
,
00033000
00000000
00000000
00000000
,
00000000
00000000
00000000
00000000
;

//---------------dance-single - ----------------
#NOTES:
     dance-single:
     :
     Challenge:
     15:
     0.727344,0.739076,0.420862,0.123179,0.374670,496.000000,455.000000,41.000000,12.000000,0.000000,0.000000,0.727344,0.739076,0.420862,0.123179,0.374670,496.000000,455.000000,41.000000,12.000000,0.000000,0.000000:
// measure 0
0000
0000
0000
0000
,  // measure 1
0000
0000
0000
0000
,  // measure 2
1001
0000
1000
0000
0001
0000
0010
0000
0001
0100
1000
0000
1000
0000
0100
0000
,  // measure 3
0001
0001
0010
1000
0010
0001
0001
0100
,  // measure 4
0010
0001
0010
1000
0010
0100
0001
1000
,  // measure 5
1001
0000
0000
0000
0001
0000
0101
0000
0000
0000
0010
0100
0001
0000
1000
0000
,  // measure 6
0010
1000
0001
0000
0010
0000
0100
1000
0001
0000
0100
0000
0010
0000
1000
0000
,  // measure 7
0100
0001
0100
0000
0100
1000
0100
0000
0010
0001
0010
0000
0010
0001
0010
0000
,  // measure 8
0000
0001
1001
1000
0010
0100
0001
0010
,  // measure 9
1000
0000
0010
0000
0001
0000
0100
0000
0010
1000
0010
0000
0100
0000
0001
0000
,  // measure 10
0100
0000
0010
0000
1000
0000
0001
0100
1000
0000
0100
0000
0001
0010
0001
0000
,  // measure 11
0100
0000
0100
0000
0001
0010
0001
0000
1000
0100
0001
0000
0001
0100
1000
0000
,  // measure 12
0001
0000
0100
0000
0001
0100
0010
0000
1000
0000
0010
1000
0001
0000
0100
0001
,  // measure 13
1000
0000
0100
0001
0100
0000
1000
0000
0100
0010
0001
0000
0100
0000
0101
0000
,  // measure 14
0001
0010
0000
0000
0010
1000
0000
0000
1000
0001
0000
0000
0001
0100
0000
0000
,  // measure 15
0100
0000
0010
0000
1000
0000
0010
0000
0100
0001
0100
0000
1000
0000
0100
0000
,  // measure 16
0000
0000
0001
0100
0001
0000
1000
0000
0010
0000
0100
0010
1000
0000
0101
0000
,  // measure 17
0000
0000
0110
0000
0000
0000
1010
0000
0100
0001
1000
0000
0010
1000
0001
0000
,  // measure 18
1001
0000
0101
0011
0000
0100
1000
1010
,  // measure 19
0000
0000
0110
0000
0000
0000
0001
0000
0100
0010
0100
0000
0010
1000
0001
0000
,  // measure 20
0010
0000
0000
0010
0100
0000
1000
0000
0001
1000
0100
0000
1100
0000
0000
0000
,  // measure 21
1000
0000
0000
1000
0010
0000
0100
0000
0010
1000
0001
0000
0100
0000
0001
0000
,  // measure 22
0010
0100
1000
0000
0001
0000
0100
0000
0001
1000
0010
0000
1010
0000
0000
0000
,  // measure 23
1001
1010
0110
0101
,  // measure 24
1001
0000
0000
1010
0000
0000
0010
0000
0010
0000
0100
0000
0001
0000
0100
0000
,  // measure 25
0000
0000
0000
1001
0000
0000
0010
0000
0100
0000
0010
0000
1000
0000
0100
0000
,  // measure 26
0101
0000
0000
0100
0000
0000
1000
0000
0010
0000
0001
0000
0010
0000
1000
0000
,  // measure 27
0100
0001
1000
0010
0001
0100
1000
0001
,  // measure 28
0020
0000
1030
0020
0000
0031
0100
0010
,  // measure 29
1000
1000
0000
1000
0010
0001
0010
1000
,  // measure 30
0001
0001
0100
1000
0100
0001
1001
0000
,  // measure 31
0100
0000
1010
0000
0000
0000
0100
0000
0120
0000
0031
0000
0010
0100
0010
0000
,  // measure 32
1001
0000
0010
0000
0000
0000
0110
0000
1000
0100
0001
0000
0001
0100
1000
0000
,  // measure 33
2001
3001
0000
0100
1020
1030
0000
0010
,  // measure 34
0201
0301
0100
0010
2002
3003
0001
0100
,  // measure 35
1010
0000
0001
0101
0000
0001
1000
0010
,  // measure 36
0000
1010
0000
0010
0100
0001
1000
0010
,  // measure 37
1000
0000
0100
0001
0000
0101
0000
1001
,  // measure 38
0000
1000
0010
0100
0001
0000
0001
0100
,  // measure 39
1000
0000
0100
0000
0001
0000
0010
0000
1000
0010
0001
0000
0100
0000
0010
0000
,  // measure 40
0100
0001
0010
0200
0000
0000
1300
0100
,  // measure 41
0001
0000
0100
0000
1000
0000
0001
0000
0100
0001
0100
0000
0000
0000
0110
0000
,  // measure 42
0000
1010
0000
1000
0001
0000
0001
0100
,  // measure 43
0010
0000
0100
0000
0001
0000
1000
0000
0010
0001
0010
0000
1000
0000
0010
0000
,  // measure 44
0100
0001
0010
0200
0000
0301
0100
1000
,  // measure 45
0010
0000
0100
0000
0001
0000
0010
0000
1000
0010
0001
0000
0010
0000
0100
0000
,  // measure 46
0001
0000
0100
0000
0010
0000
0001
0000
1001
0000
0001
0000
0100
0010
0000
0010
,  // measure 47
1000
0000
0010
0000
1000
0100
0000
0001
0100
0000
0000
0000
1000
0000
0100
0000
,  // measure 48
0001
0001
0100
1000
0010
0010
0100
0001
,  // measure 49
1000
0000
1000
0000
0001
0100
0010
0000
0100
0000
0100
0000
0001
0000
1000
0000
,  // measure 50
1000
0000
0100
0000
0010
0001
0000
0100
1000
0000
0001
0100
0000
0000
0001
0000
,  // measure 51
1000
0000
0001
0000
1000
0010
0000
1000
0001
0000
0000
0000
0000
0000
0100
0000
,  // measure 52
0001
0000
0010
0000
0001
1000
0000
0010
1000
0000
0001
0000
0100
0000
0001
0000
,  // measure 53
0010
0000
1000
0000
0010
0001
0000
0001
0100
0000
0010
0000
1000
0000
0001
0000
,  // measure 54
0001
0000
0100
0000
0010
1000
0000
0001
1000
0000
0010
0000
0000
0000
0100
0000
,  // measure 55
0001
0000
0000
0000
1000
0001
0000
0100
0001
0000
0010
0000
0001
0100
0000
0001
,  // measure 56
1000
0000
0010
0000
1000
0000
0001
0000
0100
0000
0010
0000
1000
0100
0000
0100
,  // measure 57
0001
0000
0100
0000
1000
0010
0000
0010
0001
0000
0010
0000
1000
0001
0000
0100
,  // measure 58
0001
0000
1000
0000
0000
0100
0010
0000
0001
0000
0100
0000
2002
0000
0000
0000
,  // measure 59
0000
0000
0000
0000
,  // measure 60
3003
0000
0000
0000
;

//---------------dance-single - Old Challenge----------------
#NOTES:
     dance-single:
     :
     Edit:
     14:
     0.664288,0.677486,0.390068,0.112914,0.241226,453.000000,415.000000,38.000000,11.000000,0.000000,0.000000,0.664288,0.677486,0.390068,0.112914,0.241226,453.000000,415.000000,38.000000,11.000000,0.000000,0.000000:
// measure 0
0000
0000
0000
0000
,  // measure 1
0000
0000
0000
0000
,  // measure 2
1001
0100
0001
0010
0001
0100
1000
0001
,  // measure 3
0100
0101
0000
1100
0000
0101
0000
0001
,  // measure 4
0010
0001
0010
1000
0010
0001
0100
1000
,  // measure 5
0101
0000
0000
0000
1000
0000
1001
0000
0000
0000
0001
0100
0001
0000
0100
0000
,  // measure 6
0010
1000
0010
0100
0001
0100
0010
1000
,  // measure 7
0100
0001
0100
1000
0001
0100
0010
0100
,  // measure 8
0000
0001
1001
0000
1000
0010
0100
0010
,  // measure 9
1000
0000
0100
0000
0010
0000
0001
0000
0100
0010
0100
0000
0010
0000
1000
0000
,  // measure 10
0010
0000
0100
0000
0001
0000
0010
0001
0010
0000
0001
0000
0100
0000
1000
0000
,  // measure 11
0100
0000
0001
0010
0100
0000
0010
0000
0001
1000
0010
0000
0100
0000
0010
1000
,  // measure 12
0001
0000
0100
0000
0001
0000
0000
0000
1000
0010
1000
0000
0001
0000
0100
0000
,  // measure 13
0010
0000
0100
0001
0100
0000
0001
0000
0010
0100
1000
0000
0001
0000
0101
0000
,  // measure 14
0100
0010
0000
0000
0010
1000
0000
0000
1000
0001
0000
0000
0001
0100
0000
0000
,  // measure 15
0100
0000
0010
0000
1000
0000
0010
0000
0100
0001
0010
0000
0100
0000
1000
0000
,  // measure 16
0000
0000
0001
0100
0001
0000
1000
0000
0010
0100
0010
0000
1000
0000
0101
0000
,  // measure 17
0000
0000
0110
0000
0000
0000
1010
0000
0100
0001
0100
0000
0010
0000
1000
0000
,  // measure 18
1001
0000
0101
0000
0010
0100
0010
1000
,  // measure 19
0000
1001
0000
0001
0100
0010
0100
0001
,  // measure 20
0010
0000
0000
0010
0100
0000
1000
0000
0001
0000
0100
0000
0001
0000
0000
0000
,  // measure 21
1000
0000
0000
1000
0010
0000
0100
0000
0010
1000
0001
0000
0100
0000
0001
0000
,  // measure 22
0010
0100
1000
0000
0001
0000
0100
0000
0001
0000
0000
0000
0000
0000
0000
0000
,  // measure 23
1001
1010
0110
0101
,  // measure 24
1001
0000
0000
1010
0000
0000
0010
0000
0010
0000
0100
0000
0001
0000
0100
0000
,  // measure 25
0001
0000
0000
1000
0000
0000
0010
0000
0100
0000
0010
0000
1000
0000
0100
0000
,  // measure 26
0001
0000
0000
0100
0000
0000
1000
0000
0010
0000
0001
0000
0010
0000
1000
0000
,  // measure 27
0100
0001
0010
0001
0100
1000
0001
0100
,  // measure 28
0002
0000
1003
0010
0000
1000
0001
0100
,  // measure 29
0010
0010
0000
1000
0010
0001
0010
1000
,  // measure 30
0001
0001
0100
0010
0100
0001
1000
0000
,  // measure 31
1001
0010
0000
0101
0020
1030
0010
0100
,  // measure 32
1001
0010
0000
0110
1000
0001
0010
0001
,  // measure 33
2000
3001
0000
0100
0020
1030
0000
0010
,  // measure 34
0200
0301
0100
0010
2002
3003
0001
0100
,  // measure 35
1010
0000
0001
0100
0000
0001
1000
0010
,  // measure 36
0000
0110
0000
0001
0100
0001
1000
0010
,  // measure 37
1000
0000
0001
0100
0000
0101
0000
1001
,  // measure 38
0000
1010
0000
0010
0100
0000
0001
0100
,  // measure 39
1000
0000
0100
0000
0001
0000
0010
0000
1000
0010
0001
0000
0100
0000
0010
0000
,  // measure 40
0100
0001
0010
0200
0000
0000
1300
0100
,  // measure 41
0001
0000
0100
0000
1000
0000
0001
0000
0100
0001
0100
0000
0000
0000
0110
0000
,  // measure 42
0000
1010
0000
1001
0000
0000
0001
0100
,  // measure 43
0010
0000
0100
0000
0000
0000
0001
0000
1000
0001
1000
0000
0001
0000
0010
0000
,  // measure 44
0100
1000
0001
0200
0000
0310
1000
0001
,  // measure 45
1000
0000
0010
0000
0100
0000
0001
0000
1000
0001
1000
0000
0010
0000
0100
0000
,  // measure 46
0001
0000
0100
0000
1010
0000
1000
0000
1001
0000
0001
0000
0101
0000
0000
0110
,  // measure 47
0000
0000
0010
0000
1000
0001
0000
1000
0001
0000
0000
0000
0000
0000
0100
0000
,  // measure 48
0001
0010
0001
0100
1000
0100
0000
0001
,  // measure 49
0010
1000
1000
0010
0001
0001
0100
1000
,  // measure 50
1000
0000
0100
0000
0001
0010
0000
0100
1000
0000
0001
0100
0000
0000
0100
0000
,  // measure 51
0000
0000
0001
0000
1000
0010
0000
1000
0001
0000
0000
0000
0000
0000
0100
0000
,  // measure 52
0001
0010
0001
0100
0010
1000
0000
0001
,  // measure 53
0010
0000
1000
0000
1000
0010
0000
0001
0100
0000
0010
0000
1000
0000
0001
0000
,  // measure 54
0001
0000
0100
0000
0010
1000
0000
0001
1000
0000
0010
0000
0000
0000
0100
0000
,  // measure 55
0001
0000
0000
0000
1000
0001
0000
0100
0001
0000
0000
0010
0001
0000
0100
0000
,  // measure 56
0001
0000
1000
0000
0010
0000
1000
0000
0001
0000
0100
0000
0010
1000
0000
1000
,  // measure 57
0010
0000
0000
0000
0100
0000
0001
0000
0000
0000
1000
0000
0001
0000
0000
0100
,  // measure 58
0001
0000
1000
0000
0000
0100
0010
0000
0001
0000
0100
0000
2002
0000
0000
0000
,  // measure 59
0000
0000
0000
0000
,  // measure 60
3003
0000
0000
0000
;
