#TITLE:StrayedCatz;
#SUBTITLE:;
#ARTIST:削除;
#TITLETRANSLIT:;
#SUBTITLETRANSLIT:;
#ARTISTTRANSLIT:Sakuzyo;
#GENRE:;
#CREDIT:;
#BANNER:StrayedCatz.png;
#BACKGROUND:StrayedCatz-bg.png;
#LYRICSPATH:;
#CDTITLE:;
#MUSIC:StrayedCatz.ogg;
#OFFSET:0.000000;
#SAMPLESTART:60.198002;
#SAMPLELENGTH:15.000000;
#SELECTABLE:YES;
#BPMS:0.000000=151.500000
,106.000000=113.500000
,123.000000=151.500000
;
#STOPS:106.000000=0.518000
;
#BGCHANGES:;
#KEYSOUNDS:;
#ATTACKS:;

//---------------dance-single - ----------------
#NOTES:
     dance-single:
     :
     Beginner:
     4:
     0.166564,0.266862,0.112575,0.048246,0.000000,145.000000,131.000000,14.000000,6.000000,0.000000,0.000000,0.166564,0.266862,0.112575,0.048246,0.000000,145.000000,131.000000,14.000000,6.000000,0.000000,0.000000:
0000
0000
0000
0000
,
0000
0000
0000
0000
,
0000
0000
0000
0000
,
0000
0000
0000
0000
,
0000
0000
0000
0000
,
0000
0000
0000
0000
,
0000
0000
0000
0000
,
0000
0000
0000
0000
,
0000
0000
0000
0000
,
0001
0000
0010
0000
,
0010
0000
1000
1000
,
0010
0000
1000
0000
,
0001
0000
0010
0000
,
0001
0001
0000
0000
,
0010
0010
0000
0000
,
0100
0000
1000
0000
,
0001
0000
0100
0000
,
0001
0001
0000
0000
,
1000
1000
0000
0000
,
1000
1000
0010
0000
,
1001
0000
1001
0000
,
0001
0001
0010
0000
,
1001
0000
1001
0000
,
1000
1000
1000
0000
,
0001
0001
0001
0000
,
2000
0000
3001
0000
,
0002
0000
1003
0000
,
1000
0000
0000
0010
,
0000
0001
0000
0000
0001
0000
0000
1000
,
0000
0000
1000
0000
0000
0020
0000
0000
,
0030
0000
0000
0200
0000
0000
0300
0000
,
0000
1001
0000
0000
,
0000
1001
0000
0000
,
0000
0001
0000
1000
,
0000
0010
0010
0100
,
0000
1001
0000
0000
,
0000
1000
0000
1000
,
1000
0010
0000
0010
,
0000
0001
0000
0001
,
0001
0010
0000
0010
,
0000
1000
0000
1000
,
1000
0100
0000
0100
,
0000
0001
0000
0001
,
0001
0100
0000
0100
,
0000
0001
0001
0001
,
0000
1000
1000
1000
,
0000
0010
0010
0010
,
0000
0100
0100
0100
,
0000
0001
0001
0010
,
0001
0100
0000
0100
,
0000
1000
1000
0010
,
0010
0100
0000
0010
,
0000
1001
0000
0000
,
0000
0000
0000
0000
,
0000
0000
0000
0000
,
0000
0000
0000
0000
,
0000
2000
0000
3000
,
0000
0002
0000
0003
,
0000
1000
0000
0001
,
0000
0010
0000
1001
,
0000
0001
0001
0001
,
0000
1000
1000
1000
,
0000
0010
0010
0010
,
0000
0100
0100
0100
,
0000
0001
0001
0010
,
0001
0100
0000
0100
,
0000
1001
0000
0000
,
0000
0000
0000
0000
,
0000
0000
0000
0000
,
0000
0000
0000
0000
,
0000
0000
0000
0000
,
0000
0000
0000
0000
,
0000
1001
0000
0000
,
0000
1001
1001
1001
;

//---------------dance-single - ----------------
#NOTES:
     dance-single:
     :
     Easy:
     8:
     0.230893,0.367878,0.152780,0.120616,0.000000,201.000000,182.000000,19.000000,15.000000,0.000000,0.000000,0.230893,0.367878,0.152780,0.120616,0.000000,201.000000,182.000000,19.000000,15.000000,0.000000,0.000000:
0000
0000
0000
0000
,
0000
0000
0000
0000
,
0000
0000
0000
0000
,
0000
0000
0000
0000
,
0000
0000
0000
0000
,
0000
0000
0000
0000
,
0000
0000
0000
0000
,
0000
0000
0000
0000
,
0000
0000
0000
0000
,
0001
0001
0010
0010
,
0100
0100
1000
1000
,
1001
0020
0030
0010
,
1001
0200
0300
0100
,
0010
1000
0010
1000
,
0001
0100
0001
0000
,
1001
0200
0300
0100
,
1001
0020
0030
0010
,
0100
0001
0100
0001
,
1000
0010
1000
0000
,
0110
0000
1001
0000
,
0010
0010
0010
0000
,
0110
0000
1001
0000
,
0100
0100
0100
0000
,
0001
0010
0001
0001
,
1000
0100
1000
1000
,
0001
0001
1000
1000
,
0010
0100
1001
0000
,
0001
0000
0000
1000
0000
0000
0001
0000
,
0000
0010
0000
0000
0010
0000
0000
0100
,
0000
0000
0100
0000
0000
1000
0000
1000
,
0100
0000
0000
0001
0000
0001
0020
0000
,
0000
0130
0000
0000
,
0000
1001
0000
0000
,
0000
0110
0000
1001
,
0000
0110
1001
0110
,
1001
0000
0000
0000
,
0000
1000
0001
1000
,
1000
0010
0100
0001
,
1000
0001
0001
1000
,
1000
0001
0010
0100
,
0000
0001
1000
0001
,
0001
0100
0010
1000
,
0001
1000
1000
0001
,
0001
1000
0100
0010
,
0000
0001
0001
1000
,
1000
0010
0010
0100
,
0100
0001
0010
0100
,
1000
0001
0100
0010
,
0000
1000
0100
0010
,
0001
1000
0010
0100
,
0001
1000
1000
0001
,
0001
0020
0000
0100
,
0130
2000
0000
3000
,
0000
0002
0000
0003
,
0000
0020
0000
0000
,
0000
0100
0000
0130
,
0000
0002
0000
1003
,
0000
2000
0000
3001
,
0000
0020
0000
0130
,
0000
0200
0000
0310
,
0000
0001
1000
0001
,
0010
0100
1000
0001
,
1000
0010
0010
0100
,
0100
0001
1000
0001
,
0010
0100
1000
0001
,
0100
0010
0010
1000
,
1000
1001
0000
0000
,
0000
0000
0000
0000
,
0000
0000
0000
0000
,
0000
0000
0000
0000
,
0000
0000
0000
0000
,
0000
0000
0000
0000
,
0000
1001
0000
0000
,
0000
0010
0100
2002
,
0000
0000
0000
0000
,
0000
0000
0000
0000
,
0000
3003
0000
0000
;

//---------------dance-single - ----------------
#NOTES:
     dance-single:
     :
     Medium:
     11:
     0.402052,0.551817,0.112575,0.096492,0.000000,350.000000,336.000000,14.000000,12.000000,0.000000,0.000000,0.402052,0.551817,0.112575,0.096492,0.000000,350.000000,336.000000,14.000000,12.000000,0.000000,0.000000:
// measure 0
0000
0000
0000
0000
,  // measure 1
0000
0000
0000
0000
,  // measure 2
0000
0000
0000
0000
,  // measure 3
0000
0000
0000
0000
,  // measure 4
0000
0000
0000
0000
,  // measure 5
0000
0000
0000
0000
,  // measure 6
0000
0000
0000
0000
,  // measure 7
0000
0000
0000
0000
,  // measure 8
0000
0000
0000
0000
,  // measure 9
0001
0100
0010
0000
1000
0010
0100
0000
,  // measure 10
0001
0010
0100
0000
1000
0001
0100
0000
,  // measure 11
0001
1000
0001
0000
1000
0001
0100
0000
,  // measure 12
0001
0010
0100
1000
0010
0100
0001
0000
,  // measure 13
1000
0001
0000
1000
0001
0010
0100
0010
,  // measure 14
0100
1000
0001
0000
0100
0001
1000
0000
,  // measure 15
0001
0100
0010
0000
1000
0100
0001
0000
,  // measure 16
0100
1000
0100
0001
0100
0010
0001
0000
,  // measure 17
0001
0100
0010
1000
0000
0001
0010
0100
,  // measure 18
0000
1000
0001
0100
0010
0000
1001
0000
,  // measure 19
0001
0001
0010
0010
0100
1000
1001
0000
,  // measure 20
1000
0100
0001
0100
1000
0010
0001
0000
,  // measure 21
0010
0010
0100
0100
0001
1000
1001
0000
,  // measure 22
0001
0010
1000
0000
0001
0100
1000
0000
,  // measure 23
0001
1000
1000
0000
1000
0001
0001
0000
,  // measure 24
1000
0100
0010
0001
1000
0010
0100
0000
,  // measure 25
0001
0100
0010
0000
1000
0001
0100
0000
,  // measure 26
0010
1000
0001
0100
1001
1000
0100
0001
,  // measure 27
0100
1000
0000
0001
0100
1000
0100
0001
,  // measure 28
0000
2000
0100
3100
0200
0010
0310
0002
,  // measure 29
1000
1003
1001
0000
0000
0001
0010
1000
,  // measure 30
0010
0001
0000
1000
0010
0001
0010
0100
,  // measure 31
0010
1001
0000
0000
,  // measure 32
0000
0010
0100
0000
0000
0000
0000
0000
,  // measure 33
0000
1000
0001
0000
0001
0000
1000
0000
,  // measure 34
1000
0000
0010
0010
0100
0100
0001
1000
,  // measure 35
0001
2002
0000
0000
0000
0000
3003
0000
,  // measure 36
0000
0000
1000
0100
0010
0001
1000
0001
,  // measure 37
0100
0000
0001
0010
0100
1000
0001
0100
,  // measure 38
0010
0000
1000
0100
0001
0000
1000
0010
,  // measure 39
0001
0000
1000
0001
0100
0010
1000
0001
,  // measure 40
1000
0000
0001
0100
0010
1000
0100
0010
,  // measure 41
0001
0000
1000
0010
0100
0001
0010
0100
,  // measure 42
1000
0000
0001
0100
0010
0000
1000
0001
,  // measure 43
0100
0000
0010
1000
0010
0100
0001
1000
,  // measure 44
0001
0000
1000
0100
0001
0100
1000
0001
,  // measure 45
1000
0000
0001
0100
1000
0100
0001
1000
,  // measure 46
0001
0000
1000
0100
0001
0100
1000
0010
,  // measure 47
0001
0010
1000
0100
0010
0001
1000
0010
,  // measure 48
0100
0000
0001
0100
1000
0100
0001
0010
,  // measure 49
1000
0010
0001
0100
0010
1000
0001
0010
,  // measure 50
0100
1000
0001
1000
0000
0000
1000
0001
,  // measure 51
0000
1001
0000
1001
,  // measure 52
0110
1001
0000
0000
,  // measure 53
0000
0000
0000
0000
,  // measure 54
0000
0000
0000
0000
,  // measure 55
0000
0000
0000
0000
,  // measure 56
0000
2000
0010
0001
,  // measure 57
3010
0002
0010
1000
,  // measure 58
0013
2000
0100
3200
,  // measure 59
0010
0320
0031
1001
,  // measure 60
0000
0000
0001
0100
1000
0100
0001
1000
,  // measure 61
0001
0000
1000
0100
0001
0100
1000
0001
,  // measure 62
1000
0000
0001
0100
1000
0100
0001
0010
,  // measure 63
1000
0010
0001
0100
0010
1000
0001
0010
,  // measure 64
0100
0000
1000
0100
0001
0100
1000
0010
,  // measure 65
0001
0010
1000
0100
0010
0001
1000
0010
,  // measure 66
0100
0001
1001
0000
0000
0000
0000
0000
,  // measure 67
0000
0000
0000
0000
,  // measure 68
0000
0000
0000
0000
,  // measure 69
0000
0000
0000
0000
,  // measure 70
0000
0000
0000
0000
,  // measure 71
0000
0000
0000
0000
,  // measure 72
0000
1001
0000
0000
,  // measure 73
0000
0001
1000
0010
0100
0002
2000
0000
,  // measure 74
0000
0000
0000
0000
,  // measure 75
0000
0000
0000
0000
,  // measure 76
0000
3003
0000
0000
;

//---------------dance-single - ----------------
#NOTES:
     dance-single:
     :
     Hard:
     14:
     0.554832,0.735755,0.257313,0.112575,0.205047,483.000000,451.000000,32.000000,14.000000,0.000000,0.000000,0.554832,0.735755,0.257313,0.112575,0.205047,483.000000,451.000000,32.000000,14.000000,0.000000,0.000000:
// measure 0
0000
0000
0000
0000
,  // measure 1
0000
0000
0000
0000
,  // measure 2
0000
0000
0000
0000
,  // measure 3
0000
0000
0000
0000
,  // measure 4
0000
0000
0000
0000
,  // measure 5
0000
0000
0000
0000
,  // measure 6
0000
0000
0000
0000
,  // measure 7
0000
0000
0000
0000
,  // measure 8
0000
0000
0000
0000
,  // measure 9
0001
0010
0010
0100
0100
1000
1000
0001
,  // measure 10
0001
0100
0100
0010
0010
1000
1001
0000
,  // measure 11
1000
0100
0001
0100
1000
0010
0100
0001
,  // measure 12
1000
0100
0010
0001
1000
0010
0100
0001
,  // measure 13
0000
0000
0000
1000
0000
0010
0000
0000
0000
0100
0000
0000
0001
0000
0000
1000
0000
0000
0010
0000
0000
0100
0000
0000
,  // measure 14
1000
0000
0000
0100
0000
0000
0001
0000
0000
0100
0000
0000
0010
0000
0000
0100
0000
0000
0001
0000
1000
0001
0000
0000
,  // measure 15
0000
1000
0100
0001
0100
1000
0010
0100
,  // measure 16
0001
0010
1000
0010
0001
1000
0010
0100
,  // measure 17
0000
0001
0100
0001
1000
0010
0100
0001
,  // measure 18
1000
0100
0010
0001
0010
0100
1000
0000
,  // measure 19
0001
0000
0010
0001
0000
0010
0001
0000
0100
0001
0000
0100
0001
0000
1000
0010
0000
1000
0010
0000
0000
0000
0000
0000
,  // measure 20
0001
0100
0010
1000
0001
0010
0110
0000
,  // measure 21
1000
0000
0100
1000
0000
0100
1000
0000
0001
1000
0000
0001
1000
0000
0010
0100
0000
0010
0100
0000
0000
0000
0000
0000
,  // measure 22
0001
0100
0010
1000
0001
0010
0100
1000
,  // measure 23
0100
0000
0010
0001
0000
0000
1000
0000
0000
0001
0000
0000
0100
0000
0010
1000
0000
0000
0001
0000
0000
1000
0000
0000
,  // measure 24
0001
0000
0100
0000
0010
0000
1000
0000
0000
0100
0000
0010
0000
0000
0000
0001
0000
0000
1000
0000
0000
1001
0000
0000
,  // measure 25
0001
0100
1000
0100
0001
0010
1000
0010
,  // measure 26
0001
0000
0000
0000
0100
0000
0000
0000
0010
0000
0000
0000
1000
0000
0000
0000
0001
0000
0000
0000
0010
0000
0000
0000
0110
0000
0000
0000
0000
0000
1000
0000
0000
0000
0000
0000
0100
0000
0000
0010
0000
0000
0001
0000
0000
0000
0000
0000
,  // measure 27
1000
0010
0100
0000
0001
0000
0001
0000
0100
0010
1000
0000
0001
0010
0100
0000
,  // measure 28
1000
0002
0010
0013
2000
0100
3100
1000
,  // measure 29
0100
0000
0001
0000
1000
0000
0010
0000
0001
0000
0010
0000
0100
1000
0001
0000
,  // measure 30
0100
0000
0010
1000
0001
0000
0010
0000
0100
0000
1000
0000
0100
0000
0010
0000
,  // measure 31
0001
0100
1001
0000
0000
0000
0000
0000
,  // measure 32
0000
1001
0110
0000
0000
0000
0000
0000
,  // measure 33
0000
0110
1001
0000
1001
0000
0110
0000
,  // measure 34
0110
0000
1001
1001
0110
0110
1001
0010
,  // measure 35
0100
2002
0000
0000
0000
0000
0000
0000
,  // measure 36
3003
0000
1000
0100
0010
0001
0100
0010
,  // measure 37
1000
0000
0001
0100
0000
0000
0001
0000
0000
0010
0000
0000
1000
0000
0000
0010
0000
0000
0001
0000
0000
0100
0000
0000
,  // measure 38
0010
1000
1010
0001
0100
0010
1000
0001
,  // measure 39
0010
0100
1000
0100
0100
0010
0010
0001
,  // measure 40
1001
0000
0001
0100
0010
1000
0010
0100
,  // measure 41
0001
0000
1000
0010
0000
0000
0100
0000
0000
0001
0000
0000
0010
0000
0000
0100
0000
0000
0001
0000
0000
0100
0000
0000
,  // measure 42
1000
0100
0110
0001
0010
0100
1000
0001
,  // measure 43
0100
1000
0100
0001
0001
1000
1000
0100
,  // measure 44
0100
0010
0001
0010
0100
1000
0001
0100
,  // measure 45
0010
1000
0001
0010
1000
0010
0001
1000
,  // measure 46
0010
0000
0000
1000
0000
0000
0100
0000
0010
0001
0000
0000
1000
0000
0100
0010
0000
0000
0001
0000
0100
0010
0000
0000
,  // measure 47
1000
0000
0001
0100
0000
0000
0001
0000
0000
0010
0000
0000
0100
0000
0000
1000
0000
0000
0001
0000
0000
0100
0000
0000
,  // measure 48
0010
1000
0001
0010
0010
0100
0100
1000
,  // measure 49
1000
0001
0001
0100
0100
0010
0010
1000
,  // measure 50
1000
0000
0000
0001
0000
0000
0010
0000
0100
0000
0000
0110
0000
0000
0000
0000
0000
0000
1000
0000
0001
0000
0000
1001
,  // measure 51
0000
0000
2000
0000
0000
0000
0002
0000
0000
0000
0000
0000
3003
0000
0000
1000
0000
0001
1000
0000
0000
0001
0000
1000
,  // measure 52
0001
0000
0000
0100
0000
0010
0100
0000
0000
0000
0000
0000
0001
0000
0000
0000
0000
0000
0010
0000
0000
0100
0000
0000
,  // measure 53
1000
0000
0001
0000
0100
0000
0010
1000
,  // measure 54
0010
0001
0020
0000
1000
0000
0100
0000
,  // measure 55
0001
0230
0010
0001
,  // measure 56
1000
0000
0301
0100
1000
0100
0001
0010
,  // measure 57
0100
1000
0000
0100
0010
0001
0000
0010
,  // measure 58
0100
1000
0001
0000
0100
0010
0001
0010
,  // measure 59
0100
1000
0200
0000
0302
0000
1003
0000
,  // measure 60
2002
3003
1000
0100
0010
0001
1000
0010
,  // measure 61
0100
0001
1000
0100
0001
0100
1000
0001
,  // measure 62
0100
0000
0000
0001
0000
0000
0010
0000
0100
1000
0000
0000
0001
0000
0010
0100
0000
0000
1000
0000
0010
0100
0000
0000
,  // measure 63
0001
0000
1000
0010
0000
0000
1000
0000
0000
0100
0000
0000
0010
0000
0000
0001
0000
0000
1000
0000
0000
0010
0000
0000
,  // measure 64
0100
0001
1001
0100
0100
0010
1010
0001
,  // measure 65
0001
1000
1001
0010
1010
0100
0101
0001
,  // measure 66
1001
1000
1001
0000
0000
0000
0000
0000
,  // measure 67
0000
0000
0000
0000
,  // measure 68
0000
0000
0000
0000
,  // measure 69
0000
0000
0000
0000
,  // measure 70
0000
0000
0000
0000
,  // measure 71
0000
0000
0000
0000
,  // measure 72
0000
1001
0000
0000
,  // measure 73
0000
0000
0000
0010
0000
0001
1000
0000
0000
0010
0000
1000
0001
0000
0100
0000
0000
0001
2000
0000
0000
0002
0000
0000
,  // measure 74
0000
0000
0000
0000
,  // measure 75
0000
0000
0000
0000
,  // measure 76
0000
3003
0000
0000
;

//---------------dance-double - ----------------
#NOTES:
     dance-double:
     :
     Easy:
     7:
     0.240083,0.355816,0.225149,0.144739,0.000000,209.000000,181.000000,28.000000,18.000000,0.000000,0.000000,0.240083,0.355816,0.225149,0.144739,0.000000,209.000000,181.000000,28.000000,18.000000,0.000000,0.000000:
00000000
00000000
00000000
00000000
,
00000000
00000000
00000000
00000000
,
00000000
00000000
00000000
00000000
,
00000000
00000000
00000000
00000000
,
00000000
00000000
00000000
00000000
,
00000000
00000000
00000000
00000000
,
00000000
00000000
00000000
00000000
,
00000000
00000000
00000000
00000000
,
00000000
00000000
00000000
00000000
,
00000001
00000001
00000100
00001000
,
00010000
00010000
00100000
10000000
,
10010000
01000000
00010000
00100000
,
01000000
10000000
00010000
10000000
,
10010000
00000000
10000000
01000000
,
00010000
00010000
00001000
00000010
,
00000000
00000010
00000001
00001000
,
00000010
00000100
00000001
00001000
,
00001001
00000000
00000001
00000100
,
00001000
00010000
00001000
00010000
,
00100000
00100000
01000000
01000000
,
00020000
10030000
10010000
00000000
,
00100000
00100000
01000000
01000000
,
20000000
30010000
10010000
00000000
,
10000000
01000000
00010000
00001000
,
00010000
00001000
00000010
00000001
,
00002000
00003100
00000002
00000103
,
00000010
00000100
00001001
00000000
,
00001001
00000000
00000000
00000110
00000000
00000000
00001001
00000000
,
00000000
00000001
00000000
00000001
00000100
00000000
00000100
00001000
,
00000000
00001000
00010000
00000000
00000000
00200000
00000000
00000000
,
01300000
00000000
00000000
20000000
00000000
00000000
30010000
00000000
,
00010000
00110000
00000000
00000000
,
00000000
00011000
00000000
00000000
,
00000000
00001100
00000000
00000110
,
00000000
00000001
00001000
00000010
,
00000100
00002002
00000000
00003003
,
00000000
00000001
00000001
00000100
,
00000100
00001000
00010000
00001000
,
00010000
00200000
00000000
02300000
,
00000000
03010000
10000000
10010000
,
00000000
10000000
10000000
01000000
,
01000000
00010000
00001000
00010000
,
00001000
00000020
00000000
00000230
,
00000000
00001300
00000001
00001001
,
00000000
00000001
00000100
00001000
,
00010000
00001000
00010000
00100000
,
10000000
00010000
00010000
10000000
,
10000000
01000000
00100000
01100000
,
00000000
10000000
01000000
00010000
,
00001000
00010000
00001000
00000010
,
00000001
00001001
00000000
00000110
,
00000000
00001001
00000000
00000110
,
00001001
00000110
00000000
00000000
,
00000000
00000000
00000000
00000000
,
00000000
00000000
00000000
00000000
,
00000000
00000000
00000000
00000000
,
00000000
00000002
00000000
00000203
,
00000000
00002300
00000000
00023000
,
00000000
00230000
00000000
20300000
,
00000000
30010000
00000000
10010000
,
00000000
10000000
01000000
00010000
,
00001000
00010000
00001000
00000010
,
00000001
00001000
00001000
00000001
,
00000001
00000100
00000010
00000110
,
00000000
00000001
00000100
00001000
,
00010000
00001000
00010000
00100000
,
10000000
10010000
00000000
00000000
,
00000000
00000000
00000000
00000000
,
00000000
00000000
00000000
00000000
,
00000000
00000000
00000000
00000000
,
00000000
00000000
00000000
00000000
,
00000000
00000000
00000000
00000000
,
00000000
10010000
00000000
00000000
,
00000000
10000000
00010000
10010000
;

//---------------dance-double - ----------------
#NOTES:
     dance-double:
     :
     Medium:
     12:
     0.381375,0.490504,0.088451,0.088451,0.000000,332.000000,321.000000,11.000000,11.000000,0.000000,0.000000,0.381375,0.490504,0.088451,0.088451,0.000000,332.000000,321.000000,11.000000,11.000000,0.000000,0.000000:
00000000
00000000
00000000
00000000
,
00000000
00000000
00000000
00000000
,
00000000
00000000
00000000
00000000
,
00000000
00000000
00000000
00000000
,
00000000
00000000
00000000
00000000
,
00000000
00000000
00000000
00000000
,
00000000
00000000
00000000
00000000
,
00000000
00000000
00000000
00000000
,
00000000
00000000
00000000
00000000
,
00000001
00000100
00000010
00000000
00001000
00000010
00000100
00000000
,
00001000
00010000
00001000
00000000
00010000
00100000
10000000
00000000
,
00100000
00100000
01000000
00000000
00010000
10000000
01000000
00000000
,
00010000
00010000
00001000
00010000
00001000
00000000
00000010
00000000
,
00000001
00001000
00000000
00001000
00000001
00000100
00000010
00000000
,
00000100
00001000
00000000
00010000
00000000
00100000
10000000
00000000
,
00010000
01000000
00100000
00000000
10000000
01000000
00010000
00000000
,
00001000
00010000
00001000
00000010
00000001
00001000
00000001
00000000
,
00000100
00000001
00000010
00001000
00000000
00010000
00001000
00010000
,
00000000
00100000
10000000
00010000
01000000
00000000
10010000
00000000
,
00100000
00100000
01000000
01000000
10000000
00010000
10010000
00000000
,
10000000
01000000
00010000
00000000
00001000
00000010
00000001
00000000
,
00000100
00000100
00000010
00000010
00001000
00000001
00001001
00000000
,
00000001
00000100
00001000
00000000
00010000
00100000
10000000
00000000
,
00100000
10000000
10000000
00000000
01000000
00010000
00010000
00000000
,
10000000
01000000
00100000
00010000
00001000
00000100
00000010
00000000
,
00000001
00000001
00000100
00000000
00001000
00010000
00001000
00000000
,
00010000
00100000
01000000
00010000
10010000
10000000
01000000
00010000
,
00001000
00000010
00000000
00000001
00000100
00001000
00010000
00100000
,
00000000
20000000
01000000
31000000
02000000
00000000
03010000
00020000
,
00001000
00031000
00002000
00003010
00000000
00000001
00000010
00001000
,
00010000
01000000
00000000
10000000
00100000
00010000
00001000
00000100
,
00000001
00000100
00000101
00000000
00000000
00000000
00000000
00000000
,
00000000
00000010
00001000
00000000
00000000
00000000
00000000
00000000
,
00000000
00010000
00001000
00000000
00001000
00000000
00010000
00000000
,
00010000
00000000
00100000
00100000
01000000
01000000
00010000
10000000
,
00010000
20020000
00000000
00000000
00000000
00000000
30030000
00000000
,
00000000
00000000
10000000
01000000
00010000
00001000
00010000
00001000
,
00000010
00000000
00000001
00000100
00001000
00010000
00001000
00010000
,
00100000
00000000
10000000
01000000
00010000
00000000
00001000
00010000
,
00001000
00000000
00001000
00000010
00000001
00000010
00001000
00010000
,
00001000
00000000
00010000
00100000
10000000
00010000
10000000
01000000
,
00010000
00000000
00001000
00000010
00000001
00000100
00000001
00000010
,
00001000
00000000
00010000
00010000
00001000
00000000
00001000
00001000
,
00010000
00000000
00100000
10000000
00100000
10000000
00010000
01000000
,
00010000
00000000
10000000
01000000
00010000
00001000
00010000
00001000
,
00000010
00000000
00000001
00000100
00001000
00010000
00001000
00010000
,
00100000
00000000
10000000
01000000
00010000
00000000
10000000
00100000
,
00010000
00000000
10000000
01000000
00010000
00001000
00000010
00000001
,
00001000
00000000
00000001
00000100
00001000
00000000
00000001
00000010
,
00001000
00000000
00000001
00000100
00001000
00010000
00100000
00010000
,
00001000
00000000
00001000
00010000
00000000
00000000
00010000
00001000
,
00000000
00011000
00000000
00001000
,
00010000
00011000
00000000
00000000
,
00000000
00000000
00000000
00000000
,
00000000
00000000
00000000
00000000
,
00000000
00000000
00000000
00000000
,
00000000
00002000
00100000
00013000
,
00000000
00020000
00000010
00031000
,
00000000
00010000
00001000
00000010
,
00000001
00000002
00001003
00001001
,
00000000
00000000
00000001
00000010
00001000
00010000
00001000
00010000
,
01000000
00000000
10000000
00100000
00010000
00001000
00010000
00001000
,
00000100
00000000
00000001
00000010
00001000
00000000
00000001
00000100
,
00001000
00000000
00000001
00000010
00001000
00010000
01000000
10000000
,
00010000
00000000
10000000
00100000
00010000
00000000
10000000
01000000
,
00010000
00000000
10000000
00100000
00010000
00001000
00000100
00001000
,
00010000
00011000
00000000
00000000
,
00000000
00000000
00000000
00000000
,
00000000
00000000
00000000
00000000
,
00000000
00000000
00000000
00000000
,
00000000
00000000
00000000
00000000
,
00000000
00000000
00000000
00000000
,
00000000
00011000
00000000
00000000
,
00000000
00010000
00001000
00010000
00001000
00020000
00002000
00000000
,
00000000
00000000
00000000
00000000
,
00000000
00000000
00000000
00000000
,
00000000
00033000
00000000
00000000
;

//---------------dance-double - ----------------
#NOTES:
     dance-double:
     :
     Hard:
     14:
     0.538750,0.735755,0.305560,0.120616,0.120616,469.000000,431.000000,38.000000,15.000000,0.000000,0.000000,0.538750,0.735755,0.305560,0.120616,0.120616,469.000000,431.000000,38.000000,15.000000,0.000000,0.000000:
00000000
00000000
00000000
00000000
,
00000000
00000000
00000000
00000000
,
00000000
00000000
00000000
00000000
,
00000000
00000000
00000000
00000000
,
00000000
00000000
00000000
00000000
,
00000000
00000000
00000000
00000000
,
00000000
00000000
00000000
00000000
,
00000000
00000000
00000000
00000000
,
00000000
00000000
00000000
00000000
,
00000001
00000010
00000010
00000100
00000100
00001000
00001000
00010000
,
00010000
00100000
00100000
01000000
01000000
10000000
10010000
00000000
,
10000000
01000000
00010000
01000000
10000000
00100000
01000000
00001000
,
00010000
00001000
00000100
00000001
00000010
00000100
00001000
00000001
,
00000000
00000000
00000000
00001000
00000000
00000100
00000000
00000000
00000000
00010000
00000000
00000000
00001000
00000000
00000000
00010000
00000000
00000000
00100000
00000000
00000000
10000000
00000000
00000000
,
01000000
00000000
00000000
00010000
00000000
00000000
00001000
00000000
00000000
00010000
00000000
00000000
00100000
00000000
00000000
01000000
00000000
00000000
00010000
00000000
10000000
00010000
00000000
00000000
,
00000000
10000000
01000000
00010000
00001000
00010000
00100000
00010000
,
00001000
00000010
00000001
00000010
00000100
00000001
00000100
00001000
,
00000000
00000001
00000010
00001000
00010000
00001000
00000100
00001000
,
00010000
00100000
10000000
00010000
10000000
01000000
00100000
00010000
,
00101000
00101000
00011000
00011000
00010100
00001100
00001001
00000000
,
00000001
00000010
00001000
00010000
00100000
10000000
00100000
01000000
,
11000000
11000000
01010000
01010000
00110000
00101000
00011000
00000000
,
00001000
00000010
00000001
00000100
00000010
00001000
00010000
01000000
,
00100000
00000000
10000000
00100000
00000000
00000000
01000000
00000000
00000000
00010000
00000000
00000000
00100000
00000000
00010000
00100000
00000000
00000000
01000000
00000000
00000000
10000000
00000000
00000000
,
01000000
00000000
00010000
00000000
00001000
00000000
00000010
00000000
00000000
00000001
00000000
00000010
00000000
00000000
00000000
00000100
00000000
00000000
00001000
00000000
00000000
00001001
00000000
00000000
,
00000001
00000100
00001000
00000100
00000010
00001000
00010000
00001000
,
00010000
00000000
00000000
00000000
01000000
00000000
00000000
00000000
00100000
00000000
00000000
00000000
10000000
00000000
00000000
00000000
00010000
00000000
00000000
00000000
01000000
00000000
00000000
00000000
01010000
00000000
00000000
00000000
00000000
00000000
10000000
00000000
00000000
00000000
00000000
00000000
01000000
00000000
00000000
00100000
00000000
00000000
00010000
00000000
00000000
00000000
00000000
00000000
,
00001000
00000100
00000010
00000000
00000001
00000000
00000001
00000000
00000100
00000010
00001000
00000000
00010000
01000000
00100000
00000000
,
10000000
00200000
00010000
00310000
00020000
00001000
00031000
00001000
,
00000010
00000000
00000001
00000000
00000100
00000000
00001000
00000000
00010000
00000000
00100000
00000000
10000000
00010000
00100000
00000000
,
01000000
00000000
10000000
00010000
01000000
00000000
00001000
00000000
00010000
00000000
00001000
00000000
00000010
00000000
00000001
00000000
,
00000010
00000100
00000110
00000000
00000000
00000000
00000000
00000000
,
00000000
00001001
00001010
00000000
00000000
00000000
00000000
00000000
,
00000000
00010010
00011000
00000000
00011000
00000000
00110000
00000000
,
10100000
00000000
11000000
11000000
01100000
01100000
01000000
00010000
,
00001000
00022000
00000000
00000000
00000000
00000000
00000000
00000000
,
00033000
00000000
00001000
00000010
00000001
00000010
00000100
00001000
,
00000010
00000000
00000100
00000001
00000000
00000000
00001000
00000000
00000000
00000001
00000000
00000000
00000010
00000000
00000000
00001000
00000000
00000000
00010000
00000000
00000000
00001000
00000000
00000000
,
00010000
00100000
10100000
00010000
01000000
00100000
10000000
00010000
,
00100000
01000000
10000000
01000000
01000000
00010000
00010000
00001000
,
00011000
00000000
00001000
00000100
00000001
00000100
00000010
00001000
,
00010000
00000000
01000000
00100000
00000000
00000000
10000000
00000000
00000000
00010000
00000000
00000000
00100000
00000000
00000000
01000000
00000000
00000000
00010000
00000000
00000000
00001000
00000000
00000000
,
00010000
01000000
01100000
10000000
00100000
01000000
00001000
00010000
,
01000000
10000000
00100000
00010000
00010000
00001000
00001000
00000100
,
00000100
00000001
00000010
00000100
00001000
00000001
00000100
00001000
,
00010000
00100000
10000000
01000000
00010000
00001000
00100000
00010000
,
00001000
00000100
00000010
00000001
00000010
00001000
00010000
00100000
,
10000000
00100000
00010000
00001000
00000100
00000001
00000010
00001000
,
00010000
01000000
10000000
00100000
01000000
00010000
00100000
00001000
,
00010000
00000100
00000010
00000001
00000010
00001000
00010000
00000010
,
00010000
00000000
00000000
00001000
00000000
00000000
00100000
00000000
00001000
00000000
00000000
00011000
00000000
00000000
00000000
00000000
00000000
00000000
01000000
00000000
00010000
00000000
00000000
00110000
,
00000000
00000000
20000000
00000000
00000000
00000000
00020000
00000000
00000000
00000000
00000000
00000000
30030000
00000000
00000000
00000000
00000000
00000000
10000000
00000000
00000000
01000000
00000000
00000000
,
00100000
00010000
00002000
00000000
00000100
00000000
00000001
00000000
,
00000010
00023000
01000000
10000000
,
00100000
00032000
00000100
00000001
,
00000010
00023000
01000000
10000000
,
00100000
00000000
00031000
00000100
00000001
00000100
00000010
00001000
,
00010000
00000000
00001000
00010000
00000000
00000000
00001000
00000000
00000000
00010000
00000000
00000000
00100000
00000000
00000000
10000000
00000000
00000000
00100000
00000000
00000000
01000000
00000000
00000000
,
00001000
00000000
00010000
00001000
00000000
00000000
00010000
00000000
00000000
00001000
00000000
00000000
00000100
00000000
00000000
00000001
00000000
00000000
00000010
00000000
00000000
00000001
00000000
00000000
,
00000100
00001000
00020000
00000000
00230000
00000000
01300000
00000000
,
20010000
00000000
31000000
00100000
00010000
10000000
00100000
00010000
,
00001000
00000100
00000001
00000010
00001000
00010000
00000100
00001000
,
00010000
00100000
01000000
10000000
01000000
00010000
00001000
00000100
,
00000001
00000100
00001000
00010000
00100000
10000000
01000000
00010000
,
00001000
00000010
00000001
00000100
00000010
00001000
00000100
00010000
,
00001000
00100000
01000000
10000000
01000000
00010000
00001000
01000000
,
00001000
00010000
00011000
00000000
00000000
00000000
00000000
00000000
,
00000000
00000000
00000000
00000000
,
00000000
00000000
00000000
00000000
,
00000000
00000000
00000000
00000000
,
00000000
00000000
00000000
00000000
,
00000000
00000000
00000000
00000000
,
00000000
00011000
00000000
00000000
,
00000000
00000000
00000000
00000010
00000000
00001000
00000010
00000000
00000000
00010000
00000000
00001000
00010000
00000000
00001000
00000000
00000000
00100000
00002000
00000000
00000000
00020000
00000000
00000000
,
00000000
00000000
00000000
00000000
,
00000000
00000000
00000000
00000000
,
00000000
00033000
00000000
00000000
;

//---------------dance-single - ----------------
#NOTES:
     dance-single:
     :
     Challenge:
     18:
     0.847755,1.348885,0.458339,0.313601,1.049356,738.000000,681.000000,57.000000,39.000000,0.000000,0.000000,0.847755,1.348885,0.458339,0.313601,1.049356,738.000000,681.000000,57.000000,39.000000,0.000000,0.000000:
// measure 0
0000
0000
0000
0000
,  // measure 1
0000
0000
0000
0000
,  // measure 2
0000
0000
0000
0000
,  // measure 3
0000
0000
0000
0000
,  // measure 4
0000
0000
0000
0000
,  // measure 5
0000
0000
0000
0000
,  // measure 6
0000
0000
0000
0000
,  // measure 7
0000
0000
0000
0000
,  // measure 8
0000
0000
0000
0000
,  // measure 9
1001
1000
0010
0010
0100
0100
0001
0001
,  // measure 10
0011
0000
0010
0000
0100
0000
0100
0000
1000
0000
1000
0000
0001
0100
0010
1000
,  // measure 11
0001
0000
0000
1000
0000
0100
1000
0000
0001
0000
0000
0000
1000
0000
0100
0010
0000
0001
0100
0000
0001
0100
0000
0001
,  // measure 12
0010
0000
0100
0010
0000
0100
1000
0000
0001
0000
0000
0010
0000
0000
0100
0000
0000
0000
1000
0010
1000
0010
1000
0010
,  // measure 13
0100
0000
0000
0001
0000
1000
0000
0000
0001
0010
0000
0001
0100
0000
0010
0100
0000
0010
1000
0000
0001
1000
0000
0001
,  // measure 14
0010
0000
0001
0100
0000
0000
0010
0000
1010
0000
0000
1100
0000
0000
0000
1000
0001
0000
0100
0001
0100
0010
0100
0001
,  // measure 15
0100
0000
0000
1010
0000
1000
0010
0000
0000
1000
0000
0001
0000
0000
0010
0001
0000
0100
0001
0000
1000
0100
0000
1000
,  // measure 16
0010
0000
1000
0001
0000
0100
0001
0000
0010
0001
0000
1000
0000
0000
0000
0001
0000
1000
0010
0100
0010
0100
0010
0100
,  // measure 17
0001
0000
0000
1000
0000
1010
0000
0000
0001
0100
0000
0010
0100
0000
1000
0100
0000
0001
0100
0001
0010
0100
0000
1000
,  // measure 18
0001
0000
0100
0001
0000
0000
0100
0000
0000
0010
0000
0000
1000
0000
0000
0001
0000
0000
1001
0000
0000
1000
0000
0000
,  // measure 19
0110
0000
0100
0010
0000
0100
0010
0000
0000
1000
0000
0001
1000
0000
0000
0101
0000
0100
0010
0000
0000
1010
0000
0000
,  // measure 20
1000
0000
0000
0001
0000
0000
1000
0000
0000
0001
0000
0000
0100
0000
0000
0000
0000
0000
0010
0000
0000
0000
0000
0000
0110
0000
0000
0000
0000
0000
0100
0000
0000
0000
0001
0000
0100
0000
0000
0000
0010
0000
0100
0000
0000
0000
0001
0000
,  // measure 21
1000
0000
0001
1000
0000
0010
1000
0000
0001
1000
0000
0001
0000
0000
0100
0000
0000
0001
0100
0000
0000
0110
0000
0000
,  // measure 22
1000
0000
0000
0100
0000
0000
0010
0001
0000
0000
0000
0010
0001
0000
0000
1000
0001
1000
0001
1000
0001
1000
0000
0000
,  // measure 23
0001
0100
0001
0100
0000
0001
0000
0000
1000
0100
0000
1000
0100
0000
0010
0001
0000
0100
0001
0000
0000
0010
0000
0000
,  // measure 24
0100
0000
1000
0000
0001
0000
0100
0000
0010
0100
0000
0010
1000
0000
0000
0100
0000
0000
0010
0000
0000
0011
0000
0000
,  // measure 25
0201
0000
0320
0000
2030
0000
3001
0100
0001
0000
1000
0000
1001
0000
0001
1000
,  // measure 26
0001
0000
0000
0000
0101
0000
0000
0000
0100
0000
0000
0000
0110
0000
0000
0000
0010
0000
0000
0000
1000
0000
0000
0000
1001
0000
0000
0000
0000
0000
0001
0000
0000
0000
0000
0000
0100
0000
0000
0010
0000
0000
1000
0000
0000
0000
0000
0000
,  // measure 27
0001
0100
0010
0100
1000
0000
0100
0000
0001
0010
0100
1000
0010
0000
0110
0000
,  // measure 28
0100
0001
1000
0000
1010
0000
0110
0000
0101
0000
0101
0000
0001
0000
0010
0000
,  // measure 29
0010
0100
1000
0001
1000
0010
0100
0001
,  // measure 30
0010
0100
1000
0010
0100
0001
0010
0001
,  // measure 31
1000
0000
0000
0100
0000
0000
1000
0000
0100
1000
0000
0010
1000
0000
0001
0000
0100
0000
0001
0100
0000
0001
0010
0000
,  // measure 32
0000
0000
0000
1001
0000
0000
0110
0000
0010
0100
0000
0001
0100
0000
0010
1000
0000
0100
1000
0000
0001
1000
0000
0001
,  // measure 33
0000
0110
1001
0000
1001
0000
0110
0000
,  // measure 34
0110
0000
0011
0011
1100
1100
0110
0110
,  // measure 35
1001
2002
0000
0000
0000
0000
0000
3003
,  // measure 36
0001
0100
0001
0000
1001
0000
1000
0000
0010
0000
0100
0000
0010
0000
0001
0000
,  // measure 37
0010
0000
1000
0100
0000
0000
1000
0000
0000
0010
0000
0000
0100
0000
0000
0001
0000
0000
0010
0000
0000
0001
0000
0000
,  // measure 38
0100
0000
0010
0000
1010
0000
1000
0100
1000
0100
0010
0001
0010
0001
0100
0010
,  // measure 39
0100
0000
0000
0010
0000
0000
1000
0000
0000
0001
0000
0000
1000
0000
0000
0001
0000
0000
0010
0000
0000
0001
0000
0000
0010
0000
0000
0001
0000
0000
0100
0000
0000
0001
0000
0000
0100
0000
0000
0000
0010
0000
1000
0000
0000
0000
0001
0000
,  // measure 40
1000
0000
0001
0010
0000
0001
0100
0000
0000
0010
0000
0000
0110
0000
0000
0100
0000
0000
0001
0000
0000
1000
0000
0000
,  // measure 41
0001
0000
1000
0001
0000
0000
0100
0000
0000
0010
0000
0000
1000
0000
0000
0100
0000
0000
0001
0000
0100
0001
0000
1000
,  // measure 42
0001
0000
0010
0001
0000
0100
0001
0000
0000
1000
0010
1000
0010
0000
0100
0000
0000
0001
0000
0100
0001
0000
1000
0001
,  // measure 43
1000
0010
0100
0010
0000
0000
0100
0000
0001
0100
0000
0010
0100
0000
0010
0000
0000
1000
0001
0000
1000
0000
0001
1000
,  // measure 44
0001
0000
1000
0000
0001
0000
1000
0000
0001
0000
0000
0000
1000
0000
0000
0100
0000
0000
0010
0000
0000
0001
0000
0000
1000
0000
0000
0100
0000
0000
0010
0000
0000
0001
0000
0000
1000
0000
0000
0100
0000
0000
0010
0000
0000
0001
0000
0000
,  // measure 45
1000
0100
0010
0001
0100
0010
0000
0110
0000
0000
0001
1000
0001
0100
0001
0100
,  // measure 46
0010
0000
1000
0000
0010
0000
1000
0000
0100
0010
0100
0000
0010
0000
0001
1000
0001
0000
1000
0000
0100
0000
1000
0000
0010
0100
0010
0000
0100
0000
0001
0000
,  // measure 47
0010
0001
0010
0000
0100
0000
1000
0000
0001
0000
0010
0000
0100
0000
1000
0000
0001
0000
0010
0000
0100
0000
1000
0000
0001
0000
0100
0000
0010
0000
1000
0000
,  // measure 48
0001
0000
0100
0000
0010
0000
1000
0000
0001
0010
0001
0000
1000
0000
0100
0010
0100
0000
0010
0000
0001
0000
0100
0000
0010
1000
0010
1000
0010
0000
1000
0000
,  // measure 49
0001
0000
0000
0000
0000
0000
0100
0000
0000
0000
0000
0000
0001
0000
0000
0000
0000
0000
0000
0000
0000
0000
0000
0000
0100
0000
0000
0000
0000
0000
0000
0000
0000
0000
0000
0000
0010
0000
0000
0000
0000
0000
0000
0000
0000
0000
0000
0000
1000
0000
0000
0000
0000
0000
0000
0000
0100
0000
0000
0000
0000
0000
0000
0000
1000
0000
0000
0000
0000
0000
0000
0000
0100
0000
0000
0000
0000
0000
0000
0000
1000
0000
0000
0000
0000
0000
0000
0000
0100
0000
0000
0000
0000
0000
0000
0000
0010
0000
0000
0000
0000
0000
0000
0000
0001
0000
0000
0000
0000
0000
0000
0000
0010
0000
0000
0000
0000
0000
0000
0000
0001
0000
0000
0000
0000
0000
0000
0000
0010
0000
0000
0000
0000
0000
0000
0000
0001
0000
0000
0000
0000
0000
0000
0000
0100
0000
0000
0000
0000
0000
0000
0000
0010
0000
0000
0000
0000
0000
0000
0000
0100
0000
0000
0000
0000
0000
0000
0000
0010
0000
0000
0000
0000
0000
0000
0000
0100
0000
0000
0000
0000
0000
0000
0000
0010
0000
0000
0000
0000
0000
0000
0000
,  // measure 50
0100
0000
0000
0001
0000
0000
1000
0000
0000
0010
0000
0000
0100
0000
0000
0000
0001
0000
0000
0000
0000
0000
0101
0000
0000
0000
0000
1000
0000
0000
0010
0000
0000
1000
0000
0000
0010
0000
0000
0000
0100
0000
0000
0000
0000
0000
0110
0000
,  // measure 51
0000
0000
0000
0001
0000
0000
1000
0000
0000
0001
0000
0000
2000
0000
0000
0000
0000
0000
0000
0000
0000
0000
0000
0000
3010
0000
0000
0000
0000
0000
0100
0000
0000
0000
0010
0000
0100
0000
0000
0000
0000
0000
0010
0000
0000
0000
0100
0000
,  // measure 52
0010
0000
0000
1000
0000
0001
1000
0000
0000
0010
0000
0000
0100
0000
0000
0001
0000
0000
1000
0000
0000
0010
0000
0000
,  // measure 53
0100
0002
0000
0103
1000
0200
0000
0301
,  // measure 54
0010
1000
0020
0000
0000
0000
0032
0023
,  // measure 55
0230
2300
3020
0000
0230
0302
2003
3020
,  // measure 56
0230
0302
0013
0100
1000
0010
0001
0010
,  // measure 57
1000
0000
0000
0001
0000
0000
0100
0000
0000
0001
0000
0000
0010
0000
0000
0002
0000
0000
0000
0000
0000
0103
0000
0010
,  // measure 58
0100
0000
0010
1000
0000
0000
0002
0000
0000
0000
0000
0000
0013
0000
0000
1000
0000
0000
0010
0000
0000
0001
0000
0000
,  // measure 59
0200
0320
2030
3002
,  // measure 60
0200
0303
1001
0001
0100
0010
1000
0001
,  // measure 61
0100
0000
0000
0001
0000
0010
0001
0000
0000
1000
0001
0000
1000
0000
0000
0100
0000
0000
0010
0100
0010
0100
0010
0001
,  // measure 62
0010
0001
0010
0001
0000
0000
1001
0000
1000
0010
0000
0010
0100
0000
0001
0100
0000
0000
0010
1000
0010
1000
0100
1000
,  // measure 63
0100
0010
0001
0010
0000
0000
0101
0000
0000
0100
0000
0000
0110
0000
0000
0010
0000
0000
1010
0000
0010
1000
0000
0001
,  // measure 64
1000
0001
0100
0000
0010
0000
0110
0000
0000
0100
0000
0000
0101
0000
0000
0001
0000
0000
0011
0000
0000
0010
0000
0000
,  // measure 65
0100
0000
1000
0000
1100
0000
0100
0000
0110
0000
0010
0000
0001
1000
0001
1000
,  // measure 66
0010
0100
0010
0100
0002
0000
0000
0000
0000
0000
0000
0000
0000
0000
0000
0000
,  // measure 67
0000
0000
0000
0000
,  // measure 68
2003
3020
0000
0000
,  // measure 69
0000
0230
0302
0023
,  // measure 70
0230
2300
0000
0000
,  // measure 71
0000
3002
0000
0203
,  // measure 72
0300
0000
0000
0000
0000
0000
0000
0000
1001
0000
0000
0000
0000
0000
0000
0000
0000
0000
0000
0000
0000
0000
0000
0000
0000
0000
0000
0000
0000
0000
1000
0001
,  // measure 73
1000
0000
0000
0110
0000
0100
0010
0000
0000
1010
0000
1000
0001
0000
0100
0000
0000
0001
2000
0000
0000
0002
0000
0000
,  // measure 74
0000
0000
0000
0000
,  // measure 75
0000
0000
0000
0000
,  // measure 76
0000
3003
0000
0000
;
