#TITLE:Starlight Fantasia (Endorphins Mix);
#SUBTITLE:;
#ARTIST:U1 overground feat.TAG;
#TITLETRANSLIT:;
#SUBTITLETRANSLIT:;
#ARTISTTRANSLIT:;
#GENRE:;
#CREDIT:;
#BANNER:Starlight Fantasia (Endorphins Mix).png;
#BACKGROUND:;
#LYRICSPATH:;
#CDTITLE:;
#MUSIC:Starlight Fantasia (Endorphins Mix).ogg;
#OFFSET:0.000000;
#SAMPLESTART:75.871002;
#SAMPLELENGTH:15.000000;
#SELECTABLE:YES;
#DISPLAYBPM:78.000000:155.000000;
#BPMS:0.000000=155.000000
,32.000000=77.500000
,34.000000=155.000000
,160.000000=77.500000
,172.000000=38.750000
,173.000000=77.500000
,174.000000=155.000000
,175.000000=310.000000
,177.000000=155.000000
;
#STOPS:159.937500=0.774000
;
#BGCHANGES:;
#KEYSOUNDS:;
#ATTACKS:;

//---------------dance-single - ----------------
#NOTES:
     dance-single:
     :
     Beginner:
     3:
     0.193987,0.235150,0.082799,0.115919,0.000000,164.000000,154.000000,10.000000,14.000000,0.000000,0.000000,0.193987,0.235150,0.082799,0.115919,0.000000,164.000000,154.000000,10.000000,14.000000,0.000000,0.000000:
0000
0000
0000
0000
,
0000
0000
0000
0000
,
0000
0000
0000
0000
,
0000
0000
0000
0000
,
0000
0000
0000
0000
,
0010
0000
1000
0000
,
0100
0000
0001
0000
,
0010
0000
1000
0000
,
0002
0003
2002
0000
,
3003
0000
0010
0000
,
1000
0000
0002
0000
,
0003
0000
0010
0000
,
0001
0000
1000
1000
,
1000
0000
0100
0100
,
0100
0000
0010
0010
,
0010
0000
0001
0001
,
0001
0000
1000
0000
,
1000
0000
0010
0010
,
0010
0000
0001
0000
,
0001
0000
0010
0010
,
0010
0000
1000
0000
,
1000
0000
0100
0100
,
0100
0000
0001
0000
,
0001
0000
1001
0000
,
0000
0000
0010
0010
,
0010
0000
1000
1000
,
1000
0000
0001
0001
,
0001
0000
0010
0010
,
0010
0000
1001
0000
,
0000
0000
1001
0000
,
0000
0000
1001
0000
,
1001
0000
2002
0000
,
3003
0000
0010
0010
,
0010
0010
0010
0010
,
0010
0000
0100
0100
,
0100
0100
0100
0100
,
0100
0000
1000
1000
,
1000
1000
1000
1000
,
1000
0000
0001
0001
,
0001
0001
0001
0001
,
0000
0000
1000
1000
,
0010
0000
0001
0001
,
0010
0000
0100
0100
,
2002
0000
0000
0000
,
3003
1000
1000
1000
,
0000
0010
0000
0100
,
0000
0001
0001
0001
,
0000
0010
0000
0100
,
0000
1000
1000
0010
,
0000
0001
0001
0010
,
0000
1000
0000
0001
,
0000
1000
0000
0001
,
0000
0010
0010
0010
,
0000
1000
0000
0001
,
0000
0010
0010
0010
,
0000
0001
0000
1000
,
0000
0001
0001
0100
,
0000
1000
1000
0100
,
0000
0001
0000
1000
,
0000
0001
0000
1000
,
0000
2002
0000
0000
,
0000
3003
0000
0000
,
0000
2000
0000
3000
,
0000
0002
0000
0003
,
0000
0010
0010
0010
,
0010
0010
0010
0010
,
0000
0001
0000
1000
,
0000
0001
1000
0001
,
1000
0001
0000
0000
,
0000
2002
0000
0000
,
0000
0000
0000
0000
,
3003
0000
0000
0000
;

//---------------dance-single - ----------------
#NOTES:
     dance-single:
     :
     Easy:
     8:
     0.335928,0.470300,0.198718,0.264958,0.000000,284.000000,260.000000,24.000000,32.000000,0.000000,0.000000,0.335928,0.470300,0.198718,0.264958,0.000000,284.000000,260.000000,24.000000,32.000000,0.000000,0.000000:
0000
0000
0000
0000
,
0000
0000
0000
0000
,
0000
0000
0000
0000
,
0000
0000
0000
0000
,
0000
0000
0000
0000
,
0010
0010
1000
1000
,
0100
0100
0001
0001
,
0010
0000
1000
0000
0100
0000
0001
2000
,
0000
0000
0000
3000
2200
0000
0000
0000
,
0000
3300
0200
0000
,
2300
0000
3002
0000
,
0000
0000
0203
0000
,
0310
1001
0010
1000
,
0100
0010
0100
0000
0010
0000
0001
0000
,
0100
0010
0100
0000
0001
0000
0100
0000
,
1000
0000
0010
0000
0001
1000
0001
1000
,
0001
1000
0100
1000
,
0010
0100
0010
0000
0002
0000
0010
0000
,
1000
0013
0100
0001
,
0010
0100
0010
0000
2000
0000
0010
0000
,
0001
3010
0001
0010
,
0100
1000
0100
0000
0002
0000
0100
0000
,
1000
0103
1000
0010
,
0100
0010
0100
0000
1000
0000
0001
0000
,
1001
0000
0001
0001
,
1000
0010
0100
0000
0001
0000
0101
0000
,
1000
1100
0001
0001
,
0010
0100
1000
0000
0010
0000
1010
0000
,
0001
0011
0110
1000
,
0001
0000
0110
0001
,
1000
0000
1100
0000
,
0011
0000
0100
0010
,
0100
0010
2000
0100
,
0100
0100
3100
0000
0002
0000
0100
0000
,
0100
0100
0103
0000
2000
0000
0100
0000
,
3002
0100
2003
0010
,
3001
0010
0002
0000
2003
0000
0100
0000
,
0100
3100
0002
0100
,
0100
0103
2000
0100
,
3002
0103
0010
1000
,
0001
0000
0010
0100
1000
0010
0100
0001
,
0010
0000
1000
0010
0001
0010
0100
1000
,
0010
0000
0001
0100
1000
0100
0001
0010
,
2002
0000
0000
0000
,
3003
0000
0100
0000
0100
0000
0001
1000
,
0010
1000
0100
0010
,
0001
0000
0100
0000
0100
0000
1000
0001
,
0010
0001
0100
0010
,
1000
0000
0001
0000
0001
0000
0001
0010
,
1000
0000
1000
0000
1000
0000
1000
0010
,
0001
0001
0101
1000
,
1010
0001
0101
1000
,
1001
0000
0001
0000
0001
0000
0010
0100
,
1000
0001
0010
0011
,
0000
0000
1000
0000
1000
0000
0010
0100
,
0001
1000
0010
1010
,
0000
0000
1000
0000
0100
0000
0010
0001
,
0010
0000
0001
0000
0100
0000
0010
1000
,
0010
1000
0100
0001
,
0100
0000
1000
0010
1000
0000
0001
0010
,
0001
0220
0000
0000
,
0330
0002
0000
2003
,
0000
3020
0000
0000
,
0000
0230
0000
0301
,
1000
0000
0010
0000
0010
0000
0100
0001
,
0010
0000
0100
0000
0100
0000
1000
0001
,
0100
0001
0101
1000
,
1100
0001
0011
1000
,
1010
0002
0000
2000
,
3003
0220
0000
0000
,
0000
0000
0000
0000
,
0330
0000
0000
0000
;

//---------------dance-single - ----------------
#NOTES:
     dance-single:
     :
     Medium:
     12:
     0.488516,0.734897,0.149039,0.157319,0.186298,413.000000,395.000000,18.000000,19.000000,0.000000,0.000000,0.488516,0.734897,0.149039,0.157319,0.186298,413.000000,395.000000,18.000000,19.000000,0.000000,0.000000:
0000
0000
0000
0000
,
0000
0000
0000
0000
,
0000
0000
0000
0000
,
0000
0000
0000
0000
,
0000
0000
0000
0000
,
0001
0001
0010
0010
,
0100
0100
1000
1000
,
0010
0000
0001
0000
0100
0000
1000
0002
,
0000
0000
0000
0003
0022
0000
0000
0000
,
0000
0033
0020
0000
,
0032
0000
2003
0000
,
0000
0000
3020
0000
,
0130
0010
1001
0000
0010
0001
0100
0000
,
0010
1000
0100
0000
1000
0001
0100
0000
,
0010
1000
0001
0000
1000
0100
0010
0001
,
0100
0001
1000
0001
0100
0001
0010
0100
,
1000
0000
0001
0000
1000
0000
0000
0000
0010
0000
0000
0010
1000
0000
0001
0000
,
0000
0001
0000
0000
0100
0000
0010
0000
1000
0000
0000
1000
0001
0000
0100
0000
,
0000
0100
0000
0000
0010
0000
0100
0000
0001
0000
0000
0001
0010
0000
0100
0000
,
0000
0100
0000
0000
1000
0000
0100
0000
0010
0000
0000
0010
0001
0000
1000
0000
,
0000
1000
0000
0000
0100
0000
1000
0000
0001
0000
0000
0001
0100
0000
0010
0000
,
0000
0010
0000
0000
0100
0000
0001
0000
1000
0000
0000
1000
0100
0000
0010
0000
,
0000
0010
0000
0000
0001
0000
0010
0000
0100
0000
0000
0100
1000
0000
0010
0000
,
0000
0010
0000
0000
0100
0000
0001
0000
1000
0000
0000
1000
0000
0000
0001
0000
,
0000
0001
0000
0000
0100
0000
0000
0000
0001
0000
0100
0000
0001
0000
0100
0000
,
0010
0100
0010
0100
0001
1000
0100
0010
,
0100
1000
0010
1000
0001
0010
0001
0010
,
0100
0010
0100
0010
0100
1000
0010
1000
,
0001
0000
0010
0000
0001
0000
1000
0000
0010
0000
0000
0010
0000
0000
0010
0000
,
0000
0000
0000
0000
1000
0000
0010
0000
0001
0000
0000
0001
0000
0000
0001
0000
,
0000
0000
0000
0000
0000
0000
0001
0000
1000
0000
0000
0100
0000
0000
0100
0000
,
0001
0000
0000
0100
0000
0000
0100
0000
0010
0000
0000
0010
0000
0000
1000
0000
,
0000
0001
0000
0000
1001
0000
0000
0000
1000
0000
0100
0000
1000
0000
0100
0000
,
1000
0100
1000
0100
0010
0001
0010
0001
,
0010
0001
0010
0001
0100
0010
0100
1000
,
0100
0010
0001
0010
0100
1000
0001
0000
,
0101
0000
1100
0000
0001
1000
0001
1000
,
0001
1000
0001
1000
0010
0100
0010
0100
,
0010
0100
0010
0100
0001
1000
0100
1000
,
0100
1000
0100
0010
0000
0010
0100
1000
,
0001
0000
0100
0000
0010
1000
0100
0000
0010
0001
0100
0000
0010
1000
0100
0000
,
0010
0000
0001
0000
1000
0100
0010
0000
0001
0100
0010
0000
1000
0100
0010
0000
,
1020
0000
0130
0000
0001
1000
0100
0000
1000
0001
0100
0000
0001
1000
0010
0000
,
2002
0000
0000
0000
,
3003
0000
0000
0000
0100
0000
0010
0100
0000
0000
0010
0000
1000
0000
0100
0000
,
0010
0000
0001
0000
1000
0000
0000
1000
0001
0000
0100
0000
0001
0000
0000
0000
,
1010
0000
0000
0000
1000
0000
0001
1000
0000
0000
0010
0000
0100
0000
0001
0000
,
0010
0000
0100
0000
1000
0000
0000
1000
0100
0000
0010
0000
0001
0000
0000
0001
,
0100
0010
0100
0001
0100
0010
0100
0001
,
0100
0000
1000
0100
0010
0100
1000
0100
,
0010
0000
0000
0000
0001
0000
0000
0100
0010
0000
0100
0000
0001
0000
0000
0010
,
0100
0000
0010
0000
0001
0000
0000
0100
0010
0000
1000
0000
0001
0000
0000
0000
,
0110
0000
0000
0000
1000
0000
0001
1000
0000
0000
1000
0000
0100
0000
0010
0000
,
0001
0000
1000
0000
0000
0000
1000
0000
0001
0010
0000
0100
0000
0000
0100
0000
,
1000
0000
1000
0000
0001
0000
0100
0001
0000
0000
1000
0000
0010
0000
0100
0000
,
0001
0000
1000
0000
0000
0000
0001
0000
0010
0100
0000
0010
0000
0000
0010
0000
,
0001
0001
1000
0010
0100
0001
1000
0010
,
0100
0000
0001
1000
0100
1000
0001
1000
,
0010
0000
0100
0001
0010
0000
0100
1000
,
0010
0000
0100
0001
0010
0100
0110
0000
,
1001
0220
0000
0000
,
0330
0002
0000
2003
,
0000
3200
0000
0000
,
0000
0320
0000
0031
,
1001
0000
0100
1000
0001
0000
1010
0000
,
0011
0000
0100
0001
1000
0000
0011
0000
,
1010
0000
0001
0010
0100
0010
0001
1000
,
0010
1000
0001
0100
0010
1000
0100
0010
,
0001
1000
0002
0000
0000
0000
1003
0000
,
0001
0220
0000
0000
,
0000
0000
0000
0000
,
0000
0330
0000
0000
0000
0000
0000
0000
0000
0000
0000
0000
0000
0000
0000
0000
0000
0000
0000
0000
0000
0000
0000
0000
0000
0000
0000
0000
0000
0000
0000
0000
0000
0000
0000
0000
0000
0000
0000
0000
0000
0000
0000
0000
0000
0000
0000
0000
0000
0000
0000
0000
0000
0000
0000
0000
0000
0000
0000
0000
0000
0000
0000
0000
0000
0000
0000
0000
0000
0000
0000
0000
0000
0000
0000
0000
0000
0000
0000
0000
0000
0000
0000
0000
0000
0000
0000
0000
0000
0000
0000
0000
0000
0000
0000
0000
0000
0000
0000
0000
0000
0000
0000
0000
0000
0000
0000
0000
0000
0000
0000
0000
0000
0000
0000
0000
0000
0000
0000
0000
0000
0000
0000
0000
0000
0000
0000
0000
0000
0000
0000
0000
0000
0000
0000
0000
0000
0000
0000
0000
0000
0000
0000
0000
0000
0000
0000
0000
0000
0000
0000
0000
0000
0000
0000
0000
0000
0000
0000
0000
0000
0000
0000
0000
0000
0000
0000
0000
0000
0000
0000
0000
0000
0000
0000
0000
0000
0000
0000
0000
0000
0000
0000
0000
0000
0000
0000
0000
0000
0000
0000
0000
;

//---------------dance-single - ----------------
#NOTES:
     dance-single:
     :
     Hard:
     15:
     0.780679,1.205144,0.347757,0.157319,0.972892,660.000000,618.000000,42.000000,19.000000,0.000000,0.000000,0.780679,1.205144,0.347757,0.157319,0.972892,660.000000,618.000000,42.000000,19.000000,0.000000,0.000000:
// measure 0
0000
0000
0000
0000
,  // measure 1
0000
0000
0000
0000
,  // measure 2
0000
0000
0000
0000
,  // measure 3
0000
0000
0000
0000
,  // measure 4
0000
0000
0000
0000
,  // measure 5
0010
0010
0001
0001
,  // measure 6
0100
0100
1000
1000
,  // measure 7
0010
0001
0100
1000
0010
0001
0100
2002
,  // measure 8
0000
0000
0000
0000
0000
0000
3003
0000
0010
0000
0000
1000
0000
0001
0010
0000
,  // measure 9
0100
0010
0001
0100
0020
0000
0100
0000
,  // measure 10
2030
0001
3200
1000
,  // measure 11
0010
0000
0000
0000
0001
0000
0000
0000
0320
0000
0000
0000
0130
0000
0001
1000
,  // measure 12
0001
0100
0010
1000
0100
0000
0010
0001
0100
0000
0100
0000
0010
0000
0010
0000
,  // measure 13
1000
1000
0100
0100
0010
0010
0001
0001
,  // measure 14
0100
0100
0010
0010
1000
0100
0010
0001
,  // measure 15
0100
0001
0100
0001
1000
0010
1000
0010
0100
0010
1000
0100
0010
0001
0100
0010
,  // measure 16
0100
0001
0010
0100
1000
0010
0100
0001
0010
0000
0010
0001
0000
0001
1000
0000
,  // measure 17
1000
0010
0000
0010
1000
0100
0010
0000
0001
0000
0001
1000
0000
1000
0100
0000
,  // measure 18
0100
0010
0000
0000
0011
0000
0110
0000
1000
0000
1000
0010
0000
0010
0100
0000
,  // measure 19
0100
1000
0000
1000
0100
0001
1000
0000
0010
0000
0010
1000
0000
1000
0100
0000
,  // measure 20
0100
0010
0000
0000
0110
0000
0011
0000
1000
0000
1000
0100
0000
0100
0010
0000
,  // measure 21
0010
0001
0000
0001
0100
0010
1000
0000
0001
0000
0001
0100
0000
0100
1000
0000
,  // measure 22
1000
0100
0000
0000
0110
0000
1010
0000
0100
0000
0100
0010
0000
0010
1000
0000
,  // measure 23
0001
0010
0000
0010
0001
0100
0001
0100
0010
0000
0000
1010
0000
0000
0110
0000
,  // measure 24
0000
0101
0000
0000
1000
0001
0100
0001
1000
0000
0100
1000
0000
0001
0100
0010
,  // measure 25
1000
0000
0100
1000
0000
0001
0100
0010
1000
0000
0100
1000
0000
0001
0100
0010
,  // measure 26
1000
0001
0000
0100
0000
0001
1000
0100
0010
0000
0001
0010
0000
0100
0010
0001
,  // measure 27
1000
0000
0001
0010
0000
0100
0010
0001
1000
0000
0001
0010
0000
0100
0010
0001
,  // measure 28
1000
0001
0000
0010
0000
0001
1000
0010
1000
0000
0000
0011
0000
0000
0011
0000
,  // measure 29
0000
0000
0000
0000
0010
0001
0100
0010
1000
0000
0000
1100
0000
0000
1100
0000
,  // measure 30
0000
0000
0000
0000
0000
0000
1000
0000
0001
0000
0000
0101
0000
0000
0101
0000
,  // measure 31
1000
0000
0000
1100
0000
0000
1100
0000
0011
0000
0000
0101
0000
0000
1100
0000
,  // measure 32
0000
1010
0000
0000
0220
0000
0330
0000
1000
0000
0100
0000
0010
0001
0010
0001
,  // measure 33
1000
0000
0100
0000
0010
0001
0010
0001
1000
0000
0010
0000
0100
0001
0100
0001
,  // measure 34
1000
0000
0010
0000
0100
0001
0100
0001
1000
0000
0100
0000
0010
0000
0100
0000
,  // measure 35
0001
0100
1000
0010
0001
1000
0001
0000
,  // measure 36
1100
0000
0000
0000
0101
0000
0000
0000
0001
0000
0100
0000
0010
1000
0010
1000
,  // measure 37
0001
0000
0100
0000
0010
1000
0010
1000
0100
0000
0010
0000
0001
1000
0001
1000
,  // measure 38
0100
0000
0010
0000
0001
1000
0001
1000
0010
0000
0100
0001
0100
0000
0001
0100
,  // measure 39
0010
0000
0100
0001
1000
0000
0010
0000
0000
0000
0010
0000
1000
0001
0010
0100
,  // measure 40
1000
0000
0000
0000
0100
0000
0010
0000
0001
0000
1000
0001
0100
0000
0001
0000
0010
0000
0100
0000
1000
0000
0001
0000
1000
0000
0010
1000
0001
0000
0010
0000
,  // measure 41
0100
1000
0100
1000
0001
0100
0001
0100
0010
0000
0100
0000
0010
0000
0000
0000
1020
0000
0000
0000
0130
0000
0000
0000
1000
0100
0010
0001
1000
0000
0000
0000
,  // measure 42
0021
0000
0000
0000
0100
0000
0130
0000
0010
0000
0001
1000
0001
0000
0010
0000
0100
0000
1000
0001
0100
0010
1000
0001
0100
0000
0100
0000
0010
0000
0010
0000
,  // measure 43
2002
0000
0000
0000
,  // measure 44
3003
0000
0000
0000
0100
0000
0010
0100
0000
0000
0010
0000
1000
0100
0010
0001
,  // measure 45
0100
0010
1000
0100
0010
0000
0100
0010
0000
0100
1000
0001
0100
0000
0000
0000
,  // measure 46
1100
0000
0000
0000
0001
0000
1000
0001
0000
0000
0010
0000
0100
1000
0100
0010
,  // measure 47
0001
0010
0100
0010
0001
0000
0100
0001
0000
0100
0010
0000
1000
0000
0100
1000
,  // measure 48
0000
0100
0010
0000
0100
0000
1000
0100
1000
0000
1100
0000
1000
0010
0100
0001
,  // measure 49
0000
1000
0001
1000
0000
0000
0001
0100
0001
0000
0110
0000
0001
0010
0100
1000
,  // measure 50
0000
0001
0000
0001
1000
0000
0100
0010
0001
0010
0100
0000
1001
0000
1000
0010
,  // measure 51
0100
0010
1000
0000
1001
0000
0100
0010
0001
1000
0001
0000
0011
0000
0000
0000
,  // measure 52
1100
0000
0000
0000
0010
0000
0100
0010
0000
0000
0001
0000
0100
0010
0100
0010
,  // measure 53
1000
0100
0010
0001
0000
0000
0011
0000
1000
0010
0100
0001
0000
0001
0010
0000
,  // measure 54
0100
0000
0101
0000
1000
0000
0100
1000
0000
0000
0001
0000
0010
0100
0010
0100
,  // measure 55
1000
0010
0100
0001
0000
0000
1010
0000
0100
0001
0010
0001
0000
0001
0010
0000
,  // measure 56
0100
0000
0010
0000
0001
0000
0001
0100
0001
0000
1001
0000
0001
0100
0010
1000
,  // measure 57
0000
0100
0010
0001
0000
0000
1000
0100
1000
0000
0110
0000
1000
0001
0010
0100
,  // measure 58
0000
0100
0000
0100
1000
0000
0100
0000
0010
0001
0010
0000
0001
0000
0100
0000
,  // measure 59
0010
1000
0001
0000
0010
0001
0010
0001
0100
0001
0100
0001
0100
0010
1000
0100
,  // measure 60
0010
0001
0100
0000
0220
0000
0000
0000
0000
0000
0000
0000
0000
0000
0000
0000
,  // measure 61
0330
2000
0000
3002
,  // measure 62
0000
2003
0000
0000
,  // measure 63
0000
0000
0000
0000
3100
0000
0000
0000
0000
0000
0010
0100
0010
0001
1000
0100
,  // measure 64
0010
0000
0001
0010
0001
0000
0001
0000
0100
0001
0100
0000
0010
0000
0100
0001
,  // measure 65
0000
0001
1000
0000
0010
0000
1000
0000
0100
1000
0100
0000
0010
0000
0100
1000
,  // measure 66
0000
1000
0001
0000
0010
0000
0001
0000
0010
0001
0000
0001
1000
0010
1000
0010
,  // measure 67
0100
0001
0100
0001
1000
0100
1000
0100
0001
0100
0001
0100
1000
0010
1000
0010
,  // measure 68
0001
0010
0001
0010
1000
0000
0001
0000
0000
0001
0000
0001
0010
0001
1000
0010
,  // measure 69
0100
0001
1000
0100
0220
0000
0000
0000
0000
0000
0000
0000
0000
0000
0000
0000
,  // measure 70
0000
0000
0000
0000
,  // measure 71
0330
0000
0000
0000
;

//---------------dance-double - ----------------
#NOTES:
     dance-double:
     :
     Easy:
     8:
     0.334746,0.411512,0.190438,0.215278,0.000000,283.000000,260.000000,23.000000,26.000000,0.000000,0.000000,0.334746,0.411512,0.190438,0.215278,0.000000,283.000000,260.000000,23.000000,26.000000,0.000000,0.000000:
00000000
00000000
00000000
00000000
,
00000000
00000000
00000000
00000000
,
00000000
00000000
00000000
00000000
,
00000000
00000000
00000000
00000000
,
00000000
00000000
00000000
00000000
,
00001000
00001000
00000010
00000010
,
00000001
00000001
00000100
00000100
,
00001000
00000000
00010000
00000000
00100000
00000000
10000000
00020000
,
00000000
00000000
00000000
00030000
02200000
00000000
00000000
00000000
,
00000000
03300000
00020000
00000000
,
00032000
00000000
00003200
00000000
,
00000000
00000000
00000302
00000000
,
00000013
00001001
00000010
00000010
,
00000100
00001000
00010000
00000000
00001000
00000000
00001000
00000000
,
00010000
01000000
10000000
00000000
00010000
01000000
00100000
00000000
,
10000000
01000000
00100000
00000000
00010000
00000000
00001000
00000000
,
00000100
00000010
00000010
00000001
,
00000100
00000010
00001000
00000000
00020000
00000000
00001000
00000000
,
00000010
00031000
00010000
00100000
,
10000000
00010000
01000000
00000000
00020000
00000000
00100000
00000000
,
10000000
00130000
10000000
01000000
,
00010000
00001000
00010000
00000000
00002000
00000000
00010000
00000000
,
01000000
00013000
00001000
00000010
,
00000001
00001000
00000100
00000000
00000010
00000000
00000100
00000000
,
00000110
00000000
00000001
00000100
,
00001000
00010000
00001000
00000000
00010000
00000000
00100000
00000000
,
10000000
01100000
10000000
01000000
,
00010000
00001000
00010000
00000000
00001000
00000000
00000010
00000000
,
00000001
00000100
00000110
00000010
,
00010010
00010000
00011000
00001000
,
00101000
00100000
01100000
00000000
,
10010000
00000000
01000000
00010000
,
01000000
00010000
00002000
00000010
,
00010000
00000010
00023000
00100000
,
00001000
00130000
10000000
01000000
,
00010000
00001000
00000100
00000001
,
00000100
00000010
00020000
00100000
,
00001000
00100000
00032000
00000010
,
00010000
00003010
00000001
00000100
,
00001000
00000000
00010000
00001000
00000000
00010000
00001000
00010000
,
00000010
00000000
00000010
00000000
00001000
00100000
10000000
01000000
,
00100000
00000000
00100000
00000000
01000000
00010000
00000100
00000010
,
00000001
00000000
00001000
00000000
00000001
00000100
00001000
00010000
,
00022000
00000000
00000000
00000000
,
00033000
00000000
00100000
00000000
10000000
00000000
00010000
01000000
,
00100000
10000000
01000000
00010000
,
00001000
00000000
00000010
00000000
00000010
00000000
00000001
00001000
,
00000100
00000001
00000100
00001000
,
00010000
00011000
00011000
00100000
,
01000000
00000000
01100000
00000000
01100000
00000000
10000000
00010000
,
00100000
10000000
11000000
00010000
,
00110000
00001000
00011000
00000010
,
00001000
00000000
00000010
00000000
00000010
00000000
00000100
00000010
,
00000100
00000010
00001000
00001100
,
00000000
00000000
00010000
00000000
00001000
00000000
00100000
01000000
,
10000000
00010000
01000000
01010000
,
00000000
00000000
00010000
00000000
01000000
00000000
00100000
10000000
,
01000000
00000000
00010000
00000000
00001000
00000000
00000010
00000001
,
00001000
00000000
00000010
00001000
00000100
00000000
00000010
00000001
,
00000100
00000001
00000100
00001000
,
00010000
00022000
00000000
00000000
,
00033000
00200000
00300000
00020000
,
00030000
20000000
00000000
00000000
,
30000000
00200000
00000000
01300000
,
10010000
00000000
00100000
00000000
00100000
00000000
10000000
01000000
,
00100000
00000000
00001000
00000000
00001000
00000000
00010000
00001000
,
00000010
00000000
00000001
00000100
00000010
00000000
00001000
00000100
,
00000010
00000000
00001000
00000000
00010000
00000000
00100000
10000000
,
00010000
00200000
00000000
02000000
,
03300000
20020000
00000000
00000000
,
00000000
00000000
00000000
00000000
,
30030000
00000000
00000000
00000000
;

//---------------dance-double - ----------------
#NOTES:
     dance-double:
     :
     Medium:
     12:
     0.488516,0.764237,0.124199,0.149039,0.169739,413.000000,398.000000,15.000000,18.000000,0.000000,0.000000,0.488516,0.764237,0.124199,0.149039,0.169739,413.000000,398.000000,15.000000,18.000000,0.000000,0.000000:
00000000
00000000
00000000
00000000
,
00000000
00000000
00000000
00000000
,
00000000
00000000
00000000
00000000
,
00000000
00000000
00000000
00000000
,
00000000
00000000
00000000
00000000
,
00010000
00010000
00100000
00100000
,
10000000
10000000
01000000
01000000
,
00100000
10000000
01000000
00010000
00001000
00000010
00000001
00002000
,
00000000
00000000
00000000
00003000
00020020
00000000
00000000
00000000
,
00000000
00030030
00200000
00000000
,
20300000
00000000
32000000
00000000
,
00000000
00000000
03020000
00000000
,
00031000
00000010
00000001
00000000
00000001
00000100
00000010
00000000
,
00000001
00000100
00001000
00000000
00010000
00100000
10000000
00000000
,
01000000
00100000
00010000
00000000
10000000
01000000
00010000
00001000
,
00000100
00000001
00001000
00000001
00000010
00001000
00010000
00100000
,
00010000
00000000
00001000
00000000
00010000
00000000
00000000
00000000
00000010
00000000
00000000
00000010
00000100
00000000
00001000
00000000
,
00000100
00000000
00000010
00000000
00001000
00000000
00000000
00000000
00010000
00000000
00000000
00001000
00010000
00000000
00001000
00000000
,
00010000
00000000
00100000
00000000
10000000
00000000
00000000
00000000
00010000
00000000
00000000
00010000
01000000
00000000
00100000
00000000
,
00100000
00000000
10000000
00000000
01000000
00000000
00000000
00000000
00100000
00000000
00000000
00100000
00001000
00000000
00010000
00000000
,
00001000
00000000
00000100
00000000
00000001
00000000
00000000
00000000
00001000
00000000
00000000
00001000
00000100
00000000
00000010
00000000
,
00000001
00000000
00000100
00000000
00001000
00000000
00000000
00000000
00010000
00000000
00000000
00010000
00001000
00000000
00100000
00000000
,
00010000
00000000
10000000
00000000
01000000
00000000
00000000
00000000
00100000
00000000
00000000
00100000
00010000
00000000
10000000
00000000
,
00100000
00000000
00010000
00000000
00001000
00000000
00000000
00000000
00010000
00000000
00000000
00001000
00000000
00000000
00000010
00000000
,
00000000
00000001
00000000
00000000
00000100
00000000
00000000
00000000
00000001
00000000
00000010
00000000
00000001
00000000
00000010
00000000
,
00001000
00000010
00001000
00000010
00001000
00010000
00001000
00010000
,
01000000
00010000
01000000
00010000
01000000
10000000
01000000
10000000
,
00100000
10000000
00100000
10000000
00100000
00010000
00100000
00010000
,
00001000
00000000
00010000
00000000
00001000
00000000
00010000
00000000
00000010
00000000
00000000
00000010
00000000
00000000
00000010
00000000
,
00000000
00000000
00000000
00000000
00001000
00000000
00000100
00000000
00000001
00000000
00000000
00000001
00000000
00000000
00000001
00000000
,
00000000
00000000
00000000
00000000
00000000
00000000
00000010
00000000
00000001
00000000
00000000
00000100
00000000
00000000
00000100
00000000
,
00001000
00000000
00000000
00010000
00000000
00000000
00010000
00000000
00100000
00000000
00000000
10000000
00000000
00000000
01000000
00000000
,
00000000
00100000
00000000
00000000
01100000
00000000
00000000
00000000
10000000
00000000
00100000
00000000
00010000
00000000
00001000
00000000
,
00100000
00010000
00001000
00000100
00000010
00000001
00001000
00000100
,
00000010
00000001
00000100
00001000
00010000
00001000
00000100
00000001
,
00001000
00000100
00000010
00000001
00000100
00001000
00010000
00000000
,
00110000
00000000
11000000
00000000
10000000
00100000
00010000
00001000
,
01000000
10000000
01000000
00010000
00100000
01000000
10000000
01010000
,
00100000
01000000
00010000
00001000
00000010
00000001
00000010
00000100
,
00001000
00000001
00000100
00000010
00000000
00001000
00010000
01000000
,
00100000
00000000
01000000
00000000
00100000
10000000
01000000
00000000
00010000
00001000
00000010
00000000
00000001
00000100
00000010
00000000
,
00001000
00000000
00000010
00000000
00000100
00010000
00000010
00000000
00000100
00001000
00010000
00000000
00100000
10000000
00010000
00000000
,
10000000
01000000
00010000
00001000
00000100
00000001
00000010
00000000
00000001
00000000
00001000
00000000
00000010
00010000
00001000
00010000
,
00022000
00000000
00000000
00000000
,
00033000
00000000
00000000
00000000
00000100
00000000
00000010
00000100
00000000
00000000
00000010
00000000
00001000
00000000
00000100
00000000
,
00000010
00000000
00000001
00000000
00000100
00000000
00000000
00001000
00000000
00000000
00010000
00000000
00100000
00000000
00000000
00000000
,
10010000
00000000
00000000
00000000
00100000
00000000
01000000
00100000
00000000
00000000
10000000
00000000
01000000
00000000
00100000
00000000
,
00010000
00000000
00001000
00000000
00000100
00000000
00000000
00000010
00000000
00000000
00000100
00000000
00000010
00000000
00000000
00000001
,
00000000
00000100
00000000
00000010
00001000
00010000
00001000
00000010
,
00010000
00001000
00000000
00100000
00010000
00001000
00010000
00100000
,
00010000
00000000
10000000
00000000
00100000
00000000
00000000
00100000
10000000
00000000
01000000
00000000
00100000
00000000
00000000
00100000
,
00010000
00000000
01000000
00000000
00001000
00000000
00000000
00001000
00000100
00000000
00000010
00000000
00000100
00000000
00000000
00000000
,
00000101
00000000
00000000
00000000
00001000
00000000
00000001
00001000
00000000
00000000
00001000
00000000
00000100
00000000
00000010
00000000
,
00000001
00000000
00000100
00000000
00000000
00000000
00001000
00000000
00010000
00001000
00000000
00010000
00000000
00000000
01000000
00000000
,
10000000
00000000
00010000
00000000
01000000
00000000
00010000
01000000
00000000
00000000
00100000
00000000
01000000
00000000
00100000
00000000
,
10000000
00000000
01000000
00000000
00000000
00000000
00010000
00000000
00001000
00000010
00000000
00000001
00000000
00000001
00001000
00000000
,
00000001
00001000
00000000
00000001
00000100
00000010
00000100
00000001
,
00000010
00001000
00000000
00010000
00001000
00010000
01000000
10000000
,
00100000
01000000
00100000
10000000
01000000
00000000
00100000
00010000
,
01000000
00000000
00001000
00000100
00000001
00000010
00000100
00000000
,
00000010
00002002
00000000
00000000
,
00003003
00000020
00000000
00002030
,
00000000
00023000
00000000
00000000
,
00000000
02030000
00000000
13000000
,
10010000
00000000
00100000
00010000
01000000
00000000
01001000
00000000
,
00011000
00000000
00000010
00001000
00000100
00000000
00001100
00000000
,
00011000
00000000
00100000
00010000
01000000
00100000
10000000
01000000
,
00100000
01000000
00010000
00001000
00000010
00000001
00001000
00000100
,
00000010
00000001
00002000
00000000
00000000
00000000
00000010
00000000
,
00013000
00022000
00000000
00000000
,
00000000
00000000
00000000
00000000
,
00033000
00000000
00000000
00000000
;

//---------------dance-double - ----------------
#NOTES:
     dance-double:
     :
     Hard:
     15:
     0.697880,1.087569,0.115919,0.140759,0.832133,590.000000,576.000000,14.000000,17.000000,0.000000,0.000000,0.697880,1.087569,0.115919,0.140759,0.832133,590.000000,576.000000,14.000000,17.000000,0.000000,0.000000:
00000000
00000000
00000000
00000000
,
00000000
00000000
00000000
00000000
,
00000000
00000000
00000000
00000000
,
00000000
00000000
00000000
00000000
,
00000000
00000000
00000000
00000000
,
00000001
00000001
00000010
00000010
,
00000100
00000100
00001000
00001000
,
00000010
00000001
00000100
00001000
00010000
01000000
10000000
20020000
,
00000000
00000000
00000000
00000000
00000000
00000000
30030000
00000000
00100000
00000000
00000000
10000000
00000000
01000000
00100000
00000000
,
00010000
00001000
00000100
00000010
00000002
00000000
00000010
00000000
,
00002003
00000010
00003200
00000001
,
00000010
00000000
00001000
00000000
00020300
00000000
00031000
00100000
,
00010000
01000000
00100000
10000000
00010000
00000000
10000000
00100000
10000000
00000000
10000000
00000000
01000000
00000000
01000000
00000000
,
00010000
00010000
00000100
00000100
00000010
00000010
00000001
00000001
,
00000100
00000100
00000010
00000010
00001000
00010000
01000000
00100000
,
10000000
00100000
10000000
00000000
00010000
01000000
00010000
00000000
00100000
00001000
00100000
00001000
00010000
00000010
00010000
00000010
,
00001000
00000100
00000010
00000001
00000100
00000010
00010000
00001000
00010000
00000000
00000000
00001000
00010000
00000000
00000100
00000000
,
00001000
00000001
00000000
00000001
00000100
00000000
00000100
00000000
00000010
00000000
00000000
00000100
00000001
00000000
00000010
00000000
,
00000100
00010000
00000000
00010000
00001000
00000000
00001000
00000000
00010000
00000000
00000000
00100000
10000000
00000000
00100000
00000000
,
01000000
00010000
00000000
00010000
10000000
00000000
10000000
00000000
01000000
00000000
00000000
00010000
00001000
00000000
00010000
00000000
,
00000010
00001000
00000000
00001000
00000001
00000000
00000001
00000000
00000010
00000000
00000000
00000100
00001000
00000000
00000100
00000000
,
00000010
00000100
00000000
00000100
00001000
00000000
00001000
00000000
00000010
00000000
00000000
00001000
00010000
00000000
01000000
00000000
,
00100000
01000000
00000000
01000000
00010000
00000000
00010000
00000000
00100000
00000000
00000000
01000000
10000000
00000000
00100000
00000000
,
01000000
00010000
00000000
00010000
10000000
00000000
10000000
00000000
00100000
00000000
00000000
00010000
00000000
00000000
00001000
00000000
,
00000000
00000100
00000000
00000000
00000001
00001000
00000001
00001000
00000001
00000000
00000010
00000001
00000000
00000010
00000001
00000010
,
00000100
00000000
00000010
00000100
00000000
00000010
00000100
00001000
00000100
00000000
00001000
00000100
00000000
00001000
00000100
00010000
,
00001000
00000000
00010000
00001000
00000000
00010000
00001000
00100000
00010000
00000000
00100000
00010000
00000000
00100000
00010000
00100000
,
01000000
00000000
00100000
01000000
00000000
00100000
01000000
10000000
00100000
00000000
10000000
00100000
00000000
10000000
00100000
01000000
,
00010000
00000000
01000000
00010000
00000000
01000000
00010000
01000000
00001000
00000000
00000000
00010000
00000000
00000000
00001100
00000000
,
00000000
00000000
00000000
00000000
00001000
00000001
00000010
00000001
00001000
00000000
00000000
00000001
00000000
00000000
00000011
00000000
,
00000000
00000000
00000000
00000000
00000000
00000000
00000001
00000000
00000100
00000000
00000000
00001000
00000000
00000000
00010000
00000000
,
00000100
00000000
00000000
00001000
00000000
00000000
00010000
00000000
00100000
00000000
00000000
01100000
00000000
00000000
00010000
00000000
,
00000000
10010000
00000000
00000000
01100000
00000000
00000000
00000000
00010000
00000000
10000000
00010000
10000000
00000000
01000000
00000000
,
00100000
00000000
00001000
00010000
00001000
00000000
00000100
00000000
00000010
00000000
00001000
00000001
00001000
00000000
00000100
00000000
,
00000010
00000000
00001000
00010000
00001000
00000000
00100000
00000000
00010000
00000000
00100000
01000000
00100000
00000000
01000000
10000000
,
01000000
00000000
00010000
00000000
00001000
00000000
00000100
00000000
00000001
00000000
00001000
00000100
00001000
00000000
00000100
00000010
,
00000100
00000000
00000010
00000000
00001000
00000000
00010000
00000000
00100000
10000000
00100000
10000000
00100000
00000000
01000000
00000000
,
00001000
00010000
00001000
00010000
00001000
00000000
00000100
00000000
00000001
00001000
00000001
00001000
00000010
00000000
00000100
00000000
,
00001000
00010000
00001000
00010000
00100000
00000000
10000000
00000000
01000000
00100000
00010000
00000000
01000000
00100000
10000000
00000000
,
01000000
00100000
00010000
00100000
00001000
00010000
00001000
00000000
00010000
00001000
00000100
00000001
00001000
00000100
00000010
00000001
,
00001000
00000000
00000100
00000000
00000010
00000001
00000100
00000001
00001000
00000010
00010000
00100000
10000000
01000000
00100000
00010000
,
10000000
01000000
10000000
01000000
00100000
00010000
00100000
00010000
01000000
00000000
00001000
00000000
00010000
00000000
00000000
00000000
00100000
00000000
00000000
00000000
00010000
00000000
00000000
00000000
00001000
00000100
00001000
00000100
00000010
00000000
00000000
00000000
,
00000001
00000000
00000010
00000000
00001000
00000000
00010000
00000000
01000000
00000000
10000000
00000000
00100000
00000000
00000000
00000000
10000000
00000000
00010000
01000000
00100000
10000000
00010000
00000000
00100000
00000000
00001000
00000000
00010000
00000000
00001000
00000000
,
00022000
00000000
00000000
00000000
,
00033000
00000000
00000000
00000000
00000100
00000000
00000001
00001000
00000000
00000000
00000001
00000000
00000010
00000100
00000010
00000100
,
00001000
00000100
00001000
00000100
00010000
00000000
00001000
01000000
00000000
00010000
10000000
00000000
10100000
00000000
00000000
00000000
,
00110000
00000000
00000000
00000000
10000000
00000000
00010000
10000000
00000000
00000000
01000000
00000000
00100000
00010000
00100000
00001000
,
00010000
00001000
00010000
00001000
01000000
00000000
00100000
10000000
00000000
10000000
01000000
00000000
00010000
00000000
00001000
00000010
,
00000000
00000010
00000001
00000000
00001000
00000000
00000010
00000100
00000001
00000000
00000001
00000000
00000001
00000010
00000100
00001000
,
00000000
00000100
00000000
00010000
00000000
00000000
00001000
00100000
00010000
00000000
10000000
00000000
00010000
01000000
00100000
10000000
,
00000000
00010000
00000000
10000000
00010000
00000000
00100000
01000000
00100000
00000000
00010000
00000000
00001000
00000000
00000100
00000010
,
00000100
00000000
00000010
00000000
00000001
00000000
00000100
00000010
00000100
00000000
00001000
00000000
00011000
00000000
00000000
00000000
,
00110000
00000000
00000000
00000000
01000000
00000000
00100000
01000000
00000000
00000000
10000000
00000000
00010000
10000000
01000000
00010000
,
00001000
00000010
00000001
00001000
00000000
00000000
00001001
00000000
00000100
00010000
00000000
00000010
00000000
00000000
00000100
00000000
,
00000001
00000000
00000001
00000000
00000010
00000000
00000100
00000010
00000000
00000000
00000100
00000000
00001000
00000001
00000100
00001000
,
00010000
00100000
10000000
00010000
00000000
00000000
10010000
00000000
00100000
00001000
00000000
01000000
00000000
01000000
00100000
00000000
,
10000000
00000000
00010000
00000000
00000000
00000000
10000000
00100000
01000000
00000000
01000000
00000000
00010000
00100000
01000000
00100000
,
00000000
00001000
00000000
00010000
00000000
00000000
00000100
00001000
00000001
00000000
00000001
00000000
00001000
00000100
00000010
00000001
,
00000000
00000001
00000000
00002000
00000000
00000000
00000000
00000000
00000000
00000000
00003010
00000000
00000100
00000000
00000001
00000010
,
00000000
00000010
00001000
00000000
00010000
00000000
01000000
10000000
00000000
10000000
00100000
00000000
01000000
00000000
00000000
00000000
,
00010000
00022000
00000000
00000000
,
00030000
00003020
00000000
00000032
,
00000000
00002003
00000000
00000000
,
00000000
00023000
00000000
02030000
,
03100000
00000000
00000000
00000000
01000000
00000000
00010000
00000000
00100000
01000000
00100000
00000000
00001000
00000000
00010000
00000100
,
00000000
00001000
00000001
00000000
00000100
00000000
00000001
00000000
00001000
00000010
00001000
00000000
00000001
00000000
00000010
00000100
,
00000000
00010000
00001000
00000000
01000000
00000000
00010000
00000000
10000000
00100000
01000000
00000000
00010000
01000000
00010000
01000000
,
00010000
00000000
00100000
00000000
00001000
00010000
00001000
00010000
00000010
00001000
00000010
00001000
00000001
00000010
00000100
00001000
,
00000001
00000000
00001000
00000000
00000010
00000000
00010000
00000000
00000000
00100000
00000000
10000000
00010000
01000000
00100000
10000000
,
01000000
00010000
00001000
00000010
00000002
00000000
00000000
00000000
00000000
00000000
00000000
00000000
00000000
00000000
00000000
00000000
,
00000000
00000000
00000000
00000000
,
00000003
00000000
00000000
00000000
;

//---------------dance-single - ----------------
#NOTES:
     dance-single:
     :
     Challenge:
     16:
     0.917889,1.234537,0.413996,0.206998,1.217149,776.000000,726.000000,50.000000,25.000000,0.000000,0.000000,0.917889,1.234537,0.413996,0.206998,1.217149,776.000000,726.000000,50.000000,25.000000,0.000000,0.000000:
// measure 0
0000
0000
0000
0000
,  // measure 1
0000
0000
0000
0000
,  // measure 2
0000
0000
0000
0000
,  // measure 3
0000
0000
0000
0000
,  // measure 4
0000
0000
0000
0000
,  // measure 5
0010
0001
0010
0001
1000
0100
1000
0100
0001
0100
0001
0100
1000
0010
1000
0010
,  // measure 6
0001
0010
0001
0010
1000
0001
1000
0001
0010
0100
0010
0100
1000
0100
1000
0100
,  // measure 7
0010
0001
0010
0001
0100
0010
0100
0010
1000
0001
1000
0001
0100
0010
0100
0010
,  // measure 8
0200
0000
0000
0000
0020
0000
0000
0000
0330
0000
0000
1000
0000
0001
0010
0000
,  // measure 9
0100
0010
0001
0100
0110
0010
0100
0001
,  // measure 10
1001
1000
0001
0010
0110
0100
1000
0001
,  // measure 11
0010
0001
0000
0100
0001
0000
1000
0000
0010
0000
1000
0000
0100
0000
0010
0001
,  // measure 12
1000
0100
0010
0001
0100
0000
1000
0001
0100
0000
0100
0000
0010
0000
0010
0000
,  // measure 13
1000
0000
1000
0001
0100
0000
0100
0000
0010
0000
0010
0000
0001
0000
0001
0000
,  // measure 14
0100
0000
0100
1000
0001
0000
0001
0000
0010
0000
1000
0000
0010
0000
0100
0000
,  // measure 15
0001
0010
0100
0010
1000
0010
0001
0010
0100
1000
0001
0100
1000
0100
0001
0010
,  // measure 16
1000
0010
0001
0100
0010
1000
0010
0100
0001
0000
0010
0001
0000
0001
0100
0000
,  // measure 17
1000
0100
0000
0010
0001
0010
0100
0001
1000
0000
0001
0100
0000
0100
0010
0000
,  // measure 18
1000
0010
0000
0000
0011
0000
0110
0000
1010
0000
1000
0010
0000
0010
0001
0000
,  // measure 19
0010
0100
0000
0100
0001
0010
1000
0010
1000
0000
0010
0001
0000
0001
0100
0000
,  // measure 20
0100
0010
1000
0100
0010
0000
0101
0000
0010
0000
1000
0100
0000
0100
0010
0000
,  // measure 21
0001
0010
0000
0100
1000
0010
1000
0001
1000
0000
0001
0100
0000
0100
0010
0000
,  // measure 22
1000
0100
0010
0000
0011
0000
0110
0000
1000
0000
0100
0010
0000
0010
0100
0000
,  // measure 23
0001
0010
0001
1000
0001
0100
0001
0010
1000
0000
0000
1010
0000
0000
0100
0010
,  // measure 24
0100
1000
0100
0010
0001
1000
0001
0010
0100
0000
1000
0010
0000
0001
0010
1000
,  // measure 25
0100
0000
0001
0100
1000
0010
0100
0010
0100
0000
0001
1000
0000
0001
0100
0010
,  // measure 26
1000
0001
0000
0100
0000
0010
1000
0100
0010
0000
0001
1000
0000
0100
0010
0100
,  // measure 27
1000
0000
0010
0001
0000
0010
1000
0100
0010
0000
0100
1000
0000
0010
0100
0001
,  // measure 28
1000
0001
0010
0100
0000
1000
0010
0001
0010
0000
0000
1010
0000
0000
0110
0000
,  // measure 29
0000
0010
0001
0100
0010
0001
0100
0010
1000
0000
0000
1100
0000
0000
1100
0000
,  // measure 30
1000
0100
1000
0010
0100
0000
1000
0000
0011
0000
0000
0101
0000
0000
0101
0000
,  // measure 31
1010
0000
0000
1100
0000
0000
1100
0000
0011
0000
0000
0101
0000
0000
1100
0000
,  // measure 32
0000
1010
0000
0000
0220
0000
0330
0000
1000
0000
0100
0000
0010
0001
0010
0001
,  // measure 33
1000
0000
0100
0000
0010
0001
0010
0001
1000
0000
0010
0000
0100
0001
0100
0001
,  // measure 34
1000
0000
0010
0000
0100
0001
0100
0001
1000
0000
0100
0010
0100
0000
0100
0001
,  // measure 35
0100
1000
0100
0000
1000
0000
0010
0000
0001
0000
1000
0000
0001
0100
0001
0000
,  // measure 36
1100
0000
0000
0000
0101
0000
0000
0000
0001
0000
0100
0000
0010
1000
0010
1000
,  // measure 37
0001
0000
0100
0000
0010
1000
0010
1000
0100
0000
0010
0000
0001
1000
0001
1000
,  // measure 38
0100
0000
0010
0000
0001
1000
0001
1000
0010
0000
0100
0001
0100
0001
0100
0010
,  // measure 39
1000
0010
0100
0001
1000
0010
1000
0010
0100
0001
0100
0001
1000
0001
0010
0100
,  // measure 40
1000
0000
1100
0000
0100
0000
0010
0000
0001
0000
1000
0001
0100
0000
0002
0000
0013
0000
0100
0000
1000
0000
0001
0000
1000
0000
0010
1000
0001
1000
0020
0000
,  // measure 41
0130
1000
0100
1000
0001
0100
0001
0100
0010
0000
0100
0000
0020
0000
0030
0000
1020
0000
0000
0000
0230
0000
0000
0000
1300
0100
0010
0001
2000
0000
3000
0000
,  // measure 42
0021
0000
0000
0000
0100
0000
0130
0000
0010
0000
0001
1000
0001
0000
0020
0000
0130
0000
1000
0001
0100
0010
1000
0001
0100
0000
0100
0000
0010
0000
0010
0000
,  // measure 43
2002
0000
3003
0000
0110
0000
0110
0000
1000
0100
0010
0001
2002
0000
0000
0000
,  // measure 44
3003
0000
0000
0000
0101
0000
0100
0001
0000
0000
1000
0000
0010
0100
0010
0001
,  // measure 45
0100
0010
1000
0100
0010
0000
0001
0010
0000
0100
1000
0010
0100
0010
0001
0000
,  // measure 46
0011
0000
0000
0000
0100
0000
1000
0100
0000
0000
0010
0000
0001
1000
0100
1000
,  // measure 47
0001
0010
0001
0100
0010
0000
1000
0100
0000
0100
0010
0000
0001
0000
0100
1000
,  // measure 48
0000
0100
0001
0000
0010
0000
0100
0010
0001
0000
1100
0000
1000
0100
0010
0001
,  // measure 49
0000
0100
0001
0100
0000
0000
0010
1000
0010
0000
0110
0000
0001
0010
0100
1000
,  // measure 50
0000
1001
0000
0001
2000
0000
3100
0010
0001
0010
0100
0000
1001
0000
1000
0100
,  // measure 51
0001
0100
1000
0000
1010
0000
0010
0100
0001
0010
0001
1000
0001
0010
0100
0000
,  // measure 52
2200
0000
3300
0000
0010
0000
0100
0001
0010
0001
1000
0000
0100
0010
0100
1000
,  // measure 53
0010
0100
0010
0001
0000
0000
1001
0000
0100
0010
0100
1000
0000
1000
0001
0000
,  // measure 54
0100
0000
1010
0000
1000
0000
0100
1000
0000
0000
0001
0000
0010
0100
1000
0100
,  // measure 55
0010
0001
0100
0001
0000
0000
1001
0000
0100
0001
0010
0001
0000
0001
1000
0100
,  // measure 56
0010
0000
0110
0000
1000
0000
1000
0100
1000
0000
1001
0000
0001
0100
0010
1000
,  // measure 57
0000
0100
0010
0001
0000
0000
0010
0100
1000
0000
0110
0000
1000
0001
0010
0100
,  // measure 58
0000
0100
0000
0100
1000
0000
0100
0000
0010
0001
0010
0000
0001
0000
0100
0000
,  // measure 59
0010
1000
0001
0000
0010
0001
0010
0001
0100
0001
0100
0001
0100
0010
1000
0100
,  // measure 60
0010
0001
0100
0000
0220
0000
0000
0000
0000
0000
0000
0000
0000
0000
0000
0000
,  // measure 61
0330
0000
0000
0000
1000
0001
0100
0000
0001
1000
0100
0000
0002
0000
0100
0000
,  // measure 62
0100
0100
2003
0000
0010
0000
0010
0000
,  // measure 63
0010
0000
0000
0000
3100
0000
0000
0000
0100
0000
0010
0100
0010
0001
1000
0100
,  // measure 64
0010
0000
0001
0010
0001
0000
0001
0000
0100
0001
0100
0000
0010
0000
0100
0001
,  // measure 65
0000
0001
1000
0000
0010
0000
1000
0000
0100
1000
0100
0000
0010
0000
0100
1000
,  // measure 66
0000
1000
0001
0000
0010
0000
0001
0000
0010
0001
0010
0001
1000
0010
1000
0010
,  // measure 67
0100
0001
0100
0001
1000
0100
1000
0100
0001
0100
0001
0100
1000
0010
1000
0010
,  // measure 68
0001
0010
0001
0010
1000
0000
0001
0000
0000
0001
0000
0001
0010
1000
0010
0001
,  // measure 69
0100
1000
0100
0010
0220
0000
0000
0000
0000
0000
0000
0000
0000
0000
0000
0000
,  // measure 70
0000
0000
0000
0000
,  // measure 71
0330
0000
0000
0000
;
