#TITLE:Star Gate Heaven;
#SUBTITLE:;
#ARTIST:SySF. feat. Donna Burke;
#TITLETRANSLIT:;
#SUBTITLETRANSLIT:;
#ARTISTTRANSLIT:;
#GENRE:;
#CREDIT:;
#BANNER:Star Gate Heaven.png;
#BACKGROUND:Star Gate Heaven-bg.png;
#LYRICSPATH:;
#CDTITLE:;
#MUSIC:Star Gate Heaven.ogg;
#OFFSET:0.000000;
#SAMPLESTART:61.259998;
#SAMPLELENGTH:15.000000;
#SELECTABLE:YES;
#DISPLAYBPM:145.000000;
#BPMS:0.000000=145.160995
,4.000000=145.001999
;
#STOPS:
;
#BGCHANGES:;
#KEYSOUNDS:;
#ATTACKS:;

//---------------dance-single - ----------------
#NOTES:
     dance-single:
     :
     Beginner:
     3:
     0.147338,0.165644,0.020836,0.000000,0.000000,99.000000,97.000000,2.000000,0.000000,0.000000,0.000000,0.147338,0.165644,0.020836,0.000000,0.000000,99.000000,97.000000,2.000000,0.000000,0.000000,0.000000:
// measure 0
0000
0000
0000
0000
,  // measure 1
0000
0000
0000
0000
,  // measure 2
0000
0000
0000
0000
,  // measure 3
0000
0000
0000
0000
,  // measure 4
0000
0000
0000
0000
,  // measure 5
1000
0000
0100
0000
,  // measure 6
0001
0000
0010
0000
,  // measure 7
0001
0000
1000
0000
,  // measure 8
0100
0000
0001
0000
,  // measure 9
1000
0000
0010
0000
,  // measure 10
0100
0000
0001
0000
,  // measure 11
1000
0000
0001
0000
,  // measure 12
0100
0000
0010
0000
,  // measure 13
0100
0000
0001
0000
,  // measure 14
0010
0000
1000
0000
,  // measure 15
0010
0000
0001
0000
,  // measure 16
1000
0000
0100
0000
,  // measure 17
0001
0000
0100
0000
,  // measure 18
1000
0000
0010
0000
,  // measure 19
0100
0000
1000
0000
,  // measure 20
0001
0000
1001
0000
,  // measure 21
0010
0000
1000
0000
,  // measure 22
0100
0100
0000
0000
,  // measure 23
1000
0000
0001
0000
,  // measure 24
0100
0100
0000
0000
,  // measure 25
1000
0000
0010
0000
,  // measure 26
0010
0010
0000
0000
,  // measure 27
1000
0000
0001
0000
,  // measure 28
0100
0100
0000
0000
,  // measure 29
0100
0100
0000
0000
,  // measure 30
0010
0000
1000
0000
,  // measure 31
0010
0010
0000
0000
,  // measure 32
1000
0000
0001
0000
,  // measure 33
1000
1000
0000
0000
,  // measure 34
0001
0000
0010
0000
,  // measure 35
0001
0001
0000
0000
,  // measure 36
1000
0000
0001
0000
,  // measure 37
0100
0000
0100
0000
,  // measure 38
1000
0000
0001
0000
,  // measure 39
0010
0000
0010
0000
,  // measure 40
0001
0000
1000
0000
,  // measure 41
0001
0000
0001
0000
,  // measure 42
0100
0000
0001
0000
,  // measure 43
1000
0000
1000
0000
,  // measure 44
0100
0000
0001
0000
,  // measure 45
0100
0000
0100
0000
,  // measure 46
0001
0001
0000
0000
,  // measure 47
0010
0000
0010
0000
,  // measure 48
0100
0100
0000
0000
,  // measure 49
1000
0000
1000
0000
,  // measure 50
0001
0001
0000
0000
,  // measure 51
0001
0000
0001
0000
,  // measure 52
1000
1000
0000
0000
,  // measure 53
1001
0000
0000
0000
;

//---------------dance-single - ----------------
#NOTES:
     dance-single:
     :
     Easy:
     3:
     0.177104,0.223984,0.020836,0.020836,0.000000,119.000000,117.000000,2.000000,2.000000,0.000000,0.000000,0.177104,0.223984,0.020836,0.020836,0.000000,119.000000,117.000000,2.000000,2.000000,0.000000,0.000000:
// measure 0
0000
0000
0000
0000
,  // measure 1
0000
0000
0000
0000
,  // measure 2
0000
0000
0000
0000
,  // measure 3
0000
0000
0000
0000
,  // measure 4
0000
0000
0000
0000
,  // measure 5
1000
0000
0100
0000
,  // measure 6
0001
0000
0010
0000
,  // measure 7
0001
0000
1000
0000
,  // measure 8
0100
0000
0001
0000
,  // measure 9
1000
0000
0010
0000
,  // measure 10
0100
0000
0001
0000
,  // measure 11
1000
0000
0001
0000
,  // measure 12
0100
0000
0010
0000
,  // measure 13
0100
0000
0001
0000
,  // measure 14
0010
0000
1000
0000
,  // measure 15
0010
0000
0001
0000
,  // measure 16
1000
0000
0100
0000
,  // measure 17
0001
0000
0100
0000
,  // measure 18
1000
0000
0010
0000
,  // measure 19
0100
0000
1000
0000
,  // measure 20
0001
0000
1001
0000
,  // measure 21
0010
0000
1000
0000
,  // measure 22
0100
0100
0001
0000
,  // measure 23
1000
0000
0001
0000
,  // measure 24
0100
0100
0010
0000
,  // measure 25
1000
0000
0010
0000
,  // measure 26
0010
0010
0001
0000
,  // measure 27
1000
0000
0001
0000
,  // measure 28
0100
0100
1000
0000
,  // measure 29
0100
0100
0001
0000
,  // measure 30
0010
0000
1000
0000
,  // measure 31
0010
0010
0100
0000
,  // measure 32
1000
0000
0001
0000
,  // measure 33
1000
1000
0010
0000
,  // measure 34
0001
0000
0010
0000
,  // measure 35
0001
0001
0100
0000
,  // measure 36
1000
0000
0001
0000
,  // measure 37
0100
0010
0100
0000
,  // measure 38
1000
0000
0001
0000
,  // measure 39
0010
0001
0010
0000
,  // measure 40
0001
0000
1000
0000
,  // measure 41
0001
1000
0001
0000
,  // measure 42
0100
0000
0001
0000
,  // measure 43
1000
0010
1000
0000
,  // measure 44
0100
0000
0001
0000
,  // measure 45
0100
0010
0100
0000
,  // measure 46
0001
0001
0100
0000
,  // measure 47
0010
1000
0010
0000
,  // measure 48
0100
0100
0001
0000
,  // measure 49
1000
0001
1000
0000
,  // measure 50
0001
0001
0010
0000
,  // measure 51
0001
0100
0001
0000
,  // measure 52
1000
1000
0001
0000
,  // measure 53
2002
0000
0000
3003
;

//---------------dance-single - ----------------
#NOTES:
     dance-single:
     :
     Medium:
     7:
     0.345278,0.391972,0.145850,0.020836,0.000000,232.000000,218.000000,14.000000,2.000000,0.000000,0.000000,0.345278,0.391972,0.145850,0.020836,0.000000,232.000000,218.000000,14.000000,2.000000,0.000000,0.000000:
// measure 0
0000
0000
0000
0000
,  // measure 1
0000
0000
0000
0000
,  // measure 2
0000
0000
0000
0000
,  // measure 3
0000
0000
0000
0000
,  // measure 4
0000
0000
0000
0000
,  // measure 5
1000
0000
0001
0000
0010
1000
0100
0000
,  // measure 6
0001
0000
0100
0000
0001
1000
0010
0000
,  // measure 7
0100
0000
0001
0000
0100
0010
0100
0000
,  // measure 8
1000
0000
0010
0000
0001
0010
0100
0000
,  // measure 9
1000
0000
0001
0000
0010
1000
0100
0000
,  // measure 10
0010
0000
0001
0000
1000
0100
0001
0000
,  // measure 11
1000
0000
0010
0000
0001
0010
0100
0000
,  // measure 12
1000
0000
0010
0000
0001
1000
0100
0000
,  // measure 13
0010
0000
0100
0000
0010
0001
1000
0000
,  // measure 14
0100
0000
0010
0000
0100
1000
0001
0000
,  // measure 15
0100
0000
0010
0000
1000
0100
0010
0000
,  // measure 16
1000
0000
0010
0000
0001
0010
1000
0000
,  // measure 17
0001
0000
0100
0000
0010
0100
0001
0000
,  // measure 18
1000
0000
0100
0000
0010
0100
1000
0000
,  // measure 19
0010
0000
0100
0000
0001
1000
0010
0000
,  // measure 20
0100
1000
0010
1001
,  // measure 21
0100
0000
0001
0000
1000
0010
0100
0000
,  // measure 22
0010
0000
1000
0000
0001
0100
0010
0000
,  // measure 23
1000
0010
0001
0100
,  // measure 24
0010
0000
0100
0000
0010
1000
0100
0000
,  // measure 25
1000
0000
0010
0000
0100
0001
1000
0000
,  // measure 26
0100
0000
0001
0000
0100
1000
0010
0000
,  // measure 27
1000
0010
0001
0100
,  // measure 28
0010
0000
1000
0000
0010
0100
0001
0000
,  // measure 29
1000
0000
0010
0000
0001
0001
0001
0000
,  // measure 30
0100
0000
0001
0000
1000
1000
1000
0000
,  // measure 31
0100
0101
1000
0011
,  // measure 32
1000
0110
0001
1010
,  // measure 33
0100
0000
1000
0000
0100
0100
0100
0000
,  // measure 34
0001
0000
0010
0000
0100
0100
0100
0000
,  // measure 35
0001
1100
0010
0101
,  // measure 36
1000
0110
0001
1100
,  // measure 37
0010
0001
0100
0000
0010
0000
0000
0000
,  // measure 38
1000
0100
0001
1000
,  // measure 39
0100
1000
0001
0000
0100
0000
0000
0000
,  // measure 40
0001
0010
1000
0010
,  // measure 41
0001
0100
1000
0000
0010
0000
0000
0000
,  // measure 42
0010
1000
0001
0100
,  // measure 43
0001
0010
0100
0000
1000
0000
0000
0000
,  // measure 44
0010
0100
0001
1000
,  // measure 45
0010
0001
0100
0000
1010
0000
0000
0000
,  // measure 46
0001
0100
0010
1000
,  // measure 47
0100
0001
0010
0000
1001
0000
0000
0000
,  // measure 48
0100
1000
0001
0010
,  // measure 49
1000
0100
1000
0000
0101
0000
0000
0000
,  // measure 50
0010
0001
0100
0010
,  // measure 51
1000
0001
0010
0000
0110
0000
0000
0000
,  // measure 52
1000
0010
0001
0100
,  // measure 53
2002
0000
0000
3003
;

//---------------dance-single - ----------------
#NOTES:
     dance-single:
     :
     Hard:
     10:
     0.419691,0.391972,0.010418,0.062507,0.312536,282.000000,281.000000,1.000000,6.000000,0.000000,0.000000,0.419691,0.391972,0.010418,0.062507,0.312536,282.000000,281.000000,1.000000,6.000000,0.000000,0.000000:
// measure 0
0000
0000
0000
0000
,  // measure 1
0000
0000
0000
0000
,  // measure 2
0000
0000
0000
0000
,  // measure 3
0000
0000
0000
0000
,  // measure 4
0000
0000
0000
0000
,  // measure 5
0010
0000
0000
1000
0000
0000
0100
0000
0010
0000
0000
0001
0000
0000
0100
0000
,  // measure 6
1000
0000
0000
0100
0000
0000
0001
0000
1000
0000
0000
0001
0000
0000
0010
0000
,  // measure 7
0100
0000
0000
1000
0000
0000
0001
0000
0100
0000
0000
0010
0000
0000
0100
0000
,  // measure 8
0001
0000
0000
0010
0000
0000
0001
0000
1000
0000
0000
0010
0000
0000
0100
0000
,  // measure 9
0001
0000
0000
0010
0000
0000
1000
0000
0010
0000
0000
0001
0000
0000
0100
0000
,  // measure 10
0010
0000
0000
1000
0000
0000
0100
0000
0001
0000
0000
0100
0000
0000
1000
0000
,  // measure 11
0001
0000
0000
0010
0000
0000
0100
0000
1000
0000
0000
0010
0000
0000
0100
0000
,  // measure 12
0001
0000
0000
1000
0000
0000
0100
0000
1000
0000
0000
0001
0000
0000
0100
0000
,  // measure 13
0010
0000
0000
0100
0000
0000
0001
0000
0010
0000
0000
1000
0000
0000
0001
0000
,  // measure 14
0100
0000
0000
1000
0000
0000
0010
0000
0100
0000
0000
0001
0000
0000
1000
0000
,  // measure 15
0100
0000
0000
0010
0000
0000
0100
0000
1000
0000
0000
0010
0000
0000
0100
0000
,  // measure 16
0001
0000
0000
0010
0000
0000
0100
0000
1000
0000
0000
0010
0000
0000
0001
0000
,  // measure 17
1000
0000
0000
0100
0000
0000
0001
0000
0010
0000
0000
0100
0000
0000
0010
0000
,  // measure 18
0001
0000
0000
0100
0000
0000
0001
0000
1000
0000
0000
0100
0000
0000
1000
0000
,  // measure 19
0001
0000
0000
0100
0000
0000
0010
0000
1000
0000
0000
0001
0000
0000
0010
0000
,  // measure 20
0100
0000
0000
0001
0000
0000
0100
0000
1000
0000
0000
0010
0000
0000
0100
0000
,  // measure 21
0001
0000
1000
0000
0001
0010
0100
0000
,  // measure 22
0010
0000
0001
0000
1000
0100
0010
0000
,  // measure 23
0001
0100
0010
0000
1000
0001
0100
0000
,  // measure 24
0010
1000
0100
0000
0010
0001
0100
0000
,  // measure 25
0001
0000
0010
0000
0100
1000
0001
0000
,  // measure 26
0100
0000
1000
0000
0100
0001
0010
0000
,  // measure 27
0001
1000
0010
0000
1000
0001
0100
0000
,  // measure 28
0010
0100
0001
0000
0010
0100
1000
0000
,  // measure 29
0001
0000
0000
0100
0020
0000
0000
0000
1000
0000
1000
0000
1030
0000
0000
0000
,  // measure 30
0100
0000
0000
0010
0200
0000
0000
0000
0001
0000
0001
0000
0301
0000
0000
0000
,  // measure 31
0100
1000
0100
0000
1000
0010
1000
0000
,  // measure 32
0001
0100
0001
0000
0010
0001
0010
0000
,  // measure 33
0100
0000
0000
0010
0002
0000
0000
0000
0100
0000
0100
0000
0103
0000
0000
0000
,  // measure 34
0001
0000
0000
1000
0020
0000
0000
0000
0100
0000
0100
0000
0130
0000
0000
0000
,  // measure 35
0001
0100
0001
0000
1000
0001
1000
0000
,  // measure 36
0001
0010
0001
0000
0100
0010
0100
0000
,  // measure 37
0010
0000
0000
1000
0000
0000
0100
0000
0010
0000
0000
0000
0000
0000
0100
0000
,  // measure 38
0001
0000
0000
0100
0000
0000
1000
0000
0001
0000
0000
1000
0000
0000
0010
0000
,  // measure 39
0100
0000
0000
0001
0000
0000
1000
0000
0100
0000
0000
0000
0000
0000
0001
0000
,  // measure 40
1000
0000
0000
0010
0000
0000
1000
0000
0001
0000
0000
0010
0000
0000
0100
0000
,  // measure 41
1000
0000
0000
0010
0000
0000
0001
0000
0010
0000
0000
0000
0000
0000
0100
0000
,  // measure 42
0010
0000
0000
0001
0000
0000
0100
0000
1000
0000
0000
0100
0000
0000
0001
0000
,  // measure 43
1000
0000
0000
0010
0000
0000
0100
0000
0001
0000
0000
0000
0000
0000
0010
0000
,  // measure 44
0001
0000
0000
1000
0000
0000
0100
0000
1000
0000
0000
0001
0000
0000
0100
0000
,  // measure 45
0010
0000
0000
1000
0100
0000
0010
0000
0100
0000
0000
0000
0000
0000
1000
0000
,  // measure 46
0010
0000
0000
0100
0000
0000
0001
0000
0010
0000
0000
0001
0000
0000
0100
0000
,  // measure 47
0001
0000
0000
1000
0010
0000
0100
0000
0001
0000
0000
0000
0000
0000
1000
0000
,  // measure 48
0100
0000
0000
0001
0000
0000
0100
0000
1000
0000
0000
0010
0000
0000
0001
0000
,  // measure 49
0010
0000
0000
0100
0001
0000
1000
0000
0100
0000
0000
0000
0000
0000
0010
0000
,  // measure 50
0001
0000
0000
1000
0000
0000
0010
0000
0100
0000
0000
0010
0000
0000
1000
0000
,  // measure 51
0100
0000
0000
0001
0100
0000
0010
0000
0001
0000
0000
0000
0000
0000
1000
0000
,  // measure 52
0100
0000
0000
1000
0000
0000
0010
0000
1000
0000
0000
0001
0000
0000
0100
0000
,  // measure 53
2002
0000
0000
3003
;

//---------------dance-double - ----------------
#NOTES:
     dance-double:
     :
     Easy:
     3:
     0.160733,0.195986,0.020836,0.041671,0.000000,108.000000,106.000000,2.000000,4.000000,0.000000,0.000000,0.160733,0.195986,0.020836,0.041671,0.000000,108.000000,106.000000,2.000000,4.000000,0.000000,0.000000:
00000000
00000000
00000000
00000000
,
00000000
00000000
00000000
00000000
,
00000000
00000000
00000000
00000000
,
00000000
00000000
00000000
00000000
,
00000000
00000000
00000000
00000000
,
00010000
00000000
00100000
00000000
,
10000000
00000000
01000000
00000000
,
10000000
00000000
00010000
00000000
,
00100000
00000000
10000000
00000000
,
01000000
00000000
00010000
00000000
,
00001000
00000000
00000010
00000000
,
00000001
00000000
00001000
00000000
,
00000010
00000000
00000100
00000000
,
00000010
00000000
00001000
00000000
,
00000001
00000000
00000100
00000000
,
00001000
00000000
00010000
00000000
,
01000000
00000000
00100000
00000000
,
10000000
00000000
00100000
00000000
,
00010000
00000000
01000000
00000000
,
00100000
00000000
00010000
00000000
,
00001000
00000000
00011000
00000000
,
00000100
00000000
00000001
00000000
,
00000010
00000000
00001000
00000000
,
00000001
00000000
00001000
00000000
,
00000010
00000000
00000100
00000000
,
00001000
00000000
00010000
00000000
,
01000000
00000000
10000000
00000000
,
00010000
00000000
10000000
00000000
,
00200000
00000000
00000000
00300000
,
01000000
00000000
10000000
00000000
,
01000000
01000000
00010000
00000000
,
00001000
00000000
00010000
00000000
,
00001000
00001000
00000010
00000000
,
00000001
00000000
00000100
00000000
,
00001000
00001000
00000100
00000000
,
00001000
00000000
00000010
00000000
,
00000002
00000000
00000000
00000003
,
00000010
00000010
00000100
00000000
,
00000001
00000000
00001000
00000000
,
00000100
00000100
00000010
00000000
,
00001000
00000000
00010000
00000000
,
00100000
00100000
10000000
00000000
,
00010000
00000000
10000000
00000000
,
00010000
00010000
01000000
00000000
,
00100000
00000000
10000000
00000000
,
00100000
01000000
00100000
00000000
,
10000000
00000000
01000000
00000000
,
00010000
00001000
00010000
00000000
,
00001000
00000000
00000010
00000000
,
00000001
00001000
00000001
00000000
,
00001000
00000000
00000100
00000000
,
00001000
00000010
00001000
00000000
,
00010000
00000000
00001000
00000000
,
00022000
00000000
00000000
00033000
,
00000000
00000000
00000000
00000000
;

//---------------dance-double - ----------------
#NOTES:
     dance-double:
     :
     Medium:
     7:
     0.314024,0.335976,0.020836,0.020836,0.234402,211.000000,209.000000,2.000000,2.000000,0.000000,0.000000,0.314024,0.335976,0.020836,0.020836,0.234402,211.000000,209.000000,2.000000,2.000000,0.000000,0.000000:
00000000
00000000
00000000
00000000
,
00000000
00000000
00000000
00000000
,
00000000
00000000
00000000
00000000
,
00000000
00000000
00000000
00000000
,
00000000
00000000
00000000
00000000
,
00010000
00000000
10000000
00000000
00100000
00010000
01000000
00000000
,
10000000
00000000
01000000
00000000
10000000
00010000
00100000
00000000
,
01000000
00000000
00000000
10000000
00000000
00000000
00000000
00000000
01000000
00000000
00000000
00100000
00000000
00000000
00000000
00000000
,
00010000
00000000
00000000
00001000
00000000
00000000
00000000
00000000
00000100
00000000
00000000
00000010
00000000
00000000
00000000
00000000
,
00000001
00000000
00001000
00000000
00000010
00000001
00000100
00000000
,
00000010
00000000
00001000
00000000
00000001
00000100
00001000
00000000
,
00000100
00000000
00000000
00000001
00000000
00000000
00000000
00000000
00000010
00000000
00000000
00001000
00000000
00000000
00000000
00000000
,
00010000
00000000
00000000
00100000
00000000
00000000
00000000
00000000
10000000
00000000
00000000
00010000
00000000
00000000
00000000
00000000
,
00100000
00000000
01000000
00000000
00100000
10000000
00010000
00000000
,
01000000
00000000
00100000
00000000
01000000
00010000
10000000
00000000
,
01000000
00000000
00000000
00100000
00000000
00000000
00000000
00000000
00010000
00000000
00000000
01000000
00000000
00000000
00000000
00000000
,
00010000
00000000
00000000
00100000
00000000
00000000
00000000
00000000
00001000
00000000
00000000
00010000
00000000
00000000
00000000
00000000
,
00001000
00000000
00000100
00000000
00000010
00000100
00001000
00000000
,
00000001
00000000
00000100
00000000
00000010
00000100
00000001
00000000
,
00000010
00000000
00000000
00000100
00000000
00000000
00000000
00000000
00001000
00000000
00000000
00000001
00000000
00000000
00000000
00000000
,
00000100
00000000
00000000
00000001
00000000
00000000
00000000
00000000
00000010
00000000
00000000
00000000
00001001
00000000
00000000
00000000
,
00000100
00000000
00001000
00000000
00010000
00100000
01000000
00000000
,
00100000
00000000
00010000
00000000
10000000
01000000
00100000
00000000
,
00010000
00000000
00000000
00100000
00000000
00000000
00000000
00000000
10000000
00000000
00000000
01000000
00000000
00000000
00000000
00000000
,
00100000
00000000
00000000
01000000
00000000
00000000
00000000
00000000
10000000
00000000
00000000
00100000
00000000
00000000
00000000
00000000
,
10000000
00000000
01000000
00000000
00010000
00001000
00000010
00000000
,
00000100
00000000
00001000
00000000
00000001
00000100
00000010
00000000
,
00000001
00000000
00000000
00000010
00000000
00000000
00000000
00000000
00001000
00000000
00000000
00000010
00000000
00000000
00000000
00000000
,
00000100
00000000
00000000
00000010
00000000
00000000
00000000
00000000
00000001
00000000
00000000
00000100
00000000
00000000
00000000
00000000
,
00001000
00000000
00010000
00000000
00100000
01000000
01000000
00000000
,
00100000
00000000
10000000
00000000
00010000
10000000
10000000
00000000
,
01000000
00000000
00000000
10000000
00000000
00000000
00000000
00000000
00010000
00000000
00000000
00100000
00000000
00000000
00000000
00000000
,
00010000
00000000
00000000
01000000
00000000
00000000
00000000
00000000
00100000
00000000
00000000
00010000
00000000
00000000
00000000
00000000
,
00001000
00000000
00000010
00000000
00000001
00000100
00000100
00000000
,
00001000
00000000
00000010
00000000
00000100
00000010
00000010
00000000
,
00000001
00000000
00000000
00000100
00000000
00000000
00000000
00000000
00000010
00000000
00000000
00000100
00000000
00000000
00000000
00000000
,
00001000
00000000
00000000
00000100
00000000
00000000
00000000
00000000
00000001
00000000
00000000
00000010
00000000
00000000
00000000
00000000
,
00000100
00000000
00001000
00000001
00000100
00000000
00000000
00000000
,
00000010
00000000
00000000
00001000
00000000
00000000
00000000
00000000
00010000
00000000
00000000
01000000
00000000
00000000
00000000
00000000
,
00100000
00000000
01000000
00010000
00100000
00000000
00000000
00000000
,
10000000
00000000
00000000
00100000
00000000
00000000
00000000
00000000
00010000
00000000
00000000
00100000
00000000
00000000
00000000
00000000
,
10000000
00000000
00010000
01000000
00100000
00000000
00000000
00000000
,
01000000
00000000
00000000
00010000
00000000
00000000
00000000
00000000
00001000
00000000
00000000
00000100
00000000
00000000
00000000
00000000
,
00001000
00000000
00000010
00000100
00000001
00000000
00000000
00000000
,
00000010
00000000
00000000
00000100
00000000
00000000
00000000
00000000
00001000
00000000
00000000
00000001
00000000
00000000
00000000
00000000
,
00000010
00000000
00001000
00000100
00000010
00000000
00000000
00000000
,
00000001
00000000
00000000
00000100
00000000
00000000
00000000
00000000
00000010
00000000
00000000
00001000
00000000
00000000
00000000
00000000
,
00010000
00000000
00001000
00010000
01000000
00000000
00000000
00000000
,
00100000
00000000
00000000
00010000
00000000
00000000
00000000
00000000
10000000
00000000
00000000
00100000
00000000
00000000
00000000
00000000
,
00010000
00000000
01000000
00010000
10000000
00000000
00000000
00000000
,
00100000
00000000
00000000
10000000
00000000
00000000
00000000
00000000
01000000
00000000
00000000
00010000
00000000
00000000
00000000
00000000
,
00001000
00000000
00000010
00000001
00000100
00000000
00000000
00000000
,
00001000
00000100
00000001
00000010
,
00002002
00000000
00000000
00003003
,
00000000
00000000
00000000
00000000
;

//---------------dance-double - ----------------
#NOTES:
     dance-double:
     :
     Hard:
     11:
     0.431597,0.503964,0.020836,0.020836,0.125014,290.000000,288.000000,2.000000,2.000000,0.000000,0.000000,0.431597,0.503964,0.020836,0.020836,0.125014,290.000000,288.000000,2.000000,2.000000,0.000000,0.000000:
00000000
00000000
00000000
00000000
,
00000000
00000000
00000000
00000000
,
00000000
00000000
00000000
00000000
,
00000000
00000000
00000000
00000000
,
00000000
00000000
00000000
00000000
,
00000100
00000001
00000000
00001000
00010000
01000000
00000000
00010000
,
01000000
10000000
00000000
00010000
00001000
00000100
00000000
00001000
,
00000010
00000001
00000000
00001000
00010000
01000000
00000000
00010000
,
00100000
10000000
00000000
00010000
00001000
00000100
00000000
00001000
,
00000100
00000001
00000000
00001000
00010000
01000000
00000000
00010000
,
01000000
10000000
00000000
00010000
00001000
00000100
00000000
00001000
,
00000010
00000001
00000000
00001000
00010000
01000000
00000000
00010000
,
00100000
10000000
00000000
00010000
00001000
00000100
00000000
00001000
,
00000100
00000001
00000100
00001000
00010000
01000000
00010000
00001000
,
00000010
00001000
00010000
00100000
00010000
00001000
00000100
00000001
,
00000010
00000100
00001000
00000010
00000100
00000001
00000100
00001000
,
00010000
01000000
00010000
00001000
00000010
00001000
00010000
01000000
,
00010000
00001000
00000100
00001000
00010000
00100000
00010000
00100000
,
10000000
01000000
00010000
00001000
00000100
00000001
00000100
00001000
,
00010000
00100000
00010000
00001000
00000010
00001000
00000010
00000001
,
00000100
00001000
00010000
00000100
00001000
00000100
00011000
00000000
,
00010000
00000000
00001000
00000000
00000100
00000001
00000010
00000000
,
00000100
00000000
00001000
00000000
00000001
00000010
00000100
00000000
,
00001000
00000010
00000100
00000000
00000001
00001000
00000010
00000000
,
00000100
00000001
00000010
00000000
00000100
00010000
00000010
00000000
,
00001000
00000000
00010000
00000000
01000000
00010000
10000000
00000000
,
00100000
00000000
00010000
00000000
00100000
10000000
01000000
00000000
,
10000000
00010000
01000000
00000000
00010000
10000000
00100000
00000000
,
01000000
00100000
10000000
00000000
01000000
00100000
00001000
00000000
,
00010000
00000000
00000100
00000000
00001000
00000010
00001000
00000000
,
00000010
00000000
00000100
00000000
00000001
00001000
00000001
00000000
,
00000010
00000001
00000010
00000000
00000100
00001000
00000100
00000000
,
00010000
00001000
00010000
00000000
01000000
00100000
01000000
00000000
,
00100000
00000000
10000000
00000000
00100000
00010000
00100000
00000000
,
10000000
00000000
00010000
00000000
00100000
01000000
00100000
00000000
,
10000000
00100000
10000000
00000000
00010000
00100000
00010000
00000000
,
10000000
01000000
10000000
00000000
00010000
01000000
00010000
00000000
,
00100000
00000000
00000000
00001000
00000000
00000000
00010000
00000000
00000100
00000000
00000000
00000000
00000000
00000000
00000010
00000000
,
00000001
00000000
00000000
00000100
00000000
00000000
00000001
00000000
00001000
00000000
00000000
00000001
00000000
00000000
00000100
00000000
,
00000010
00000000
00000000
00001000
00000000
00000000
00000001
00000000
00000010
00000000
00000000
00000000
00000000
00000000
00000100
00000000
,
00001000
00000000
00000000
00010000
00000000
00000000
01000000
00000000
10000000
00000000
00000000
01000000
00000000
00000000
00100000
00000000
,
10000000
00000000
00000000
01000000
00000000
00000000
00100000
00000000
00010000
00000000
00000000
00000000
00000000
00000000
00100000
00000000
,
01000000
00000000
00000000
10000000
00000000
00000000
00100000
00000000
00010000
00000000
00000000
00100000
00000000
00000000
10000000
00000000
,
01000000
00000000
00000000
00010000
00000000
00000000
00001000
00000000
00000010
00000000
00000000
00000000
00000000
00000000
00000100
00000000
,
00001000
00000000
00000000
00000001
00000000
00000000
00000010
00000000
00000001
00000000
00000000
00001000
00000000
00000000
00000010
00000000
,
00000100
00000000
00000000
00000001
00000000
00000000
00000100
00000000
00000010
00000000
00000000
00000000
00000000
00000000
00000100
00000000
,
00001000
00000000
00000000
00010000
00000000
00000000
00100000
00000000
01000000
00000000
00000000
00010000
00000000
00000000
00100000
00000000
,
10000000
00000000
00000000
00010000
00000000
00000000
01000000
00000000
10000000
00000000
00000000
00000000
00000000
00000000
00010000
00000000
,
00100000
00000000
00000000
01000000
00000000
00000000
10000000
00000000
00100000
00000000
00000000
00010000
00000000
00000000
00001000
00000000
,
00000100
00000000
00000000
00000010
00000000
00000000
00001000
00000000
00000001
00000000
00000000
00000000
00000000
00000000
00000010
00000000
,
00000100
00000000
00000000
00001000
00000000
00000000
00010000
00000000
01000000
00000000
00000000
10000000
00000000
00000000
01000000
00000000
,
00010000
00000000
00000000
00001000
00000000
00000000
00000010
00000000
00000100
00000000
00000000
00000000
00000000
00000000
00000001
00000000
,
00000010
00000000
00000000
00000001
00000000
00000000
00001000
00000000
00000010
00000000
00000000
00010000
00000000
00000000
00001000
00000000
,
00022000
00000000
00000000
00033000
,
00000000
00000000
00000000
00000000
;

//---------------dance-single - ----------------
#NOTES:
     dance-single:
     :
     Challenge:
     13:
     0.607212,0.589325,0.302118,0.239611,0.442759,408.000000,379.000000,29.000000,23.000000,0.000000,0.000000,0.607212,0.589325,0.302118,0.239611,0.442759,408.000000,379.000000,29.000000,23.000000,0.000000,0.000000:
// measure 0
0000
0000
0000
0000
,  // measure 1
0000
0000
0000
0000
,  // measure 2
0000
0000
0000
0000
,  // measure 3
0000
0000
0000
0000
,  // measure 4
0000
0000
0000
0000
,  // measure 5
1000
0000
0000
1001
0000
0000
0001
0000
0100
0000
0000
0110
0000
0000
0010
0000
,  // measure 6
1000
0000
0000
1010
0000
0000
0010
0000
0100
0000
0000
0101
0000
0000
0001
0000
,  // measure 7
1000
0000
0000
1010
0000
0000
0010
0000
0100
0000
0000
1001
0000
0000
0001
0000
,  // measure 8
0100
0000
0000
0110
0000
0000
0010
0000
1000
0000
0010
0100
0000
0000
0001
0100
,  // measure 9
0010
0000
1000
0010
0000
0000
1000
0000
0001
0000
0100
0001
0000
0000
0100
0000
,  // measure 10
0010
0000
1000
0010
0000
0000
1000
0000
0001
0000
0000
0101
0000
0000
0100
0000
,  // measure 11
0010
0000
0000
1010
0000
0000
1000
0000
0001
0100
0000
0001
0100
0000
0010
0000
,  // measure 12
1000
0000
0000
1001
0000
0000
0001
0000
0100
0000
0010
0000
0100
0000
0001
1000
,  // measure 13
0001
0000
0000
0101
0000
0000
0100
0000
0010
0000
0000
1010
0000
0000
1000
0000
,  // measure 14
0001
0000
0000
0101
0000
0000
0100
0000
0010
0000
0000
1010
0000
0000
1000
0000
,  // measure 15
0001
0000
0000
0101
0000
0000
0100
0000
0010
0000
0000
1010
0000
0000
1000
0000
,  // measure 16
0001
0000
0100
0001
0100
0000
0010
0000
1000
0000
0100
0000
0001
0000
0100
0000
,  // measure 17
1000
0001
0000
1000
0001
0000
0100
0000
0010
1000
0000
0001
1000
0000
0010
0000
,  // measure 18
0100
0001
0000
1000
0001
0000
0100
0000
0010
1000
0000
0010
0000
0100
0000
0000
,  // measure 19
0101
0000
0000
1001
0000
0000
1000
0000
0010
0000
0100
0000
0010
0000
1000
0000
,  // measure 20
1001
0010
1000
0010
0001
0100
1000
0100
,  // measure 21
0001
0000
0000
0001
0100
0000
0010
0000
2000
0000
0000
0000
3001
0000
0100
0000
,  // measure 22
0020
0000
0000
1030
0000
0000
0001
0000
2000
0000
0001
0000
3100
0000
0010
0000
,  // measure 23
0200
0010
0310
0000
1001
0100
0010
0100
,  // measure 24
1000
0000
0001
0000
0010
0000
0100
0000
1000
0000
0001
1000
0001
0000
0100
0000
,  // measure 25
0010
0000
0000
0100
0001
0000
0100
0000
0002
0000
1000
0000
0013
1000
0000
0000
,  // measure 26
0002
0100
0013
1000
0020
0100
0031
1000
,  // measure 27
0002
0000
0100
0000
0103
0010
0000
0000
2000
0000
0001
0000
3100
0000
0001
0000
,  // measure 28
0020
0000
0001
0000
0031
0000
1000
0000
0010
0100
0000
0001
0100
0000
0010
0000
,  // measure 29
1000
0000
0000
0001
0100
0000
0010
0000
0100
0000
0001
0000
0010
0000
0100
0000
,  // measure 30
1000
0100
0001
0100
1000
0010
0100
0001
,  // measure 31
0200
0000
0010
0000
0310
0000
0000
0000
0001
1000
0001
0000
1000
0000
0100
0000
,  // measure 32
0001
0100
1000
0010
0100
0001
0010
0100
,  // measure 33
1000
0010
0000
0100
0010
0000
1000
0000
0100
0000
0001
0000
0100
0000
0000
0000
,  // measure 34
1000
0000
0010
0000
0001
0000
0010
0000
1000
0001
1000
0000
0010
0000
0100
0000
,  // measure 35
0001
0010
0001
0000
0100
0000
0010
0000
1000
0001
1000
0000
0010
0000
1000
0000
,  // measure 36
0001
0100
0001
0000
0100
0000
0010
0000
1000
0001
0000
1000
0001
0000
0100
0000
,  // measure 37
0010
0000
0000
0010
1000
0000
0001
0000
1000
0000
0001
0000
0100
0000
0010
0000
,  // measure 38
0100
0001
0000
1000
0001
0000
0100
0000
0001
0000
0100
0010
0000
0100
0001
0000
,  // measure 39
1000
0010
1000
0000
0001
0000
0100
0000
0020
1000
0000
0000
1030
0000
0001
0000
,  // measure 40
0200
0000
0010
0000
0301
0000
1000
0000
0001
0000
0000
0101
0000
0000
0100
0000
,  // measure 41
0020
0000
1030
0001
2000
0000
3002
0000
,  // measure 42
0103
0000
0010
0000
1000
0000
0010
0000
0100
0000
0000
0100
0001
0000
0010
0000
,  // measure 43
1000
0000
0000
0011
0000
0000
0100
0000
1000
0000
0000
1001
0000
0000
0001
0000
,  // measure 44
0100
1000
0100
0001
0020
0000
0130
0000
,  // measure 45
2001
0000
0100
0000
3100
0000
0000
0000
0001
0100
0000
0010
0100
0000
0001
0000
,  // measure 46
0010
0100
1000
0000
0001
0000
1000
0000
0010
0100
0000
0001
0000
0100
0000
0000
,  // measure 47
0020
0000
1000
0000
0130
0000
1000
0000
0001
0000
0000
0101
0000
0000
0100
0000
,  // measure 48
0000
0010
1000
0000
0001
1000
0001
0000
0100
0010
0000
1000
0000
0010
0000
0100
,  // measure 49
0001
1000
0001
1000
0001
0000
0100
0000
0020
0000
0000
0000
1030
0000
0100
0000
,  // measure 50
0002
0000
0100
0000
1003
0000
0010
0000
0100
0010
0000
1000
0010
0000
0100
0000
,  // measure 51
0001
0000
0000
1010
0000
0000
0010
0000
0100
0000
0000
0101
0000
0000
0001
0000
,  // measure 52
0010
0000
0100
0000
1000
0000
0001
0000
1000
0001
1000
0000
0001
1000
0001
0000
,  // measure 53
2002
0000
0000
0000
0000
0000
3003
1001
;
