#TITLE:SOUL CRASH;
#SUBTITLE:;
#ARTIST:nc ft HARDCORE NATION;
#TITLETRANSLIT:;
#SUBTITLETRANSLIT:;
#ARTISTTRANSLIT:;
#GENRE:;
#CREDIT:;
#BANNER:SOUL CRASH.png;
#BACKGROUND:SOUL CRASH-bg.png;
#LYRICSPATH:;
#CDTITLE:;
#MUSIC:SOUL CRASH.ogg;
#OFFSET:0.000000;
#SAMPLESTART:69.309998;
#SAMPLELENGTH:15.000000;
#SELECTABLE:YES;
#DISPLAYBPM:142.000000;
#BPMS:0.000000=142.292007
,4.000000=141.998001
;
#STOPS:
;
#BGCHANGES:;
#KEYSOUNDS:;
#ATTACKS:;

//---------------dance-single - ----------------
#NOTES:
     dance-single:
     :
     Beginner:
     3:
     0.140861,0.252916,0.049301,0.000000,0.000000,100.000000,95.000000,5.000000,0.000000,0.000000,0.000000,0.140861,0.252916,0.049301,0.000000,0.000000,100.000000,95.000000,5.000000,0.000000,0.000000,0.000000:
0000
0000
0000
0000
,
0000
0000
0000
0000
,
0000
0000
0000
0000
,
0000
0000
0000
0000
,
0000
0000
0000
0000
,
1000
0000
0000
0000
,
0100
0000
0000
0000
,
0001
0000
0000
0000
,
0010
0000
0000
0000
,
0100
0000
0000
0000
,
0001
0000
0000
0000
,
1000
0000
0000
0000
,
0010
0000
0000
0000
,
0010
0000
0010
0000
,
0100
0000
0100
0000
,
1000
0000
1000
0000
,
0001
0000
0001
0000
,
0010
0000
0001
0000
,
1000
0000
0001
0000
,
1000
0000
0100
0000
,
0001
0000
1000
0000
,
0001
0000
0100
0000
,
0010
0000
0100
0000
,
0001
0000
1000
0000
,
0001
0000
1000
0000
,
0001
0000
0000
0000
,
1000
0000
0000
0000
,
0100
0000
0000
0000
,
0010
0000
0000
0000
,
1000
1000
0000
0000
,
0010
0010
0000
0000
,
0001
0001
0000
0000
,
0100
0100
0000
0000
,
1000
1000
0000
0000
,
0001
0001
0000
0000
,
0010
0010
0000
0000
,
0001
0001
0000
0000
,
0010
0000
0001
0000
,
0010
0000
1000
0000
,
1000
0000
0001
0000
,
0010
0000
0000
0000
,
0100
0000
1000
0000
,
1000
0000
0001
0000
,
1000
0000
0100
0000
,
0001
0000
0010
0000
,
1000
0000
0100
0000
,
0010
0000
1000
0000
,
0001
0000
1000
0000
,
0010
0000
0100
0000
,
0010
0010
0010
0000
,
0001
0001
0001
0000
,
1000
1000
1000
0000
,
0001
0001
0001
0000
,
1001
0000
0000
0000
,
1001
0000
0000
0000
,
1001
0000
1001
0000
,
0100
0100
0100
0000
,
1001
0000
0000
0000
,
0000
0000
0000
0000
;

//---------------dance-single - ----------------
#NOTES:
     dance-single:
     :
     Easy:
     6:
     0.339475,0.370130,0.345110,0.078882,0.000000,241.000000,206.000000,35.000000,8.000000,0.000000,0.000000,0.339475,0.370130,0.345110,0.078882,0.000000,241.000000,206.000000,35.000000,8.000000,0.000000,0.000000:
0000
0000
0000
0000
,
0000
0000
0000
0000
,
0000
0000
0000
0000
,
0000
0000
0000
0000
,
0000
0000
0000
0000
,
1001
0100
1000
0001
,
0110
0001
1000
0100
,
1010
0100
0011
0100
,
2002
0000
0000
3003
,
0100
0010
0001
0100
,
1000
0100
1000
0010
,
0001
0010
0001
0100
,
0001
1000
0010
1000
,
0110
0001
1000
0001
,
0110
1000
0001
1000
,
0011
0100
1010
0001
,
1000
0100
0010
1001
,
0010
0100
1000
0010
,
0001
0010
1000
0100
,
0001
0100
1000
0010
,
1000
0001
0100
0001
,
0110
1000
0100
1000
,
0110
1000
0100
0010
,
1001
0100
1001
0010
,
0001
0010
1000
0101
,
2100
0100
0100
3100
,
0012
0010
0010
0013
,
0201
0001
0001
0301
,
1020
1000
0130
1001
,
0010
0000
0100
0000
0000
0001
0001
0000
,
0010
0000
1000
0000
0000
0100
0100
0000
,
1000
0000
0100
0000
0000
0001
0001
0000
,
0100
0000
1000
0000
0000
0010
0010
0000
,
0100
0000
0001
0000
0000
0010
0010
0000
,
1000
0000
0001
0000
0000
0010
0010
0000
,
0001
0000
0100
0000
0000
0010
0010
0000
,
1000
0000
0001
0000
0000
0100
0100
0000
,
1010
0000
0100
0000
0000
1000
1000
0000
,
0011
0000
0100
0000
0000
0001
0001
0000
,
1001
0010
1001
0100
,
0010
1000
0100
1001
,
0100
1000
0001
0100
,
0001
0010
1000
0010
,
0001
0010
0100
0001
,
0100
0001
0010
0001
,
0110
1000
0100
0001
,
0110
1000
0001
0100
,
1010
0100
0011
0100
,
0010
1000
0100
1001
,
0010
0001
0010
0100
,
1000
0001
1000
0010
,
0001
1000
0001
0100
,
1000
0001
1000
0010
,
1001
0010
0100
0010
,
1001
0010
0100
0010
,
1001
0100
1001
0010
,
0100
1000
0010
0100
,
2002
0000
0000
3003
,
0000
0000
0000
0000
;

//---------------dance-single - ----------------
#NOTES:
     dance-single:
     :
     Medium:
     9:
     0.433852,0.427073,0.138044,0.069022,0.000000,308.000000,294.000000,14.000000,7.000000,0.000000,0.000000,0.433852,0.427073,0.138044,0.069022,0.000000,308.000000,294.000000,14.000000,7.000000,0.000000,0.000000:
0000
0000
0000
0000
,
0000
0000
0000
0000
,
0000
0000
0000
0000
,
0000
0000
0000
0000
,
0000
0000
0000
0000
,
1000
0001
0100
0000
0010
1000
0100
0000
,
0010
0100
1000
0000
0001
1000
0100
0000
,
0010
1000
0001
0000
1000
0001
0010
0000
,
2002
0000
0000
3003
,
0100
0001
0010
0000
1000
0010
0100
0000
,
0001
1000
0100
0000
0010
0100
1000
0000
,
0001
1000
0010
0000
1000
0010
0100
0000
,
1000
0100
0001
0000
0010
0000
1001
0000
,
0100
1000
0100
0000
0001
0100
1000
0000
,
0010
1000
0001
0000
0010
0100
0001
0000
,
0010
0100
1000
0000
0010
0001
1000
0000
,
0001
0000
0100
0010
0100
0000
1001
0000
,
0010
1000
0100
0000
0001
0100
0010
0000
,
1000
0001
0010
0000
1000
0010
0100
0000
,
0001
1000
0100
0000
0010
0100
1000
0000
,
0001
0010
1000
0000
0100
0000
1001
0000
,
0010
0001
0010
0000
0100
0010
0001
0000
,
0100
0001
1000
0000
0100
0010
1000
0000
,
0100
0010
0001
0000
0100
1000
0001
0000
,
1000
0000
0010
0100
0001
0000
1100
0000
,
0001
0000
0100
0000
1000
0100
2000
0000
,
3010
0000
0100
0000
0010
0001
0200
0000
,
0301
0000
1000
0000
0001
0100
0002
0000
,
0013
1000
0001
0110
,
1000
0001
0100
0000
0000
1000
0100
0000
,
0010
1000
0001
0000
0000
0010
0100
0000
,
0001
0010
0100
0000
0000
1000
0010
0000
,
1000
0001
0100
0000
0000
0010
1000
0000
,
0100
0000
1000
0001
0100
0001
0010
0000
,
0001
0000
0010
0100
1000
0001
0100
0000
,
1000
0000
0010
0001
0100
0001
0010
0000
,
0001
0000
1000
0100
0001
0100
1000
0000
,
0011
0000
0100
0001
1000
0001
0100
0000
,
1010
0000
0100
1000
0001
1000
0100
0000
,
0100
1000
0100
0000
0010
0001
1000
0000
,
0010
0000
0001
0010
0100
0010
0001
0000
,
0100
0001
0000
0001
1000
0100
0000
0100
,
1000
0010
0000
0100
0001
0010
0000
0001
,
1000
0100
0000
0010
0100
1000
0000
0001
,
0100
1000
0000
0001
0010
0100
1000
0000
,
0110
0000
0001
0010
0100
1000
0001
0000
,
0110
0000
0010
0100
1000
0001
0100
0000
,
0010
1000
0100
0000
0010
0001
0100
0000
,
0010
0000
0001
0010
0100
0000
1001
0000
,
0010
0000
1000
0001
0010
0001
0100
0000
,
0001
0000
0100
0010
1000
0100
0001
0000
,
0010
0000
0001
1000
0010
0001
0100
0000
,
0001
0000
1000
0010
0100
1000
0010
0000
,
0101
0000
0010
0001
0100
0001
0010
0000
,
1100
0000
0010
1000
0100
1000
0010
0000
,
0001
1000
0010
0000
0100
0001
1000
0000
,
0100
0000
0001
0100
0010
0100
0001
0000
,
2002
0000
0000
3003
;

//---------------dance-single - ----------------
#NOTES:
     dance-single:
     :
     Hard:
     13:
     0.608520,0.626374,0.414132,0.108463,0.276088,432.000000,390.000000,42.000000,11.000000,0.000000,0.000000,0.608520,0.626374,0.414132,0.108463,0.276088,432.000000,390.000000,42.000000,11.000000,0.000000,0.000000:
// measure 0
0000
0000
0000
0000
,  // measure 1
0000
0000
0000
0000
,  // measure 2
0000
0000
0000
0000
,  // measure 3
0000
0000
0000
0000
,  // measure 4
0000
0000
0000
0000
,  // measure 5
1001
1000
0100
0000
0010
0001
0100
0000
,  // measure 6
1010
0100
0001
0000
1000
0001
0100
0000
,  // measure 7
0110
0001
1000
0100
0011
1000
0010
0100
,  // measure 8
2002
0000
0000
3003
,  // measure 9
0100
0000
1000
0000
0000
0010
0000
1000
0001
0000
0010
0000
0100
0000
1000
0000
,  // measure 10
0001
0000
1000
0000
0000
0100
0000
0001
0100
0000
1000
0000
0010
0000
0100
0000
,  // measure 11
0001
0000
1000
0000
0000
0100
0000
0010
0100
0000
1000
0000
0100
0000
0010
0000
,  // measure 12
0001
0000
0100
0000
0000
1000
0000
0100
0001
0000
0010
0000
0001
0000
1000
0000
,  // measure 13
1100
0000
0001
0000
0000
0100
0000
1000
0010
0000
0100
0000
0001
0000
1000
0000
,  // measure 14
1010
0000
0001
0000
0000
1000
0000
0100
0010
0000
0100
0000
1000
0000
0100
0000
,  // measure 15
0011
0000
1000
0000
0000
0001
0000
1000
0010
0000
1000
0000
0001
0000
0100
0000
,  // measure 16
0001
1000
0100
0001
0100
1000
1001
0000
,  // measure 17
0010
0000
0001
0000
0000
0100
0000
0001
1000
0000
0100
0000
0010
0000
0010
0000
,  // measure 18
0001
0000
1000
0000
0000
0010
0000
0001
0010
0000
1000
0000
0100
0000
0100
0000
,  // measure 19
1000
0000
0001
0000
0000
0100
0000
0010
1000
0000
0001
0000
0010
0000
0010
0000
,  // measure 20
1000
0000
0010
0000
0000
0001
0000
0100
0001
0000
1000
0000
0100
0000
0100
0000
,  // measure 21
0011
0000
1000
0000
0000
0010
0000
0001
0100
0000
0010
0000
1000
0000
0001
0000
,  // measure 22
0101
0000
1000
0000
0000
0001
0000
0010
0100
0000
0010
0000
0001
0000
0100
0000
,  // measure 23
1100
0000
0010
0000
0000
1000
0000
0001
0100
0000
0001
0000
1000
0000
0010
0000
,  // measure 24
1000
0001
0010
1000
0010
0001
1100
0000
,  // measure 25
1000
0100
2000
0000
3001
0100
0002
0000
,  // measure 26
0013
0001
0200
0000
0310
1000
0200
0000
,  // measure 27
0301
0100
2000
0000
3001
0100
2000
0000
,  // measure 28
3100
0010
2000
0000
3001
1000
0110
0000
,  // measure 29
1001
1000
1100
0000
0000
0001
0101
0000
,  // measure 30
0011
0001
1001
0000
0000
1000
1100
0000
,  // measure 31
1010
0010
0110
0000
0000
0001
0011
0000
,  // measure 32
0110
0100
1001
0000
0000
0010
1001
0000
,  // measure 33
0100
0000
1000
0000
0001
0000
1000
0100
0000
0100
1000
0000
0010
0000
0010
0000
,  // measure 34
1000
0000
0001
0000
0010
0000
0100
1000
0000
1000
0010
0000
1000
0000
1000
0000
,  // measure 35
0001
0000
1000
0000
0010
0000
0100
0001
0000
0001
1000
0000
0010
0000
0010
0000
,  // measure 36
1000
0000
0100
0000
0001
0000
0100
1000
0000
1000
0001
0000
0100
0000
0001
0000
,  // measure 37
1010
0000
1000
0000
0100
0000
1000
0010
0000
0010
1000
0000
0100
0000
1000
0000
,  // measure 38
0011
0000
0001
0000
0100
0000
0001
0010
0000
0010
0001
0000
0100
0000
0001
0000
,  // measure 39
1100
0010
0100
0001
0110
1000
0001
0100
,  // measure 40
0010
0000
1000
0000
0001
0000
0010
0100
0000
0100
0010
0000
0001
0000
0000
0000
,  // measure 41
0100
1000
0001
1000
0100
1000
0010
1000
,  // measure 42
0001
0100
1000
0100
0010
0100
0001
0100
,  // measure 43
0010
1000
0100
0010
0100
1000
0001
1000
,  // measure 44
0100
0001
0100
1000
0010
0100
0001
0000
,  // measure 45
0110
0001
1000
0010
0100
0001
1000
0000
,  // measure 46
0110
1000
0010
0100
0001
1000
0100
0000
,  // measure 47
0011
0001
0101
0000
1010
1000
1100
0000
,  // measure 48
0010
0100
1000
0010
0100
0010
1001
0000
,  // measure 49
0010
0000
1000
0000
0001
0000
1000
0010
0000
0010
1000
0000
0100
0000
0010
0000
,  // measure 50
0001
0000
1000
0000
0010
0000
0100
0010
0000
0010
0100
0000
0001
0000
0010
0000
,  // measure 51
0100
0000
1000
0000
0100
0000
0010
0001
0000
0001
1000
0000
0100
0000
0001
0000
,  // measure 52
0100
0000
0010
0000
0001
0000
0100
1000
0000
1000
0100
0000
0010
0000
0001
0000
,  // measure 53
1100
0000
1000
0000
0010
0000
1000
0100
0000
0100
1000
0000
0010
0000
1000
0000
,  // measure 54
0101
0000
0001
0000
0010
0000
0001
0100
0000
0100
0001
0000
0010
0000
0100
0000
,  // measure 55
1001
0001
1000
0010
0110
1000
0001
0010
,  // measure 56
0100
0000
1000
0000
0001
0000
0010
0100
0000
0100
0010
0000
0001
0000
0000
0000
,  // measure 57
2002
0000
0000
3003
;

//---------------dance-double - ----------------
#NOTES:
     dance-double:
     :
     Easy:
     6:
     0.295808,0.341659,0.256367,0.138044,0.000000,210.000000,184.000000,26.000000,14.000000,0.000000,0.000000,0.295808,0.341659,0.256367,0.138044,0.000000,210.000000,184.000000,26.000000,14.000000,0.000000,0.000000:
00000000
00000000
00000000
00000000
,
00000000
00000000
00000000
00000000
,
00000000
00000000
00000000
00000000
,
00000000
00000000
00000000
00000000
,
00000000
00000000
00000000
00000000
,
00001001
00000100
00001000
00000000
,
00000001
00000100
00001000
00000000
,
00011000
00100000
00011000
00000100
,
00022000
00000000
00000000
00033000
,
00010000
01000000
00100000
00010000
,
01000000
00010000
00100000
10000000
,
01000000
00010000
00001000
00010000
,
00100000
00010000
00001000
00000000
,
00000110
00000001
00001000
00000000
,
00000110
00001000
00000001
00000000
,
00000011
00000100
00001010
00000100
,
00000010
00010000
00001000
00011000
,
00100000
10000000
01000000
10000000
,
00010000
10000000
00010000
10000000
,
01000000
00010000
00001000
00000010
,
00000001
00001000
00000001
00000000
,
00000101
00001000
00000100
00000000
,
00000110
00001000
00000001
00000000
,
00000010
00000101
00000010
00001100
,
00000001
00000100
00001000
00011000
,
00020000
00000000
02030000
00000000
,
23000000
00000000
30200000
00000000
,
00320000
00000000
00032000
00000000
,
00003020
00000000
00000032
00001003
,
00000010
00000100
00000001
00000100
,
00000010
00001000
00000001
00000100
,
00001000
00010000
00100000
10000000
,
01000000
10000000
00100000
00010000
,
01000000
00000000
00010000
00000000
00000000
10000000
10000000
00000000
,
00100000
00000000
10000000
00000000
00000000
01000000
01000000
00000000
,
00010000
00000000
00001000
00000000
00000000
00000010
00000010
00000000
,
00000001
00000000
00001000
00000000
00000000
00000100
00000100
00000000
,
00000010
00000000
00000100
00000000
00000000
00001000
00000100
00000000
,
00000010
00000000
00000100
00000000
00000000
00000001
00000100
00000000
,
00001010
00000100
00000011
00000100
,
00002002
00000000
00000000
00003003
,
00000100
00001000
00010000
01000000
,
00100000
01000000
10000000
01000000
,
00010000
00100000
01000000
00010000
,
00001000
00000100
00000010
00000001
,
00000110
00001000
00000100
00000000
,
00000110
00001000
00000001
00000000
,
00000110
00001000
00000110
00000001
,
00000010
00001000
00000100
00001000
,
00000001
00000100
00001000
00010000
,
00100000
10000000
01000000
00010000
,
01000000
10000000
00010000
01000000
,
00100000
01000000
00010000
00100000
,
11000000
00100000
00010000
00000000
,
00011000
00000100
00000010
00000000
,
00001001
00000100
00001001
00000010
,
00000100
00000010
00001000
00010000
,
00022000
00000000
00000000
00033000
,
00000000
00000000
00000000
00000000
;

//---------------dance-double - ----------------
#NOTES:
     dance-double:
     :
     Medium:
     9:
     0.416949,0.427073,0.236647,0.108463,0.000000,296.000000,272.000000,24.000000,11.000000,0.000000,0.000000,0.416949,0.427073,0.236647,0.108463,0.000000,296.000000,272.000000,24.000000,11.000000,0.000000,0.000000:
00000000
00000000
00000000
00000000
,
00000000
00000000
00000000
00000000
,
00000000
00000000
00000000
00000000
,
00000000
00000000
00000000
00000000
,
00000000
00000000
00000000
00000000
,
00010000
10000000
00100000
00000000
01000000
00000000
00100000
00000000
,
01000000
00100000
00010000
00000000
10000000
00000000
00100000
00000000
,
01010000
10100000
11000000
00110000
,
00022000
00000000
00000000
00033000
,
00000010
00001000
00000100
00000000
00000001
00000100
00000010
00000000
,
00001000
00000001
00000010
00000000
00000100
00000000
00000001
00000000
,
00001000
00000001
00000100
00000000
00000001
00000100
00000010
00000000
,
00001001
00000011
00001010
00011000
,
00100000
00010000
00100000
00000000
10000000
00100000
00010000
00000000
,
01000000
00010000
10000000
00000000
01000000
00000000
10000000
00000000
,
01000000
00100000
00010000
00000000
01000000
10000000
00010000
00000000
,
10000000
00000000
00100000
01000000
00100000
00000000
10010000
00000000
,
01000000
00010000
00000000
00100000
10000000
00100000
00000000
01000000
,
00010000
10000000
00000000
01000000
00010000
00001000
00000000
00000010
,
00000001
00001000
00000000
00000010
00000100
00000010
00000000
00000001
,
00001000
00000100
00000000
00000001
00000010
00000001
00000100
00000000
,
00002000
00000100
00000000
00010000
00000000
00000100
00003000
00010000
,
00020000
00001000
00000000
01000000
00000000
00001000
00030000
01000000
,
00100000
01000000
10000000
00000000
00100000
00010000
10000000
00000000
,
00010000
00000000
01000000
00100000
10000000
00000000
00110000
00000000
,
10000000
00000000
00100000
00000000
00010000
00100000
00020000
00000000
,
01030000
00000000
00100000
00000000
01000000
10000000
00200000
00000000
,
10300000
00000000
00010000
00000000
10000000
00100000
20000000
00000000
,
31000000
00010000
00001000
00011000
,
00000010
00001000
00000100
00000000
00000000
00000010
00000100
00000000
,
00000010
00000001
00000100
00000000
00000000
00000010
00000100
00000000
,
00001000
00010000
00100000
00000000
00000000
10000000
01000000
00000000
,
00010000
10000000
00100000
00000000
00000000
01000000
00010000
00000000
,
00100000
00000000
00010000
10000000
00100000
10000000
01000000
00000000
,
10000000
00000000
01000000
00000000
00010000
00001000
00010000
00000000
,
00000010
00000000
00001000
00000100
00000010
00000100
00001000
00000000
,
00000001
00000000
00000010
00000000
00001000
00000100
00000001
00000000
,
00001100
00000000
00000001
00000000
00000010
00000100
00001000
00000000
,
00011000
00000000
00100000
00000000
00010000
10000000
00100000
00000000
,
10000000
01000000
10000000
00000000
00100000
01000000
10000000
00000000
,
20020000
00000000
00000000
30030000
,
00100000
10000000
00000000
10000000
00010000
00100000
00000000
00100000
,
00010000
01000000
00000000
00100000
10000000
01000000
00000000
10000000
,
00010000
00100000
00000000
01000000
00100000
00010000
00000000
00001000
,
00000010
00000001
00000000
00001000
00000100
00000010
00000001
00000000
,
00000110
00000000
00001000
00000000
00000010
00000001
00001000
00000000
,
00000101
00000000
00000010
00000000
00000001
00001000
00000010
00000000
,
00000100
00001000
00010000
00000000
00100000
00010000
00001000
00000000
,
00011000
01010000
10100000
10010000
,
01000000
00010000
00000000
10000000
01000000
10000000
00000000
00100000
,
10000000
00100000
00000000
01000000
00010000
00100000
00000000
00001000
,
00010000
00000100
00000000
00000010
00000100
00001000
00000000
00000001
,
00000100
00001000
00000000
00000100
00000001
00000010
00000100
00000000
,
00001001
00000000
00000010
00000000
00001000
00010000
01000000
00000000
,
10010000
00000000
01000000
00000000
00100000
00010000
01000000
00000000
,
10000000
00010000
01000000
00000000
00100000
10000000
00010000
00000000
,
00100000
00000000
10000000
01000000
00010000
00001000
00010000
00000000
,
00022000
00000000
00000000
00033000
,
00000000
00000000
00000000
00000000
;

//---------------dance-double - ----------------
#NOTES:
     dance-double:
     :
     Hard:
     12:
     0.569079,0.597903,0.305669,0.108463,0.187345,404.000000,373.000000,31.000000,11.000000,0.000000,0.000000,0.569079,0.597903,0.305669,0.108463,0.187345,404.000000,373.000000,31.000000,11.000000,0.000000,0.000000:
00000000
00000000
00000000
00000000
,
00000000
00000000
00000000
00000000
,
00000000
00000000
00000000
00000000
,
00000000
00000000
00000000
00000000
,
00000000
00000000
00000000
00000000
,
00000001
00000010
00000001
00000000
00000010
00001000
00000010
00000000
,
00001000
00010000
00001000
00000000
00010000
00100000
00010000
00000000
,
00100000
10000000
01000000
00000000
00100000
00010000
01000000
00000000
,
20020000
00000000
00000000
30030000
,
00100000
00010000
01000000
00010000
10000000
01000000
00100000
00010000
,
00001000
00000100
00000010
00000001
00001000
00000010
00000100
00000001
,
00001000
00000001
00000100
00000010
00000100
00000001
00000010
00001000
,
00010000
00100000
10000000
01000000
00010000
01000000
10000000
00000000
,
01100000
10000000
00100000
00010000
01000000
00100000
10000000
00000000
,
01010000
10000000
00010000
00100000
01000000
00100000
00010000
00000000
,
00011000
00000010
00001000
00000000
00000101
00000001
00001000
00000000
,
00000001
00001000
00000010
00000001
00000010
00000100
00001001
00000000
,
00000100
00000000
00001000
00000000
00000000
00000010
00000000
00001000
00000001
00000000
00000010
00000000
00000100
00000000
00001000
00000000
,
00000001
00000000
00000100
00000000
00000000
00001000
00000000
00010000
00001000
00000000
00100000
00000000
00010000
00000000
01000000
00000000
,
00010000
00000000
10000000
00000000
00000000
00100000
00000000
01000000
00010000
00000000
10000000
00000000
01000000
00000000
00010000
00000000
,
01000000
00000000
00100000
00000000
00000000
00001000
00000000
01000000
00001000
00000000
00010000
00000000
01000000
00000000
00000000
00000000
,
01100000
00000000
00010000
00000000
00000000
10000000
00000000
01000000
00010000
00000000
00001000
00000000
00000010
00000000
00000000
00000000
,
00000110
00000000
00000001
00000000
00000000
00001000
00000000
00000100
00000010
00000000
00000100
00000000
00001000
00000000
00000000
00000000
,
00001010
00000100
00000001
00000000
00000011
00000100
00001000
00000000
,
00001000
00000001
00000100
00001000
00000100
00000001
00001000
00000000
,
00000001
00000100
00000002
00000000
00000103
00001000
00000200
00000000
,
00001300
00010000
00002000
00000000
00013000
00100000
00020000
00000000
,
00130000
10000000
00200000
00000000
10300000
01000000
20000000
00000000
,
31000000
00010000
02000000
00000000
03010000
00001000
00011000
00000000
,
00000010
00001000
00001100
00000000
00000000
00000010
00000110
00000000
,
00001000
00000001
00000101
00000000
00000000
00000001
00000011
00000000
,
00000001
00000100
00000110
00000000
00000000
00010000
00011000
00000000
,
00100000
00010000
01010000
00000000
00000000
00010000
10010000
00000000
,
01100000
00000000
00000000
00000000
10000000
00000000
01000000
00000000
00100000
00000000
01000000
00000000
10000000
00100000
10000000
00000000
,
01000000
00000000
00000000
00000000
00100000
00000000
00001000
00000000
00010000
00000000
00000100
00000000
00000010
00000001
00000010
00000000
,
00000100
00000000
00000000
00000000
00001000
00000000
00000010
00000000
00001000
00000000
00000100
00000000
00001000
00000001
00001000
00000000
,
00000010
00000000
00000000
00000000
00000100
00000000
00000010
00000000
00001000
00000000
00000010
00000000
00000100
00000001
00000100
00000000
,
00000001
00000000
00000000
00000000
00000010
00000000
00000001
00000000
00000100
00000000
00000001
00000000
00000010
00000100
00000010
00000000
,
00000001
00000000
00000000
00000000
00000100
00000000
00001000
00000000
00010000
00000000
00100000
00000000
10000000
00010000
10000000
00000000
,
01000000
10000000
00010000
00100000
01000000
10000000
00100000
10000000
,
01000000
10000000
00100000
00010000
00100000
10000000
01010000
00000000
,
10000000
00000000
00100000
00000000
10000000
00000000
00100000
00000000
00010000
00000000
00100000
00000000
00010000
00100000
00010000
00000000
,
00001000
00000000
00010000
00000000
00001000
00000000
00010000
00000000
00001000
00000000
00000100
00000000
00001000
00000100
00001000
00000000
,
00000100
00000000
00000001
00000000
00000100
00000000
00000001
00000000
00001000
00000000
00000001
00000000
00001000
00000001
00001000
00000000
,
00000100
00000010
00000100
00000010
00000001
00000100
00000001
00000000
,
00000110
00000001
00001000
00000001
00000100
00001000
00010000
00000000
,
01100000
01000000
10000000
00100000
10000000
00010000
00100000
00000000
,
11000000
10000000
00100000
00000000
01010000
00010000
00100000
00000000
,
01000000
00100000
00010000
01000000
00100000
01000000
10010000
00000000
,
01000000
00000000
00010000
00000000
00001000
00000000
00000100
00000010
00000000
00000010
00000100
00000000
00000001
00000010
00000001
00000000
,
00001000
00000000
00000001
00000000
00000010
00000000
00000100
00001000
00000000
00001000
00000010
00000000
00001000
00000001
00001000
00000000
,
00000010
00000000
00000100
00000000
00001000
00000000
00010000
00001000
00000000
00001000
00010000
00000000
00100000
10000000
00100000
00000000
,
10000000
00000000
00010000
00000000
01000000
00000000
00100000
01000000
00000000
01000000
00010000
00000000
10000000
00000000
00000000
00000000
,
01100000
00000000
00010000
00000000
10000000
00000000
01000000
00010000
00000000
00010000
00001000
00000000
00000100
00000000
00000000
00000000
,
00001001
00000000
00000100
00000000
00000010
00000000
00010000
00001000
00000000
00001000
00010000
00000000
00100000
00000000
00000000
00000000
,
01010000
10000000
01000000
00000000
00110000
10000000
00100000
00000000
,
00010000
00000000
00001000
00000000
00000100
00000000
00000001
00000010
00000000
00000010
00001000
00000000
00010000
00000000
00001000
00000000
,
00022000
00000000
00000000
00033000
,
00000000
00000000
00000000
00000000
;

//---------------dance-single - ----------------
#NOTES:
     dance-single:
     :
     Challenge:
     15:
     0.801500,0.825675,0.670499,0.069022,0.754311,569.000000,501.000000,68.000000,7.000000,0.000000,0.000000,0.801500,0.825675,0.670499,0.069022,0.754311,569.000000,501.000000,68.000000,7.000000,0.000000,0.000000:
// measure 0
0000
0000
0000
0000
,  // measure 1
0000
0000
0000
0000
,  // measure 2
0000
0000
0000
0000
,  // measure 3
0000
0000
0000
0000
,  // measure 4
0000
0000
0000
0000
,  // measure 5
0001
1000
0100
1000
0001
1000
0100
0100
,  // measure 6
1000
0001
0010
0001
1000
0001
0010
0010
,  // measure 7
0001
1000
0001
0000
0010
0000
0100
0000
1000
0001
1000
0000
0001
0010
0100
2000
,  // measure 8
0002
0000
0000
3003
,  // measure 9
0001
0000
0010
0000
0000
0001
1000
0001
1000
0000
0100
0000
0010
0000
0001
0000
,  // measure 10
0100
0000
0010
0000
0000
0010
1000
0010
1000
0000
0001
0000
0010
0100
0000
0100
,  // measure 11
0010
0000
0001
0000
0000
0001
1000
0001
1000
0000
0100
0000
1000
0100
0000
0100
,  // measure 12
1000
0000
0001
0000
0000
0000
1000
0000
0001
0010
0100
1000
0100
0010
0001
0000
,  // measure 13
1000
0000
1000
0000
0000
0001
1000
0001
1000
0000
0100
0000
0010
0000
0001
0000
,  // measure 14
0010
0000
0011
0000
0000
0001
0100
0001
0100
0000
0001
0000
1000
0100
0010
0001
,  // measure 15
0100
0000
0100
0000
0000
0010
0100
0010
0100
0000
0001
0000
1000
0001
0000
0001
,  // measure 16
1000
0000
1000
0000
0010
0000
0010
0000
1000
0100
0010
0001
1000
0001
0010
0100
,  // measure 17
1000
0000
0001
0000
0000
0001
0010
0000
0001
0000
0100
0000
0010
0000
1000
0000
,  // measure 18
0100
0000
0100
0000
0000
1000
0001
1000
0001
0000
0100
0000
0001
0100
0001
0000
,  // measure 19
0010
0000
0010
0000
0000
0001
1000
0001
1000
0000
0100
0000
1000
0001
1000
0001
,  // measure 20
0100
0000
0100
0000
0000
0000
0010
0000
1000
0100
0010
0001
1000
0001
0010
0100
,  // measure 21
1000
0000
0001
0000
0000
1000
0100
1000
0001
0000
0010
0000
1000
0000
0010
0000
,  // measure 22
0001
0000
1001
0000
0000
0001
0010
0100
0010
0000
0001
0000
1000
0100
0010
0100
,  // measure 23
1000
0000
1001
0000
0000
0001
0100
0001
0100
0000
0001
0000
1000
0010
1000
0010
,  // measure 24
0100
0000
0100
0000
0100
0000
0100
0000
0001
0010
0100
1000
0001
0010
0100
1000
,  // measure 25
0020
0100
0001
0001
1000
1000
0001
0001
,  // measure 26
0100
0100
1000
1000
0100
0100
0032
1000
,  // measure 27
0203
1000
0010
0010
0001
0001
1000
1000
,  // measure 28
0010
0000
0010
0000
1000
0000
1000
0000
0001
0000
0001
0000
1300
0000
1000
0001
,  // measure 29
0010
0001
1001
1000
0100
0010
0011
0001
,  // measure 30
1001
1000
1001
0001
0011
0001
0101
0000
,  // measure 31
1010
0010
0110
0100
0101
0001
0011
0010
,  // measure 32
0110
0100
1100
1000
1001
0001
0101
0100
,  // measure 33
0010
0000
1000
0000
0001
0000
1000
0100
0000
1100
0000
1000
0001
0100
0001
0000
,  // measure 34
1000
0000
0001
0000
0100
0000
0001
0010
0000
0011
0000
0001
1000
0100
1000
0000
,  // measure 35
0001
0000
0010
0000
0100
0000
0001
0100
0000
1100
0000
1000
0100
0010
0100
0000
,  // measure 36
1000
0000
0100
0000
0001
0000
0100
0010
0000
0011
0000
0001
0010
0100
1000
0000
,  // measure 37
1001
0000
0001
0000
0101
0000
0100
0001
0000
0001
0000
0100
1000
0100
0001
0000
,  // measure 38
0011
0000
0001
0000
0101
0000
0001
0010
0000
0011
0000
0010
1000
0010
0001
0000
,  // measure 39
1100
1000
1100
1000
0011
0001
0011
0001
,  // measure 40
1000
0100
0010
0001
0100
0010
0000
0110
0000
0101
0000
0001
0010
0100
1000
0000
,  // measure 41
0010
0000
0001
0000
0010
0000
1000
0100
0000
0110
0000
0100
0010
0001
0010
0000
,  // measure 42
0001
0000
0010
0000
1000
0000
0010
0001
0000
0101
0000
0100
0010
0001
0010
0000
,  // measure 43
1000
0000
0100
0000
0001
0000
0100
0010
0000
0110
0000
0100
1000
0100
0010
0000
,  // measure 44
0001
0000
0100
0000
0101
0000
0001
0010
0000
0011
0000
0010
0100
1000
0100
0000
,  // measure 45
0010
0000
0001
0000
1001
0000
0010
0100
0000
0110
0000
0010
1000
0100
0010
0000
,  // measure 46
0100
0000
1000
0000
1010
0000
0010
0001
0000
0011
0000
0010
1000
0100
0010
0000
,  // measure 47
0110
0000
0100
0000
0110
0000
0010
0001
0000
1001
0000
0001
1000
0100
0010
0000
,  // measure 48
0110
0000
0100
0000
1100
0000
1000
0000
0001
0010
0100
1000
0001
0010
0100
1000
,  // measure 49
0010
0000
0100
0000
0110
0000
0001
0010
0000
0011
0000
0001
0100
1000
0100
0000
,  // measure 50
0110
0000
0010
0000
0110
0000
0100
1000
0000
1100
0000
0100
0001
0100
0010
0000
,  // measure 51
1010
0000
1000
0000
0100
0000
0010
0100
0000
1100
0000
1000
0100
0001
0100
0000
,  // measure 52
0110
0000
0010
0000
0011
0000
0001
0100
0000
1100
0000
0100
0001
0100
0010
0000
,  // measure 53
0110
0000
0010
0000
1010
0000
1000
0100
0000
0110
0000
0010
0001
0010
0100
0000
,  // measure 54
1100
0000
1000
0000
0001
0000
0010
0001
0000
1001
0000
1000
0100
0010
0001
0000
,  // measure 55
1001
0000
0001
0000
1001
0000
1000
0010
0100
0000
0010
0000
0101
0000
1001
0000
,  // measure 56
0100
1000
0100
1000
0100
1000
0000
1001
0000
0011
0000
0001
0010
0100
1000
0000
,  // measure 57
2002
0000
0000
3003
;
