#TITLE:宇宙(ソラ)への片道切符;
#SUBTITLE:;
#ARTIST:Musical Cosmology;
#TITLETRANSLIT:Sora e no katamichi kippu;
#SUBTITLETRANSLIT:;
#ARTISTTRANSLIT:;
#GENRE:;
#CREDIT:;
#BANNER:Sora e no katamichi kippu.png;
#BACKGROUND:Sora e no katamichi kippu-bg.png;
#LYRICSPATH:;
#CDTITLE:;
#MUSIC:Sora e no katamichi kippu.ogg;
#OFFSET:0.000000;
#SAMPLESTART:65.829002;
#SAMPLELENGTH:12.000000;
#SELECTABLE:YES;
#BPMS:0.000000=87.500000
,16.000000=175.000000
;
#STOPS:
;
#BGCHANGES:;
#KEYSOUNDS:;
#ATTACKS:;

//---------------dance-single - ----------------
#NOTES:
     dance-single:
     :
     Easy:
     8:
     0.247589,0.342562,0.021664,0.032496,0.000000,160.000000,158.000000,2.000000,3.000000,0.000000,0.000000,0.247589,0.342562,0.021664,0.032496,0.000000,160.000000,158.000000,2.000000,3.000000,0.000000,0.000000:
0000
0000
0000
0000
,
0000
0000
0000
0000
,
0001
0000
0100
0000
,
0010
0000
1000
0000
,
0100
0000
0000
0000
,
0100
0000
0010
0010
,
0001
0000
0000
0000
,
0001
0000
1000
1000
,
0010
0000
0000
0000
,
0010
0000
0100
0100
,
0001
0000
0000
0000
,
0001
0000
0010
0010
,
0100
0000
0100
0000
,
1000
0000
0001
0100
,
0010
0000
0010
0000
,
1000
0000
0100
0010
,
0001
0000
0001
0000
,
1000
0000
0010
0100
,
0002
0000
0000
0000
,
0000
0000
0000
0003
,
1000
0000
0100
0100
,
0010
0000
0001
1000
,
0010
1000
0001
0100
,
0010
1000
0001
0001
,
0100
0000
0010
0010
,
1000
0000
0100
0010
,
0002
0000
0000
0000
,
0000
0000
0000
0003
,
0100
0001
0100
1000
,
0100
0001
0100
0100
,
0010
1000
0100
0001
,
0100
1000
0010
0100
,
0010
1000
0010
0001
,
0010
1000
0010
0010
,
0100
0001
0010
1000
,
0010
0001
0100
0010
,
1000
0000
0000
0000
,
0000
0000
0000
0000
,
0000
0000
0000
0000
,
0000
0000
0000
0000
,
0100
0000
0000
0000
,
0000
0000
0000
0000
,
0010
0000
0000
0000
,
0001
0000
0000
0000
,
0100
0010
1000
0010
,
0100
0001
0010
0001
,
0100
0010
1000
0001
,
0100
0010
1000
1000
,
0100
0010
0001
0010
,
0100
1000
0010
1000
,
0100
0010
0001
1000
,
0100
0010
0001
0001
,
0100
0010
1000
0001
,
0100
0010
1000
0001
,
0010
0010
0100
0100
,
1000
0001
1000
0110
,
0001
1000
0010
0100
,
0001
1000
0010
0100
,
0001
0001
1000
1000
,
0010
0100
0010
1001
,
0200
0000
0000
0000
,
0000
0000
0000
0000
,
0000
0000
0000
0000
,
0000
0300
0000
0000
;

//---------------dance-single - ----------------
#NOTES:
     dance-single:
     :
     Hard:
     13:
     0.521484,0.616612,0.216640,0.227472,0.048744,337.000000,317.000000,20.000000,21.000000,0.000000,0.000000,0.521484,0.616612,0.216640,0.227472,0.048744,337.000000,317.000000,20.000000,21.000000,0.000000,0.000000:
// measure 0
0000
0000
0000
0000
,  // measure 1
0000
0000
0000
0000
,  // measure 2
0020
0000
1030
0100
0020
0000
0031
0100
,  // measure 3
0020
0000
1030
0100
0020
0000
0031
0001
,  // measure 4
1000
0000
0100
0000
0010
0001
1000
0000
,  // measure 5
0001
0000
0100
0000
0010
1000
0001
1000
,  // measure 6
0100
0000
0010
0000
0001
1000
0100
0000
,  // measure 7
0010
0000
0000
0000
0001
0000
0000
0000
1000
0000
0001
0000
0100
0001
0100
0001
,  // measure 8
0100
0000
0010
0000
1000
0001
1000
0000
,  // measure 9
0100
0000
0010
0000
0001
1000
0001
0010
,  // measure 10
0100
0000
1000
0000
0001
0100
0010
0000
,  // measure 11
1000
0000
0000
0000
0001
0000
0000
0000
0010
0001
0010
0000
0100
0000
1000
0000
,  // measure 12
0100
0000
0011
0000
0100
1000
0001
0000
,  // measure 13
0100
0000
1010
0000
0100
0001
1000
0100
,  // measure 14
0010
0000
1001
0000
0100
0010
0001
0000
,  // measure 15
1000
0000
0000
0000
0110
0000
0000
0000
1000
0000
0010
0000
0100
0001
0100
0001
,  // measure 16
0100
0000
1010
0000
0001
0100
1000
0000
,  // measure 17
0100
0000
1001
0000
0010
0001
1000
0100
,  // measure 18
0020
0001
0000
0001
0000
0100
0030
0001
,  // measure 19
2000
0010
0000
0010
0000
0001
3000
0100
,  // measure 20
0010
0000
1001
0000
0100
0010
0001
0010
,  // measure 21
0100
0000
1001
0000
0010
1000
0010
0000
,  // measure 22
0001
0010
0100
0000
1000
0010
0100
0000
,  // measure 23
0001
0010
0100
1000
0010
0100
0001
0000
,  // measure 24
0010
0000
1001
0000
0100
0010
1000
0010
,  // measure 25
0100
0000
1001
0000
0010
0100
1000
0000
,  // measure 26
0002
0000
0000
0000
0000
0000
0003
1000
,  // measure 27
0020
0000
0000
0130
,  // measure 28
0001
0000
1100
0000
0010
0001
0100
0000
,  // measure 29
0010
0000
1001
0000
0010
0100
1000
0000
,  // measure 30
0010
0101
0010
1100
,  // measure 31
0010
0001
0010
0100
1000
0100
0010
0000
,  // measure 32
1002
0000
0103
0000
0010
1000
0001
0000
,  // measure 33
2010
0000
3001
0000
0100
0001
0010
0000
,  // measure 34
0001
0010
1000
0010
0001
0010
0100
0000
,  // measure 35
1000
0100
0001
0100
1000
0010
0100
0000
,  // measure 36
0002
0000
0000
0000
,  // measure 37
0000
0000
0000
0003
,  // measure 38
2000
0000
0000
0000
,  // measure 39
0000
0000
0000
3000
,  // measure 40
0020
0000
0000
0030
,  // measure 41
0200
0000
0000
0300
,  // measure 42
0002
0003
2000
3000
,  // measure 43
0020
0230
0302
2003
,  // measure 44
3001
0100
1000
0100
0001
0100
1000
0000
,  // measure 45
0001
0010
1000
0100
0001
0100
1000
0000
,  // measure 46
0001
1000
0100
1000
0001
0010
0100
0010
,  // measure 47
0001
0000
0010
0000
0100
0000
1000
0000
0010
1000
0010
0000
0100
0000
0001
0000
,  // measure 48
1000
0100
0001
0100
1000
0100
0001
0000
,  // measure 49
1000
0010
0001
0100
1000
0100
0001
0000
,  // measure 50
1000
0001
0010
0100
1000
0001
0010
0001
,  // measure 51
1000
0000
0100
0000
0010
0000
0001
0000
0010
0001
0010
0000
0100
0000
1000
0000
,  // measure 52
0100
0000
1001
0000
0100
0010
0001
0100
,  // measure 53
0010
0000
1001
0000
0100
0010
1000
0000
,  // measure 54
0001
0100
1000
0100
0001
0100
1000
0100
,  // measure 55
0001
0000
0010
0000
1000
0000
0010
0000
0001
0010
0001
0000
0100
0000
0010
0000
,  // measure 56
1000
0000
0110
0000
0001
1000
0100
0010
,  // measure 57
0001
0000
0110
0000
1000
0001
0100
0000
,  // measure 58
0010
1000
0010
0100
0001
1000
0100
1000
,  // measure 59
0010
0000
0100
0000
1000
0000
0100
0000
0010
1000
0010
0000
0100
0000
0001
0000
,  // measure 60
0020
0000
0000
0000
,  // measure 61
0000
0000
0000
0000
,  // measure 62
0000
0000
0000
0000
,  // measure 63
0000
0030
0000
0000
;

//---------------dance-double - ----------------
#NOTES:
     dance-double:
     :
     Medium:
     10:
     0.379120,0.479587,0.162480,0.205808,0.000000,245.000000,230.000000,15.000000,19.000000,0.000000,0.000000,0.379120,0.479587,0.162480,0.205808,0.000000,245.000000,230.000000,15.000000,19.000000,0.000000,0.000000:
00000000
00000000
00000000
00000000
,
00000000
00000000
00000000
00000000
,
00020000
00230000
20300000
32000000
,
03020000
00032000
00003200
00000302
,
00000013
00000010
00000100
00000100
,
00001000
00000000
00000001
00000000
00000100
00001000
00010000
00000000
,
01000000
01000000
10000000
10000000
,
00100000
00000000
00010000
00000000
00001000
00010000
00100000
00000000
,
10000000
01000000
00010000
00001000
,
00000100
00000000
00000001
00000000
00001000
00000100
00000010
00000000
,
00000001
00000100
00001000
00010000
,
01000000
00000000
10000000
00000000
00100000
00010000
00001000
00000000
,
00000100
00000000
00000001
00000000
00000010
00000100
00001000
00000000
,
00000010
00000000
00000100
00000000
00000001
00000010
00001000
00000000
,
00010000
00000000
00100000
00000000
10000000
01000000
00100000
00000000
,
00010000
00000000
01000000
00000000
00100000
10000000
01000000
00000000
,
00010000
00000000
00001000
00000000
00000100
00000001
00001000
00000000
,
00000010
00000000
00000100
00000000
00000001
00000010
00001000
00000000
,
00020000
00000000
00000000
00030000
,
00002000
00000000
00000000
00003000
,
00010000
00000000
00011000
00000000
00100000
10000000
01000000
00000000
,
00100000
00000000
01010000
00000000
00100000
00010000
00001000
00000000
,
00010000
00001000
00010000
00000000
00001000
00010000
00001000
00000000
,
00000010
00000001
00000100
00000000
00000010
00000000
00001001
00000000
,
00000001
00000000
00000100
00000000
00001000
00010000
00001000
00000000
,
00010000
00000000
01000000
00000000
10000000
00010000
10000000
00000000
,
00200000
00000000
00000000
00300000
,
02000000
00000000
00000000
03000000
,
00100000
10000000
01000000
00010000
,
00001000
00000010
00001000
00010000
,
00001000
00011000
00000010
00001001
,
00000010
00000101
00001000
00011000
,
00100000
10000000
01000000
00010000
,
00001000
00010000
01000000
00010000
,
00001000
00011000
00000100
00001001
,
00000010
00001100
00001000
00011000
,
00020000
00000000
00000000
00000000
,
00000000
00000000
00000000
00030000
,
00002000
00000000
00000000
00000000
,
00000000
00000000
00000000
00003000
,
00020000
00000000
00000000
00030000
,
02000000
00000000
00000000
03000000
,
20000000
00000000
00000000
30000000
,
02000000
00000000
00000000
03000000
,
00010000
00000000
00001000
00000000
00000010
00000001
00000100
00000000
,
00001000
00000000
00010000
00000000
01000000
10000000
00100000
00000000
,
01000000
10010000
00100000
10010000
,
10000000
00000000
01000000
00000000
00010000
00001000
00010000
00000000
,
00001000
00000000
00010000
00000000
00100000
10000000
01000000
00000000
,
00010000
00000000
00001000
00000000
00000100
00000001
00000010
00000000
,
00000100
00001001
00000010
00001001
,
00000001
00000000
00000100
00000000
00001000
00010000
00001000
00000000
,
00010000
00000000
01000000
00000000
10000000
00010000
10000000
00000000
,
00100000
00000000
01000000
00000000
00010000
10000000
00010000
00000000
,
00100000
01000000
10000000
00000000
00100000
00010000
00001000
00000000
,
00010000
00001000
00010000
00000000
00001000
00000010
00000001
00000000
,
00001000
00000000
00000001
00000000
00000100
00001000
00010000
00000000
,
00001000
00000000
00000010
00000000
00000001
00000100
00001000
00000000
,
00010000
00100000
10000000
00000000
01000000
00100000
00010000
00000000
,
01000000
00100000
10000000
00000000
01000000
00010000
00001000
00000000
,
00020000
00000000
00000000
00000000
,
00000000
00000000
00000000
00000000
,
00000000
00000000
00000000
00000000
,
00000000
00030000
00000000
00000000
;

//---------------dance-double - ----------------
#NOTES:
     dance-double:
     :
     Hard:
     12:
     0.482798,0.582356,0.173312,0.227472,0.027080,312.000000,296.000000,16.000000,21.000000,0.000000,0.000000,0.482798,0.582356,0.173312,0.227472,0.027080,312.000000,296.000000,16.000000,21.000000,0.000000,0.000000:
00000000
00000000
00000000
00000000
,
00000000
00000000
00000000
00000000
,
00002000
00000000
00003010
00000001
00000200
00000000
00001300
00010000
,
02000000
00000000
13000000
00100000
00020000
00000000
00031000
00010000
,
00001000
00000000
00000010
00000000
00000001
00000100
00000010
00000000
,
00001000
00000000
00000100
00000000
00000010
00000001
00000100
00001000
,
00010000
00000000
01000000
00000000
10000000
00010000
01000000
00000000
,
00100000
00000000
00000000
00000000
10000000
00000000
00000000
00000000
01000000
00000000
00100000
00000000
00010000
00100000
00010000
00100000
,
00010000
00000000
10000000
00000000
01000000
00010000
00001000
00000000
,
00000010
00000000
00000001
00000000
00000100
00001000
00010000
00001000
,
00000100
00000000
00000001
00000000
00000010
00001000
00010000
00000000
,
01000000
00000000
00000000
00000000
10000000
00000000
00000000
00000000
00010000
00100000
00010000
00000000
10000000
00000000
01000000
00000000
,
10000000
00000000
00110000
00000000
10000000
01000000
00010000
00000000
,
00001000
00000000
00000110
00000000
00000001
00000010
00000100
00000010
,
00000001
00000000
00001010
00000000
00000001
00000100
00001000
00000000
,
00010000
00000000
00000000
00000000
00110000
00000000
00000000
00000000
00010000
00000000
00100000
00000000
01000000
10000000
01000000
10000000
,
01000000
00000000
10010000
00000000
10000000
01000000
00010000
00000000
,
00001000
00000000
00001010
00000000
00000100
00000001
00000010
00000100
,
00002000
00000000
00000000
00000000
00000000
00000000
00003000
00000001
,
00000200
00000000
00000000
00000000
00000000
00000000
00000300
00001000
,
00010000
00000000
01000000
00000000
10000000
00010000
01000000
00010000
,
10000000
00000000
01000000
00000000
00010000
01000000
10000000
00000000
,
00100000
00010000
00001000
00000000
00010000
00001000
00000010
00000000
,
00000001
00000010
00001000
00000000
00010000
01000000
10000000
00000000
,
00010000
00000000
01000000
00000000
00100000
10000000
00100000
01000000
,
00010000
00000000
10000000
00000000
01000000
00010000
00001000
00000000
,
00020000
00000000
00000000
00030000
,
00002000
00000000
00000000
00003000
,
00000010
00000000
00000101
00000000
00000010
00001000
00000100
00000000
,
00000010
00000000
00000101
00000000
00001000
00010000
00001000
00000000
,
00010000
01010000
00100000
10010000
,
00010000
01000000
00010000
00100000
01000000
10000000
00010000
00000000
,
10200000
00000000
00310000
00000000
00001000
00010000
00001000
00000000
,
00001020
00000000
00000130
00000000
00000001
00001000
00000001
00000000
,
00000100
00001000
00010000
00001000
00000100
00001000
00010000
00000000
,
01000000
10000000
01000000
00010000
01000000
10000000
01000000
00000000
,
00200000
00000000
00000000
00000000
,
00000000
00000000
00000000
00300000
,
02000000
00000000
00000000
00000000
,
00000000
00000000
00000000
03000000
,
00020000
00000000
00000000
00030000
,
00002000
00000000
00000000
00003000
,
00020000
00030000
00002000
00003000
,
00020000
00032000
00003020
00000032
,
00000103
00001000
00010000
00001000
00000100
00001000
00010000
00000000
,
01000000
10000000
00010000
10000000
01000000
10000000
00010000
00000000
,
00100000
01000000
00010000
00001000
00010000
01000000
00100000
00000000
,
00010000
10000000
00100000
00010000
00001000
00010000
00001000
00000000
,
00000010
00000001
00000100
00001000
00000100
00000001
00000010
00000000
,
00000001
00000100
00001000
00010000
00001000
00000100
00000001
00000000
,
00000010
00001000
00010000
00001000
00000010
00000001
00000100
00000000
,
00001000
00010000
01000000
10000000
00100000
01000000
00010000
00000000
,
01000000
00000000
10010000
00000000
00100000
10000000
01000000
00000000
,
00010000
00000000
00011000
00000000
00000010
00000001
00001000
00000000
,
00000010
00000100
00000001
00000100
00000010
00000100
00000001
00000000
,
00000010
00001000
00010000
00001000
00000010
00001000
00010000
00000000
,
01000000
00000000
10010000
00000000
00100000
10000000
01000000
00010000
,
00001000
00000000
00011000
00000000
00000010
00000001
00000100
00000000
,
00001000
00010000
00001000
00000100
00001000
00010000
00100000
10000000
,
01000000
00010000
00001000
00010000
01000000
10000000
00010000
00000000
,
02000000
00000000
00000000
00000000
,
00000000
00000000
00000000
00000000
,
00000000
00000000
00000000
00000000
,
00000000
03000000
00000000
00000000
;

//---------------dance-single - ----------------
#NOTES:
     dance-single:
     :
     Medium:
     11:
     0.382215,0.479587,0.162480,0.205808,0.000000,247.000000,232.000000,15.000000,19.000000,0.000000,0.000000,0.382215,0.479587,0.162480,0.205808,0.000000,247.000000,232.000000,15.000000,19.000000,0.000000,0.000000:
0000
0000
0000
0000
,
0000
0000
0000
0000
,
0020
2030
3200
0320
,
0032
0203
0320
2030
,
3001
0001
0100
0100
,
0010
0000
1000
0000
0001
0100
0001
0000
,
1000
1000
0100
0100
,
0010
0000
0001
0000
1000
0100
1000
0000
,
0001
0100
0010
1000
,
0001
0000
0010
0000
0100
1000
0100
0000
,
1000
0010
0100
0001
,
1000
0000
0100
0000
0010
0001
0010
0000
,
0100
0000
1000
0000
0010
0100
0001
0000
,
0010
0000
0100
0000
1000
0010
0100
0000
,
0001
0000
0010
0000
0100
1000
0001
0000
,
1000
0100
0010
0100
1000
0100
0010
0000
,
0001
0000
1000
0000
0010
0100
0001
0000
,
0010
0000
0100
0000
1000
0010
0100
0000
,
0002
0000
0000
0003
,
2000
0000
0000
3000
,
0010
0000
1001
0000
0100
0010
0001
0000
,
0100
0000
1001
0000
0010
0100
1000
0000
,
0001
0010
0001
0000
1000
0100
1000
0000
,
0001
1000
0001
0000
0010
0000
1001
0000
,
0100
0000
0010
0000
1000
0100
0010
0000
,
0100
0000
0010
0000
0001
0100
0010
0000
,
2000
0000
0000
3000
,
0200
0000
0000
0300
,
0010
0001
1000
0100
,
0010
0001
1000
0100
,
0010
0011
1000
1100
,
0010
0101
0010
1001
,
0010
1000
0001
0100
,
0010
1000
0001
0100
,
0010
1010
0001
0101
,
0010
1100
0010
1001
,
0200
0000
0000
0000
,
0000
0000
0000
0300
,
0002
0000
0000
0000
,
0000
0000
0000
0003
,
2000
0000
0000
3000
,
0200
0000
0000
0300
,
0020
0000
0000
0030
,
0002
0000
0000
0003
,
1000
0000
0010
0000
0100
0001
1000
0000
,
0010
0000
0100
0000
0001
1000
0010
0000
,
0100
1001
0010
1001
,
0100
0000
0010
0000
1000
0100
0001
0000
,
0100
0000
1000
0000
0001
0100
0010
0000
,
1000
0000
0100
0000
0001
0100
1000
0000
,
0001
1100
0010
0101
,
0010
0000
1000
0000
0001
0100
1000
0000
,
0100
0000
0001
0000
0010
0100
1000
0000
,
0010
0000
0100
0000
0001
1000
0100
0000
,
0001
0100
1000
0000
0001
0100
1000
0000
,
0001
0010
1000
0000
0001
0100
1000
0000
,
0100
0000
0001
0000
1000
0100
0010
0000
,
0001
0000
1000
0000
0100
0010
0001
0000
,
1000
0100
0001
0000
1000
0010
0001
0000
,
1000
0100
0001
0000
1000
0010
0001
0000
,
0200
0000
0000
0000
,
0000
0000
0000
0000
,
0000
0000
0000
0000
,
0000
0300
0000
0000
;

//---------------dance-single - ----------------
#NOTES:
     dance-single:
     :
     Beginner:
     3:
     0.125342,0.161126,0.000000,0.021664,0.000000,81.000000,81.000000,0.000000,2.000000,0.000000,0.000000,0.125342,0.161126,0.000000,0.021664,0.000000,81.000000,81.000000,0.000000,2.000000,0.000000,0.000000:
0000
0000
0000
0000
,
0000
0000
0000
0000
,
0010
0000
0000
0000
,
0100
0000
0000
0000
,
1000
0000
0000
0000
,
1000
0000
0000
0000
,
0001
0000
0000
0000
,
0001
0000
0000
0000
,
0010
0000
0000
0000
,
0010
0000
0000
0000
,
0100
0000
0000
0000
,
0100
0000
0000
0000
,
1000
0000
1000
0000
,
0010
0000
1000
0000
,
0001
0000
0001
0000
,
0100
0000
0001
0000
,
0010
0000
0010
0000
,
1000
0000
0010
0000
,
0200
0000
0000
0000
,
0300
0000
0000
0000
,
0001
0000
0000
0000
,
0000
0000
0000
0000
,
0010
0000
0010
0000
,
0010
0000
0010
0000
,
1000
0000
0000
0000
,
0000
0000
0000
0000
,
0200
0000
0000
0300
,
0000
0000
0000
0000
,
0010
0000
0001
0000
,
0100
0000
1000
0000
,
0010
0000
0010
0000
,
0001
0000
0001
0000
,
0010
0000
1000
0000
,
0100
0000
0001
0000
,
0100
0000
0100
0000
,
1000
0000
1000
0000
,
0000
0000
0000
0000
,
0000
0000
0000
0000
,
0000
0000
0000
0000
,
0000
0000
0000
0000
,
0100
0000
0000
0000
,
0000
0000
0000
0000
,
0010
0000
0000
0000
,
0001
0000
0000
0000
,
0010
0000
0010
0000
,
0100
0000
0100
0000
,
1000
0000
0001
0000
,
1000
0000
0001
0000
,
0010
0000
0010
0000
,
0100
0000
0100
0000
,
0001
0000
1000
0000
,
0001
0000
1000
0000
,
0010
0000
0001
0000
,
0010
0000
1000
0000
,
0010
0000
0010
0000
,
0100
0000
0100
0000
,
0010
0000
0001
0000
,
0010
0000
1000
0000
,
0010
0000
0010
0000
,
0100
0000
0100
0000
;

//---------------dance-double - ----------------
#NOTES:
     dance-double:
     :
     Easy:
     8:
     0.246041,0.342562,0.021664,0.032496,0.000000,159.000000,157.000000,2.000000,3.000000,0.000000,0.000000,0.246041,0.342562,0.021664,0.032496,0.000000,159.000000,157.000000,2.000000,3.000000,0.000000,0.000000:
00000000
00000000
00000000
00000000
,
00000000
00000000
00000000
00000000
,
00010000
00000000
00001000
00000000
,
00010000
00000000
00100000
00000000
,
10000000
00000000
00000000
00000000
,
01000000
00000000
00100000
00100000
,
00010000
00000000
00000000
00000000
,
01000000
00000000
00100000
00100000
,
00010000
00000000
00000000
00000000
,
00001000
00000000
00000010
00000010
,
00000001
00000000
00000000
00000000
,
00000100
00000000
00000010
00000010
,
00001000
00000000
00000001
00000000
,
00000100
00000000
00001000
00010000
,
01000000
00000000
10000000
00000000
,
00100000
00000000
00010000
00001000
,
00000100
00000000
00000001
00000000
,
00000010
00000000
00001000
00010000
,
00002000
00000000
00000000
00000000
,
00000000
00000000
00000000
00003000
,
00010000
00000000
00100000
00100000
,
10000000
00000000
00010000
00100000
,
01000000
10000000
00100000
00010000
,
00001000
00010000
00001000
00001000
,
00000010
00000000
00000001
00000001
,
00000100
00000000
00000010
00001000
,
00000200
00000000
00000000
00000000
,
00000000
00000000
00000000
00000300
,
00000010
00001000
00010000
00001000
,
00000010
00000001
00000100
00000100
,
00001000
00010000
01000000
10000000
,
01000000
00010000
01000000
10000000
,
00100000
01000000
00010000
10000000
,
00010000
01000000
00100000
00100000
,
00010000
00001000
00000010
00000001
,
00001000
00000100
00000010
00000001
,
00000000
00000000
00000000
00000000
,
00000000
00000000
00000000
00000000
,
00000000
00000000
00000000
00000000
,
00000000
00000000
00000000
00000000
,
00000001
00000000
00000000
00000000
,
00000000
00000000
00000000
00000000
,
00000100
00000000
00000000
00000000
,
00001000
00000000
00000000
00000000
,
00010000
00100000
10000000
00100000
,
00010000
00001000
00000010
00001000
,
00010000
01000000
10000000
00100000
,
00010000
00001000
00000010
00000001
,
00000100
00001000
00010000
00001000
,
00000100
00000001
00000010
00000001
,
00000100
00001000
00010000
01000000
,
10000000
00100000
01000000
00010000
,
10000000
01000000
00010000
00001000
,
00010000
00100000
00010000
00001000
,
00000100
00000100
00000001
00000001
,
00001000
00000001
00001000
00000110
,
00000001
00000100
00001000
00010000
,
00001000
00000100
00001000
00010000
,
01000000
01000000
10000000
10000000
,
00100000
01000000
00100000
10010000
,
02000000
00000000
00000000
00000000
,
00000000
00000000
00000000
00000000
,
00000000
00000000
00000000
00000000
,
00000000
03000000
00000000
00000000
;

//---------------dance-single - ----------------
#NOTES:
     dance-single:
     :
     Challenge:
     15:
     0.806211,1.267480,0.205808,0.032496,0.552432,521.000000,502.000000,19.000000,3.000000,0.000000,0.000000,0.806211,1.267480,0.205808,0.032496,0.552432,521.000000,502.000000,19.000000,3.000000,0.000000,0.000000:
// measure 0
0000
0000
0000
0000
,  // measure 1
0000
0000
0000
0000
,  // measure 2
2000
0000
0000
0000
0001
0000
0001
0000
3100
0000
0010
0000
0100
0000
0001
0000
0010
0000
0100
0000
1000
0000
0010
0000
1000
0100
1000
0000
0001
0000
0000
0000
,  // measure 3
0201
0000
0000
0000
0010
0000
0001
0000
1300
0000
0100
0000
0010
0000
0001
0000
1001
0000
1000
0000
1010
0000
0010
0000
0110
0000
0100
0000
0001
1000
0001
1000
,  // measure 4
0001
0000
0101
0000
0100
0010
1000
1000
,  // measure 5
0100
0000
0001
0000
0100
0000
1000
0000
0010
0001
0010
0000
1000
0000
1000
0000
,  // measure 6
0001
0000
0101
0000
0100
0010
1000
0010
,  // measure 7
0100
0001
0100
0000
0010
0000
1000
0000
0001
0000
0010
0000
0001
1000
0001
0000
,  // measure 8
1000
0010
0100
0000
0100
0010
1000
0000
0001
0010
0001
0000
0010
0100
0010
0000
,  // measure 9
0100
1000
0100
0000
1000
0001
1000
0000
0001
0100
0001
0000
0100
0010
0100
0000
,  // measure 10
0010
1000
1100
0000
0001
0010
1000
0001
,  // measure 11
0100
0000
1000
0000
0001
0100
0000
0000
0010
1000
0010
0000
1000
0001
1000
0000
,  // measure 12
0100
0000
0011
0000
0100
1000
0100
0001
,  // measure 13
0010
0000
1000
0000
0010
0000
0001
0000
0100
0010
1000
0000
0010
0000
0100
0000
,  // measure 14
0001
0000
0000
0000
1001
0000
0000
0000
1000
0000
0010
0000
0100
0001
0100
0000
,  // measure 15
0001
1000
0001
0000
0100
0000
0010
0000
1000
0000
0100
0000
0010
0001
0010
0001
,  // measure 16
0010
0000
0001
0000
1000
0100
1000
0000
0010
0000
0100
0000
0001
1000
0001
0000
,  // measure 17
0100
0000
0010
0000
1000
0000
0001
0000
0100
0010
0100
0000
0001
0000
0010
0000
,  // measure 18
0100
1000
0000
1010
0000
0110
0000
0101
,  // measure 19
0000
0011
0000
0110
0000
1100
0000
1000
,  // measure 20
0010
0000
0100
0000
0001
0000
0010
0001
0000
0001
0100
0000
0010
1000
0010
0000
,  // measure 21
0100
0000
0001
0000
0010
0000
0100
0000
1000
0010
1000
0000
0001
0000
0100
0000
,  // measure 22
0001
0000
0000
0000
0001
0000
1000
0010
0000
0000
1000
0000
0001
0000
0100
0000
,  // measure 23
1000
0100
1000
0000
0100
0000
0001
0010
0001
0000
0100
0000
0010
0000
1000
0000
,  // measure 24
1001
0000
0000
0000
0001
0000
0100
0001
0000
1000
0001
0000
0010
0000
1000
0000
,  // measure 25
0010
0001
0010
0000
1000
0000
0010
0001
0100
0000
0001
0000
1000
0000
0001
0000
,  // measure 26
0000
1000
0000
0001
0000
0100
0000
0010
,  // measure 27
1000
0010
0000
0100
0000
0001
0000
0010
,  // measure 28
0001
1000
0100
0001
0010
0001
0100
0001
,  // measure 29
0010
0001
0100
0001
0010
0001
1100
0000
,  // measure 30
0010
1000
0100
0010
1000
0010
0100
0010
,  // measure 31
1000
0010
0100
0010
1000
0010
0100
1000
,  // measure 32
0100
0010
0001
0100
1000
0010
1000
0100
,  // measure 33
1000
0010
1000
0100
1000
0010
1000
0100
,  // measure 34
0010
1000
0001
0000
0100
0010
1000
0100
,  // measure 35
0001
1000
0010
0001
1000
0010
0100
0001
,  // measure 36
0100
0000
0010
1000
0000
0000
1000
0001
0000
0000
0001
0100
0000
0000
0100
1000
,  // measure 37
0000
0000
1000
0100
0000
0000
0100
0001
0000
0000
0001
0010
0000
0000
0010
1000
,  // measure 38
0000
0000
1000
0010
0000
0000
0010
0001
0000
0000
0001
0100
0000
0000
0100
0010
,  // measure 39
0000
0000
0010
1000
0000
0000
1000
0001
0000
0000
0001
0100
0000
0000
0100
1000
,  // measure 40
0000
0000
1000
0001
0000
0000
0001
0010
0000
0000
0010
1000
0000
0000
1000
0001
,  // measure 41
0000
0000
0001
0100
0000
0000
0100
0010
0000
0000
0010
1000
0000
0000
1000
0100
,  // measure 42
0000
0000
0100
0010
0000
0000
0010
0001
0000
0000
0001
1000
0000
0000
1000
0010
,  // measure 43
0000
0000
0010
0100
0000
0000
0100
0000
0001
0000
0010
0000
1000
0000
0010
0000
,  // measure 44
0001
0100
0001
0000
0010
0000
1000
0000
0010
0000
0001
0000
0010
0000
1000
0000
,  // measure 45
0010
0000
0001
0000
0010
0000
1000
0000
0010
0001
0010
0000
1000
0000
0000
0000
,  // measure 46
0010
0001
0100
1000
0100
0001
0100
1000
,  // measure 47
0100
0001
0100
0000
1000
0000
0100
0000
0001
0010
0001
0000
0010
0000
0100
0000
,  // measure 48
0010
0000
1000
0000
0010
0100
0000
0100
0010
0000
1000
0000
0010
0000
0000
0000
,  // measure 49
0001
0000
0010
0000
0100
0000
0010
0000
0001
0000
0010
0100
0000
0100
0010
0000
,  // measure 50
0001
1000
0100
1000
0010
0100
0010
1000
,  // measure 51
0100
0000
0010
0000
0001
0000
0100
0000
0001
1000
0001
1000
0001
0000
0010
0000
,  // measure 52
0100
0000
0000
0000
1001
0000
0100
0000
0010
0000
0001
0000
0100
0010
1000
0000
,  // measure 53
0010
0100
0001
0000
0010
0000
1000
0000
0010
0000
0001
0100
0001
0000
1000
0000
,  // measure 54
0100
0010
0100
0000
0010
0001
0010
0000
0001
1000
0001
0000
1000
0010
1000
0000
,  // measure 55
0010
0100
0010
0000
0100
0001
0100
0000
0001
0010
0100
0000
1000
0000
0010
0000
,  // measure 56
0100
0000
0001
0000
0010
0001
0010
0000
0100
0000
1000
0000
0100
0000
0010
0000
,  // measure 57
0001
1000
0010
0000
0100
0010
0100
0000
0001
0000
0010
0000
1000
0000
0010
0000
,  // measure 58
0001
0100
1000
0010
1000
0100
0001
0100
,  // measure 59
1000
0000
0100
0000
0010
0000
0001
0000
1000
0010
1000
0000
0001
0000
0100
0000
,  // measure 60
2001
0000
0000
0000
,  // measure 61
0000
0000
0000
0000
,  // measure 62
0000
0000
0000
0000
,  // measure 63
0000
3000
0000
0000
;
