#TITLE:Six String Proof;
#SUBTITLE:;
#ARTIST:BEMANI Sound Team "Yvya × Mutsuhiko Izumi";
#TITLETRANSLIT:;
#SUBTITLETRANSLIT:;
#ARTISTTRANSLIT:;
#GENRE:;
#CREDIT:;
#BANNER:;
#BACKGROUND:;
#LYRICSPATH:;
#CDTITLE:;
#MUSIC:Six String Proof.ogg;
#OFFSET:0.000000;
#SAMPLESTART:86.739998;
#SAMPLELENGTH:15.000000;
#SELECTABLE:YES;
#BPMS:0.000000=130.000000
;
#STOPS:
;
#BGCHANGES:;
#KEYSOUNDS:;
#ATTACKS:;

//---------------dance-single - ----------------
#NOTES:
     dance-single:
     :
     Beginner:
     2:
     0.113404,0.159700,0.065374,0.093392,0.000000,85.000000,78.000000,7.000000,10.000000,0.000000,0.000000,0.113404,0.159700,0.065374,0.093392,0.000000,85.000000,78.000000,7.000000,10.000000,0.000000,0.000000:
0000
0000
0000
0000
,
0000
0000
0000
0000
,
0000
0000
0000
0000
,
0000
0000
0000
0000
,
0000
0000
0000
0000
,
1000
0000
1000
0000
,
0100
0000
1000
0000
,
0010
0000
0010
0000
,
0010
0000
0000
0000
,
0001
0000
0100
0000
,
0001
0000
0010
0000
,
0002
0000
0000
0000
,
0003
0000
0000
0000
,
1000
0000
0100
0000
,
1000
0000
0010
0000
,
2000
0000
0000
0000
,
3000
0000
0000
0000
,
1001
0000
0000
0000
,
1001
0000
0000
0000
,
1001
0000
0000
0000
,
1001
0000
0000
0000
,
1000
0000
0100
0000
,
0001
0000
0000
0000
,
0001
0000
0010
0000
,
1000
0000
0000
0000
,
1000
0000
0010
0000
,
0001
0000
0000
0000
,
0001
0000
0100
0000
,
1000
0000
0000
0000
,
1000
1000
1000
0000
,
2002
0000
3003
0000
,
0001
0000
0000
0000
,
1000
0000
0100
0000
,
0001
0000
0010
0000
,
0100
0000
1000
0000
,
0001
0000
0000
0000
,
0001
0000
0000
0000
,
1000
0000
0100
0000
,
0010
0000
0001
0000
,
0002
0000
0003
0000
,
0200
0000
0300
0000
,
2000
0000
3000
0000
,
0020
0000
0030
0000
,
0200
0000
0300
0000
,
0002
0000
0003
0000
,
1001
0000
0000
0000
,
0000
0000
0000
0000
,
1000
1000
1000
0000
,
1000
0000
1000
0000
,
0010
0000
0100
0000
,
0001
0000
0000
0000
,
0001
0001
0001
0000
,
0001
0000
0001
0000
,
0010
0000
0100
0000
,
1000
0000
0000
0000
,
1000
0000
0001
0000
,
1000
0000
0001
0000
,
1001
0000
0000
0000
;

//---------------dance-single - ----------------
#NOTES:
     dance-single:
     :
     Easy:
     7:
     0.269502,0.319399,0.168105,0.149427,0.000000,202.000000,184.000000,18.000000,16.000000,0.000000,0.000000,0.269502,0.319399,0.168105,0.149427,0.000000,202.000000,184.000000,18.000000,16.000000,0.000000,0.000000:
0000
0000
0000
0000
,
0000
0000
0000
0000
,
0000
0000
0000
0000
,
0000
0000
0000
0000
,
0000
0000
0000
0000
,
1000
0100
1000
0100
,
0010
0001
0010
0000
,
0001
1000
0001
1000
,
2002
0000
0000
3003
,
0100
0001
0100
0010
,
1000
0100
0010
0001
,
1000
1000
0010
0000
,
0001
0001
0010
0000
,
0100
1000
0100
0010
,
0001
0100
0010
1000
,
0001
0001
0010
0000
,
1000
1000
0010
0000
,
2002
0000
0000
0000
,
0000
0000
0000
3003
,
0010
0010
0010
0010
,
0010
0010
0010
0000
,
1000
0000
0100
0000
0010
0001
0010
0000
,
0100
1000
0010
0010
,
0100
0001
0100
0000
0010
0000
0000
0000
,
1000
0100
1000
0000
0010
0000
0000
0000
,
0100
0001
1000
1000
,
0100
1000
0001
0001
,
1000
0100
0001
0100
,
1000
0010
0001
0000
,
2002
0000
0000
3003
,
0220
0000
0330
0000
,
0100
0000
0001
0000
1000
0010
1000
0000
,
0100
0000
0010
0000
0001
1000
0001
0000
,
1000
1000
0100
0001
,
0100
0100
1000
0000
,
0010
0000
1000
0000
0001
0100
0001
0000
,
0010
0000
0100
0000
1000
0001
1000
0000
,
0001
0001
0010
1000
,
0010
0010
0001
0000
,
2002
3003
0001
0010
,
0011
0011
1100
0000
,
2002
0000
0000
3003
,
0100
0010
0100
0000
0010
0100
0010
0000
,
1000
0001
1000
0000
2002
0000
3003
0000
,
0001
0010
0100
1000
,
0000
1000
0100
0100
,
0010
0010
2002
3003
,
0001
0010
0001
0010
,
1000
0010
0001
0100
,
0010
1000
0010
0000
1000
0100
1000
0000
,
1100
0000
1001
0000
,
1000
0010
1000
0010
,
0001
0010
1000
0100
,
0010
0001
0010
0000
0001
0100
0001
0000
,
0101
0000
1001
0000
,
1000
0110
0001
0110
,
1000
0001
1000
0001
,
1001
0000
0000
0000
;

//---------------dance-single - ----------------
#NOTES:
     dance-single:
     :
     Medium:
     12:
     0.470961,0.532332,0.242818,0.168105,0.140087,353.000000,327.000000,26.000000,18.000000,0.000000,0.000000,0.470961,0.532332,0.242818,0.168105,0.140087,353.000000,327.000000,26.000000,18.000000,0.000000,0.000000:
0000
0000
0000
0000
,
0000
0000
0000
0000
,
0000
0000
0000
0000
,
0000
0000
0000
0000
,
0000
0000
0000
0000
,
1000
1000
0001
0001
,
1000
1000
0001
0001
,
1000
0001
1000
0001
,
2002
0000
0000
3003
,
0100
0010
0100
0000
0010
0000
0000
1001
0000
0000
0110
0000
0000
1001
0000
0000
,
0100
0001
0010
0000
0100
1000
0010
0000
,
1000
0010
0001
0000
0001
0010
1000
0000
,
0001
0010
1000
0010
0001
0000
1001
0000
,
0010
0100
0010
0000
0100
0000
0000
1001
0000
0000
0110
0000
0000
1001
0000
0000
,
0010
1000
0100
0000
0010
0001
0100
0000
,
0001
0100
1000
0000
1000
0100
0001
0000
,
1000
0100
0001
0100
1000
0000
1001
0000
,
0200
0010
0000
0010
,
0000
0000
0000
0000
0310
0000
0100
0010
0100
0000
0001
0000
1000
0000
0100
0000
,
0020
0100
0100
0130
,
1000
1000
0001
0001
0010
0100
0110
0000
,
1001
0000
0010
0000
1000
0010
1000
0000
,
1001
0000
0010
0000
0001
0010
0001
0000
,
1000
0010
1000
0000
0100
0000
0000
0000
1000
0000
0010
0000
0100
0000
0000
0000
,
0001
0010
0001
0000
0100
0000
0000
0000
0001
0000
0010
0000
0100
0000
0000
0000
,
1000
0010
0100
1000
0100
0010
1000
0100
,
0010
1000
0010
0100
1000
0010
0100
0000
,
0001
0010
0100
0001
0100
0010
0001
0100
,
0010
0001
0010
0100
0001
0010
0100
0000
,
1001
0000
0100
0010
0100
0010
0100
0020
,
0200
0000
0330
0000
,
1000
0000
0001
0000
0100
0010
0100
0000
0001
0000
1000
0000
0100
0000
0010
0000
,
0001
0000
1000
0000
0010
1000
0010
0000
0100
0000
0001
0000
0010
0000
1000
0000
,
0010
0000
0001
0000
0100
0001
0100
0000
0010
0000
1000
0000
0100
1000
0100
0000
,
0010
0001
1000
0001
0010
0000
0110
0000
,
1000
0000
0010
0000
0100
0001
0100
0000
0001
0000
0010
0000
1000
0000
0010
0000
,
0001
0000
0100
0000
0010
1000
0010
0000
0100
0000
0010
0000
0001
0000
0010
0000
,
1000
0000
0001
0000
0100
0000
0001
1000
0001
0000
1000
0001
1000
0000
0000
0000
,
0010
0001
0010
1000
0001
1000
0010
0100
,
1001
0000
1000
0010
0000
0010
0100
0001
,
1000
1000
1000
0000
0001
0001
0001
0000
,
1000
0100
0010
0001
0100
0010
1000
0001
,
1000
0001
1000
0000
0010
0000
0000
0000
1000
0001
1000
0000
0010
0000
0000
0000
,
0100
0010
2002
3003
,
1000
0010
0001
0010
1000
0000
2002
0000
,
3003
0000
1000
0001
1000
0000
0001
0000
0100
0000
0010
0000
0100
0000
0001
0000
,
0010
0100
1000
0010
0100
0000
1001
0000
,
0100
0001
0100
0000
0001
0000
0000
0011
0000
0000
1010
0000
0000
1100
0000
0000
,
1000
0100
1000
0010
0001
0010
1000
0000
,
0002
0010
2003
0010
,
3200
0010
2300
3001
,
0100
1000
0100
0000
1000
0000
0000
1010
0000
0000
0011
0000
0000
0101
0000
0000
,
0001
0100
0001
0010
1000
0010
0001
0000
,
2000
0010
3002
0010
,
0203
0010
0302
1003
,
1000
0001
1001
0000
0001
1000
1001
0000
,
1000
0000
0000
0001
0000
0000
1000
0000
0000
0000
0000
0000
0001
0000
0000
1000
0000
0000
0001
0000
0000
0000
0000
0000
1000
0000
0000
0000
0000
0000
0000
0000
0000
0000
0000
0000
0010
0000
0000
0000
0100
0000
0000
0000
0010
0000
0000
0000
,
0100
0000
0000
0000
;

//---------------dance-single - ----------------
#NOTES:
     dance-single:
     :
     Hard:
     15:
     0.629726,0.718648,0.289514,0.205462,0.593037,472.000000,441.000000,31.000000,22.000000,0.000000,0.000000,0.629726,0.718648,0.289514,0.205462,0.593037,472.000000,441.000000,31.000000,22.000000,0.000000,0.000000:
0000
0000
0000
0000
,
0000
0000
0000
0000
,
0000
0000
0000
0000
,
0000
0000
0000
0000
,
0000
0000
0000
0000
,
0001
0100
0001
0000
1000
0100
1000
0000
,
0001
0100
0001
0000
1000
0100
1000
0000
,
0010
1000
0100
0000
0010
0001
0100
0000
,
2002
0000
0000
3003
,
0001
0100
0001
0000
0100
0010
0000
0010
1000
0000
1000
0001
0000
0001
0010
0000
,
0100
0000
0001
0000
0100
0000
1000
0000
0010
0100
0010
0000
1000
0001
1000
0001
,
2000
0000
0000
0000
3001
0000
0010
0000
1000
0000
0010
0000
0001
0100
0000
0110
,
0000
0000
1000
0100
1000
0100
0010
0000
0001
0100
0001
0000
1001
0000
0000
0000
,
1000
0100
1000
0000
0100
0010
0000
0010
0001
0000
0001
1000
0000
1000
0010
0000
,
0100
0000
1000
0000
0100
0000
0001
0000
0010
0100
0010
0000
0001
1000
0001
1000
,
0002
0000
0000
0000
1003
0000
0010
0000
0001
0000
0010
0000
1000
0100
0000
0110
,
0000
0000
0001
0100
0001
0100
0010
0000
1000
0100
1000
0000
1001
0000
0000
0000
,
0002
0100
0000
0100
,
0000
0000
0000
0000
0000
0000
0103
0000
0000
0001
0100
0001
0100
0000
0000
0010
0000
0000
1000
0000
0000
0000
0000
0000
,
2000
0000
0000
0000
3001
0000
1000
0100
1000
0000
1000
0100
1000
0000
0000
0000
,
0100
0100
1100
1100
1001
1001
0110
0000
,
0001
0010
0001
0000
0010
0000
0000
0110
0000
0011
0000
0100
0010
0000
1000
0010
,
0100
0000
1000
0100
0020
0000
0000
1030
0010
0000
0100
0000
0110
0000
0000
0000
,
0001
0010
0000
0100
0001
0000
0100
0010
0000
0001
0100
0000
0002
0000
0000
0000
,
1003
0010
0000
0100
1000
0000
0100
0010
0000
1000
0100
0000
2000
0000
0000
0000
,
3000
0000
0010
0100
0010
0000
0000
0100
0001
0000
0010
0100
0010
0000
0000
0000
,
0001
0100
0010
0000
0100
0001
0100
0000
0001
0000
0010
0000
0110
0000
0000
0000
,
1000
0000
0000
0010
0100
0010
0100
0000
0000
0010
1000
0010
1000
0000
0000
0010
0100
0010
0100
0000
0000
0000
0000
0000
,
0010
1000
0010
1000
0100
0000
0000
0000
0010
0000
0010
0000
0010
0000
0000
0000
,
2001
0000
0001
0001
0001
0001
0001
0001
,
0002
0000
3003
0000
1000
0100
0010
0001
,
1001
0000
0000
0000
1000
0000
0010
0100
0010
0000
1000
0000
0010
0000
0100
0000
,
0001
0000
0000
0000
0010
0000
2002
0000
0000
0000
0000
0000
3003
0000
0010
1000
,
0100
0000
0010
0001
0100
0000
0010
1000
0100
0000
0010
0001
0100
0000
0100
0001
,
0010
0000
0100
1000
0010
0000
0100
0001
0010
0000
0100
1000
0100
0010
0001
0000
,
0010
0000
0001
0000
0100
0010
1000
0000
0010
0000
0100
0000
0001
1000
0100
0000
,
0010
0000
0000
0000
0001
0000
0220
0000
0000
0000
0000
0000
0330
0000
1000
0100
,
0002
0000
0000
0000
0003
0000
0001
0100
1000
0100
1000
0010
0100
0000
0001
0000
,
1000
0100
1000
0000
0001
0010
0100
0000
1000
0001
1000
0000
0100
0010
0001
0000
,
2000
0000
0000
3002
0000
0000
0103
0010
,
1000
0001
1000
0001
0000
0000
0010
0000
0000
0100
0000
0000
1000
0001
1000
0001
0000
0000
0100
0000
0000
0010
0000
0000
,
2002
0000
0000
3003
,
1000
0001
1000
0000
0100
1000
0100
0000
1000
0001
1000
0000
0010
0000
0000
0000
,
1000
0000
0100
0010
0100
0000
0000
0000
2002
0000
0000
0000
3003
0000
0000
0000
,
0010
1000
0010
1000
0000
0000
0001
0100
0001
0100
0000
0000
0010
0100
0010
0100
0000
0000
0110
0000
0000
0000
0000
0000
,
0000
0000
0010
1000
0010
0000
0100
0000
0001
0000
0010
0000
1000
0000
0010
0000
,
0001
0100
1000
0100
0001
1000
1001
0000
,
0001
0100
0001
0000
0100
0010
0000
0010
0001
0000
0001
0010
0000
0010
1000
0000
,
0010
0100
0010
1000
0010
0000
0100
0000
0001
0010
0001
0000
1000
0000
0100
0000
,
1001
0000
0000
0000
0001
0000
0100
0000
1000
0000
0100
0000
0001
0100
0000
0110
,
0000
0000
1000
0100
0010
0000
0100
0010
0001
0000
0100
0000
0110
0000
0000
0000
,
1000
0100
1000
0000
0100
0010
0000
0010
1000
0000
1000
0010
0000
0010
0001
0000
,
0010
0100
0010
0001
0010
0000
0100
0000
1000
0010
1000
0000
0001
0000
0100
0000
,
1001
0000
0000
0000
1000
0000
0100
0000
0001
0000
0100
0000
1000
0100
0000
0110
,
0000
0000
0001
0100
0010
0000
0100
0010
1000
0000
0100
0000
0110
0000
0000
0000
,
0001
0010
0100
0000
1001
0000
0000
0000
1000
0010
0100
0000
1001
0000
0000
0000
,
0001
0010
0001
0010
0000
0000
0100
1000
0100
1000
0000
0000
0001
1000
0001
1000
0000
0000
0001
0000
1000
0000
0001
0000
,
1001
0000
0000
0000
;

//---------------dance-double - ----------------
#NOTES:
     dance-double:
     :
     Medium:
     11:
     0.426933,0.532332,0.177444,0.121409,0.056035,320.000000,301.000000,19.000000,13.000000,0.000000,0.000000,0.426933,0.532332,0.177444,0.121409,0.056035,320.000000,301.000000,19.000000,13.000000,0.000000,0.000000:
00000000
00000000
00000000
00000000
,
00000000
00000000
00000000
00000000
,
00000000
00000000
00000000
00000000
,
00000000
00000000
00000000
00000000
,
00000000
00000000
00000000
00000000
,
10000000
01000000
00100000
01000000
,
00010000
00001000
00010000
00010000
,
00001000
00000100
00000010
00000100
,
00000002
00000000
00000000
00000003
,
00000100
00000000
00000001
00000000
00000100
00000000
00000000
00001000
00000000
00000000
00010000
00000000
00000000
00100000
00000000
00000000
,
00010000
00001000
00000010
00000000
00000010
00000001
00000100
00000000
,
00000001
00001000
00000100
00010000
00001000
00100000
00010000
00000000
,
00100000
00001000
00010000
00001000
01000000
00010000
10000000
00000000
,
01000000
00000000
10000000
00000000
01000000
00000000
00000000
00010000
00000000
00000000
00001000
00000000
00000000
00000010
00000000
00000000
,
00001000
00010000
00100000
00000000
00100000
10000000
01000000
00000000
,
10000000
00010000
01000000
00001000
00010000
00000010
00001000
00000000
,
00000010
00010000
00001000
00010000
00000100
00001000
00000001
00000000
,
00000220
00000000
00000000
00000000
,
00000000
00000000
00000330
00001000
00010000
00001000
00010000
00000000
,
02200000
00000000
00000000
03300000
,
10000000
00010000
10000000
00010000
10000000
00010000
10000000
00000000
,
00100000
10000000
01000000
00000000
00100000
00000000
00001000
00010000
,
00001000
00000000
00011000
00000000
00100000
00010000
01000000
00000000
,
00110000
00011000
00001010
00000011
,
00000101
00001100
00011000
00110000
,
00010000
00100000
00010000
01000000
00100000
10000000
01000000
00010000
,
01000000
10000000
00100000
00010000
00001000
00001000
00001000
00000000
,
00010000
00000100
00001000
00000100
00000010
00000001
00000100
00000001
,
00001000
00000100
00000001
00000100
00000010
00001000
00010000
00000000
,
00011000
00000000
00010000
00001000
00010000
00001000
00010000
00002000
,
00020000
00000000
00033000
00000000
,
00100000
00000000
00010000
00000000
10000000
01000000
10000000
00000000
00100000
00000000
01000000
00000000
00001000
00000000
00010000
00000000
,
00001000
00000000
00000010
00000000
00000001
00000010
00000001
00000000
00001000
00000000
00000010
00000000
00000100
00000000
00000001
00000000
,
00000100
00001000
00010000
00001000
00000010
00001000
00010000
00100000
,
00010000
00001000
00010000
01000000
10000000
00000000
10010000
00000000
,
00100000
00000000
01000000
00000000
00010000
00100000
00010000
00000000
10000000
00000000
01000000
00000000
00010000
00000000
00001000
00000000
,
00000010
00000000
00000100
00000000
00001000
00000010
00001000
00000000
00000001
00000000
00000100
00000000
00000001
00000000
00000010
00000000
,
00000220
00000000
00000330
00000010
00001000
00001000
00010000
00010000
,
01000000
01000000
00100000
00100000
00001000
00001000
00010000
00010000
,
00011000
00000000
00000100
00000010
00000000
00000010
00000001
00000000
,
00000001
00000100
00001000
00000000
00010000
00100000
10000000
00000000
,
20020000
00000000
00000000
30030000
,
00100000
10000000
01000000
10000000
00010000
00100000
00001000
00000000
,
00000010
00000100
00002002
00003003
,
00000001
00000010
00001000
00000000
00001000
00000010
00000001
00000000
,
00000000
00000001
00000100
00000001
00001000
00000100
00010000
00001000
,
01000000
00010000
10000000
00100000
01000000
00000000
10010000
00000000
,
00100000
00000000
10000000
00000000
00100000
00000000
00000000
00010000
00000000
00000000
00001000
00000000
00000000
00000010
00000000
00000000
,
00001000
00010000
01000000
00000000
01000000
10000000
00100000
00000000
,
10000000
00010000
00100000
00010000
00001000
00000100
00001000
00000000
,
00000100
00010000
00001000
00010000
00000010
00001000
00000001
00000000
,
00000010
00000000
00000001
00000000
00000010
00000000
00000000
00001000
00000000
00000000
00010000
00000000
00000000
00100000
00000000
00000000
,
00010000
00001000
00000100
00000000
00000100
00000001
00000010
00000000
,
00000001
00001000
00000010
00001000
00010000
01000000
00010000
00000000
,
01000000
00001000
00010000
00001000
00100000
00010000
10000000
00000000
,
10000000
01000000
00100000
00010000
,
00001000
00000100
00000010
00000001
,
00001001
00000000
00000000
00000000
;

//---------------dance-double - ----------------
#NOTES:
     dance-double:
     :
     Hard:
     14:
     0.567021,0.638799,0.168105,0.093392,0.359558,425.000000,407.000000,18.000000,10.000000,0.000000,0.000000,0.567021,0.638799,0.168105,0.093392,0.359558,425.000000,407.000000,18.000000,10.000000,0.000000,0.000000:
00000000
00000000
00000000
00000000
,
00000000
00000000
00000000
00000000
,
00000000
00000000
00000000
00000000
,
00000000
00000000
00000000
00000000
,
00000000
00000000
00000000
00000000
,
00000001
00000100
00000010
00000000
00001000
00000100
00000010
00000000
,
00001000
00010000
01000000
10000000
00010000
10000000
00010000
00000000
,
10000000
01000000
00100000
00000000
00010000
01000000
00100000
00000000
,
00022000
00000000
00000000
00033000
,
00000100
00001000
00000100
00000000
00001000
00000100
00000000
00000100
00000010
00000000
00000010
00000001
00000000
00000001
00000100
00000000
,
00000010
00001000
00000100
00000001
00000100
00010000
00001000
00100000
,
00001000
00000000
00010000
00000000
00000100
00000000
00000010
00000000
00001000
00000000
00010000
00000000
00100000
01000000
00000000
01100000
,
00000000
01000000
00001000
00010000
01000000
10000000
00010000
00000000
,
01000000
00010000
01000000
00000000
00010000
01000000
00000000
01000000
00100000
00000000
00100000
10000000
00000000
10000000
01000000
00000000
,
00100000
00010000
01000000
10000000
01000000
00001000
00010000
00000010
,
00010000
00000000
00001000
00000000
01000000
00000000
00100000
00000000
00010000
00000000
00001000
00000000
00000010
00000100
00000000
00000110
,
00000000
00000100
00010000
00001000
00000100
00000001
00001000
00000000
,
00000020
00000100
00000000
00001000
,
00000000
00000000
00000000
00000000
00010030
00000000
00001000
00010000
00001000
00000000
01000000
00000000
00100000
00000000
00000000
00000000
,
02000000
00100000
00000000
03010000
,
00001000
00001000
00010000
00010000
00001000
00010000
00011000
00000000
,
00001000
00000000
00000010
00000000
00000001
00000000
00000100
00000010
00000000
00000100
00000000
00001000
00010000
00000000
00001000
00010000
,
00001000
00000000
01000000
00010000
01000000
00000000
00100000
10000000
01000000
00000000
00100000
00000000
00001000
00000000
00000000
00000000
,
00010000
00000100
00000000
00000010
00000001
00000000
00000001
00000100
00000000
00000010
00001000
00000000
00011000
00000000
00000000
00000000
,
00001000
01000000
00000000
00100000
10000000
00000000
10000000
01000000
00000000
00100000
00010000
00000000
00011000
00000000
00000000
00000000
,
00000000
00000000
00000100
00001000
00000100
00000000
00000000
00000010
00000001
00000000
00001000
00000010
00001000
00000000
00000000
00000000
,
00010000
00000000
01000000
00100000
10000000
00000000
01000000
00100000
00010000
00000000
10000000
00000000
01000000
00000000
00000000
00000000
,
00001000
00000000
00000100
00000010
00000100
00000000
00001000
00000001
00001000
00000000
00000010
00000000
00000100
00000000
00000000
00000000
,
00010000
00000000
01000000
00100000
01000000
00000000
00100000
00000000
10000000
00000000
01000000
00000000
01100000
00000000
00000000
00000000
,
00021000
00000000
00001000
00001000
00001000
00001000
00001000
00001000
,
00002000
00000000
00033000
00000000
00001000
00010000
00001000
00010000
,
00000100
00000000
00000010
00000000
00000001
00001000
00000010
00000000
00000100
00000000
00001000
00000000
00010000
00000000
00100000
00000000
,
01000000
00000000
00010000
00000000
10000000
01000000
00100000
00000000
00001000
00000000
00010000
00000000
00000100
00000000
00001000
00000100
,
00001000
00000000
00000001
00000010
00000001
00000000
00000100
00000001
00000100
00000000
00000010
00001000
00000010
00000000
00000100
00001000
,
00000100
00000000
00001000
00010000
00001000
00000000
00010000
00100000
00010000
00000000
00100000
00000000
01000000
00000000
00000000
00000000
,
00010000
00000000
10000000
00000000
00100000
01000000
00010000
00000000
00100000
00000000
01000000
00000000
00010000
00000000
00001000
00000000
,
00000010
00000000
00000001
00000000
00000100
00000010
00001000
00000000
00000100
00000000
00010000
00000000
00001000
00000000
00100000
00000000
,
00010000
00000000
10000000
00000000
00100000
00000000
01000000
00100000
01000000
00000000
00010000
10000000
00010000
00000000
00100000
00000000
,
01000000
00010000
01000000
00000000
00010000
00001000
00010000
00000000
00001000
00000000
00000010
00000000
00000001
00000000
00000100
00000000
,
00000120
00000000
00000000
00000000
00000000
00000000
00002000
00000000
00000000
00000000
00003030
00000000
00000010
00000100
00001000
00000000
,
00010000
00001000
00010000
00001000
00000000
00000000
00100000
00000000
00000000
00010000
00000000
00000000
01000000
00100000
01000000
00100000
00000000
00000000
10000000
00000000
00000000
00000000
00000000
00000000
,
10000000
00100000
00010000
00100000
01000000
00001000
00010000
00001000
,
00010000
00000100
00000010
00000100
00001000
00000010
00000100
00000000
,
00000001
00000010
00000100
00000000
00002002
00000000
00003003
00000000
,
00000010
00001000
00000010
00000000
00010000
00001000
00010000
00000000
00001000
00100000
00001000
00000000
01000000
00000000
00010000
00000000
,
00000000
00000000
10000000
00010000
10000000
00000000
00100000
00000000
10000000
00000000
01000000
00000000
00010000
00000000
00001000
00000000
,
00000010
00000001
00000100
00000010
00000100
00000000
00001001
00000000
,
00000001
00000010
00000001
00000000
00000100
00001000
00000000
00001000
00010000
00000000
00010000
00001000
00000000
00001000
00000010
00000000
,
00001000
00010000
00000100
00010000
00001000
00100000
00010000
01000000
,
00100000
00000000
00010000
00000000
00001000
00000000
00010000
00000000
00100000
00000000
10000000
00000000
01000000
00100000
00000000
01100000
,
00000000
00100000
00001000
00010000
00001000
00100000
01000000
00000000
,
10000000
00100000
10000000
00000000
01000000
00010000
00000000
00010000
00001000
00000000
00001000
00010000
00000000
00010000
00100000
00000000
,
00010000
00001000
01000000
00001000
00010000
00000010
00001000
00000100
,
00000010
00000000
00001000
00000000
00010000
00000000
00001000
00000000
00000010
00000000
00000001
00000000
00000100
00000010
00000000
00000110
,
00000000
00000010
00010000
00001000
00010000
00000010
00000100
00000000
,
00000001
00000110
00001000
00011000
,
00100000
00000000
00000000
01100000
00000000
00000000
10010000
00000000
00000000
10000000
00010000
10000000
,
10010000
00000000
00000000
00000000
;

//---------------dance-single - ----------------
#NOTES:
     dance-single:
     :
     Challenge:
     17:
     0.884552,1.117898,0.270836,0.504315,1.330830,663.000000,634.000000,29.000000,54.000000,0.000000,0.000000,0.884552,1.117898,0.270836,0.504315,1.330830,663.000000,634.000000,29.000000,54.000000,0.000000,0.000000:
// measure 0
0000
0000
0000
0000
,  // measure 1
0000
0000
0000
0000
,  // measure 2
0000
0000
0000
0000
,  // measure 3
0000
0000
0000
0000
,  // measure 4
0000
0000
0000
0000
,  // measure 5
1000
0000
0001
1000
0002
0000
0000
0000
0103
0010
0100
0000
0010
0100
0010
0100
,  // measure 6
0001
0000
0000
1001
0000
0000
1010
0000
0000
0010
1000
0001
1000
0010
1000
0001
,  // measure 7
1000
0000
0010
0100
0020
0000
0000
0000
0130
0001
1000
0001
0010
0100
0010
0000
,  // measure 8
0100
0000
1000
0000
0100
0000
1000
0000
0100
0000
0000
0000
1000
0000
0001
0000
1000
0000
0001
0000
1000
0000
0000
0000
0001
0000
0000
0000
0010
0000
0000
0000
0100
0000
0000
0000
2002
0000
0000
0000
0000
0000
0000
0000
0000
3003
0000
0000
,  // measure 9
0001
0100
1000
0000
0100
0001
0000
0001
0010
0000
0010
0100
0000
0100
1000
0000
,  // measure 10
1000
0100
0010
0001
0100
0010
1000
0100
0010
0001
0100
0010
1000
0100
0010
0001
,  // measure 11
2000
0000
0000
0000
3001
0010
1000
0000
0010
0001
0100
0000
0010
0100
0000
0110
,  // measure 12
0000
0000
0000
0000
0000
0000
1000
0000
0000
0001
0000
0000
1000
0000
0000
0010
0000
0000
1000
0000
0000
0100
0000
0000
1000
0000
0000
0001
0000
0000
0010
0000
0100
0000
0010
0000
0100
0000
0010
0000
0100
0000
0010
0000
0000
0000
0000
0000
,  // measure 13
0100
1000
0001
0000
0001
0100
0000
0100
1000
0000
1000
0010
0000
0010
0001
0000
,  // measure 14
1000
0010
0100
0001
1000
0010
0100
0001
1000
0010
0100
0001
1000
0010
0100
0001
,  // measure 15
2000
0000
0000
0000
3020
0000
0000
0000
0130
0001
0000
0001
1000
0100
1000
0010
,  // measure 16
0100
0001
1000
0001
0100
0010
1000
0010
0100
0001
0010
0001
1000
0010
1000
0100
,  // measure 17
0020
0000
0000
0000
0001
0000
0000
0000
0031
1000
0001
1000
0200
0000
0000
0000
,  // measure 18
1000
0000
0000
0000
0000
0000
1000
0000
0000
0000
0000
0000
1300
0000
0000
0000
0000
0000
0001
0000
0010
0000
0001
0000
0010
0000
0001
0000
0010
0000
0001
0000
0010
0000
0001
0000
0010
0000
0000
0001
0000
0000
0100
0000
0000
0010
0000
0000
,  // measure 19
2000
0000
0000
0000
3001
0000
0100
0000
0001
1000
0001
1000
0001
0000
0100
0000
,  // measure 20
0101
0000
0011
0000
0011
0000
0110
0000
0100
1000
0001
1000
0010
0100
0001
0010
,  // measure 21
0001
0100
1000
0000
2200
0000
3300
0101
0000
0011
0000
0010
0100
0000
0100
0010
,  // measure 22
0002
0000
1003
0001
0200
0000
0310
1000
0001
0100
0001
0000
2002
0000
3003
0000
,  // measure 23
0100
0000
0000
0010
0000
0000
1000
0000
0000
0100
0000
0000
1000
0000
0000
0001
0000
0000
0010
0000
0000
0001
0000
0000
0100
0000
0010
0000
0100
0000
0010
0000
0100
0000
0010
0000
0100
0000
0000
0001
0000
0000
2000
0000
0000
0000
0000
0000
,  // measure 24
3001
0100
1000
0100
0001
1000
0010
1000
0001
0010
1000
0010
0002
0000
0000
0000
,  // measure 25
0003
0000
0000
0000
0000
0000
1000
0000
0000
0001
0000
0000
1000
0000
0000
0000
0000
0000
0000
0000
0000
0010
0000
0000
1000
0000
0000
0000
0000
0000
0100
0000
0010
0000
0100
0000
0020
0000
0000
0000
0000
0000
0000
0000
0000
0000
0000
0000
,  // measure 26
0031
1000
0100
1000
0010
0100
0020
0000
0130
0001
0010
0001
1000
0100
2000
0000
,  // measure 27
3010
0000
0000
0100
0010
0100
0010
0000
0000
0100
0001
0100
0001
0000
0000
0010
0001
0010
0001
0000
0000
1000
0000
0000
,  // measure 28
0100
0000
0000
1000
0000
0000
0001
0000
0000
0010
0000
0000
0001
0000
0000
0100
0000
0000
0010
0000
0000
1000
0000
0000
0001
0000
0010
0000
0001
0000
0010
0000
0000
0000
0000
0000
0001
0000
0010
0000
0001
0000
1000
0000
0000
0000
0000
0000
,  // measure 29
2010
0000
0010
0010
0010
0010
0010
0010
,  // measure 30
3010
0100
0010
0100
0010
0100
0020
0000
0000
0000
0000
0000
2030
0000
0000
3200
0000
0000
0320
0000
0000
0032
0000
0000
,  // measure 31
0203
0000
0301
1000
0001
1000
0000
1000
0010
0000
0100
0000
0001
0000
0010
0000
,  // measure 32
0012
0000
0000
0000
1003
0000
2020
0000
0000
0000
0000
0000
3030
0000
0001
0100
,  // measure 33
1000
0000
1000
0100
0001
0000
1000
0010
0001
0000
0001
0010
1000
0100
1000
0001
,  // measure 34
0100
0000
0000
0000
0000
0000
0100
0000
0000
0010
0000
0000
1000
0000
0000
0000
0000
0000
1000
0000
0000
0001
0000
0000
0010
0000
0000
0100
0000
0000
1000
0000
0000
0001
0000
0000
0010
0000
0100
0000
0010
0000
0100
0000
0010
0000
0100
0000
,  // measure 35
2000
0000
0001
0000
3001
0100
0010
0000
1000
0000
0001
0000
1000
0001
0100
0001
,  // measure 36
0020
0000
0000
0000
0031
0000
2002
0000
0000
0000
0000
0000
3003
0000
1000
0100
,  // measure 37
0020
0000
0000
0000
0030
0000
0100
0010
0001
0100
0010
0100
0001
0100
0010
0000
,  // measure 38
1001
0000
1001
0000
0101
0000
0101
0000
0100
0010
0100
0010
1000
0000
1001
0000
,  // measure 39
2010
0000
0000
0000
0000
0000
3002
0000
0000
0000
0000
0000
1003
0100
1000
0100
,  // measure 40
0010
0000
0001
0000
0010
0000
0001
0000
0000
0010
0000
0000
0001
0000
0000
1000
0000
0000
0010
0000
0000
1000
0000
0000
0010
0000
0100
0000
0010
0000
0100
0000
0000
0010
0000
0000
0100
0000
0001
0000
0100
0000
0001
0000
0100
0000
0001
0000
,  // measure 41
2000
0000
0000
0000
0000
0000
0000
0000
3001
0100
1000
0000
0100
0000
0001
0010
,  // measure 42
0001
1000
0010
1000
0100
0010
0100
1000
0001
0100
0010
0000
0000
0110
0000
0000
,  // measure 43
2010
0001
3002
0000
0203
0000
0310
0000
,  // measure 44
1000
0001
1000
0001
1000
0001
0010
0100
0010
0100
0010
0100
1000
0100
1000
0100
1000
0100
1000
0000
0000
0001
0000
0000
,  // measure 45
1001
0000
1000
0001
0020
0000
2030
0000
3020
0000
0032
0000
0203
0000
0320
0000
,  // measure 46
1030
0100
1000
0100
0000
0000
1000
0000
0000
0001
1000
0001
1000
0000
0100
0000
0010
0000
2002
0000
0000
3003
0000
0000
,  // measure 47
1000
0100
0001
0000
0100
1000
0000
1000
0010
0000
0010
0100
0000
0100
0001
0000
,  // measure 48
0001
0000
0010
0000
0001
0000
0010
0000
0000
0001
0000
0000
0010
0000
0000
0001
0000
0000
1000
0000
0000
0010
0000
0000
0100
0000
0000
0010
0000
0000
0001
0000
0000
0010
0000
0000
0100
0000
0000
0001
0000
0000
0010
0000
0000
0100
0000
0000
,  // measure 49
2000
0000
0000
0000
0000
0000
3001
0100
0001
0100
0001
0100
0001
1000
0001
1000
0001
1000
0010
1000
0010
1000
0010
1000
,  // measure 50
0010
0000
0000
0100
0000
0000
0001
0000
0000
0010
0000
0000
0100
0000
0010
0000
0100
0000
0010
0000
0000
0001
0000
0000
1000
0000
0000
0000
0000
0000
0010
0000
0100
0000
0010
0000
0100
0000
0001
0000
1000
0000
0001
0000
1000
0000
0010
0000
,  // measure 51
0100
0000
0000
0000
0100
0000
0000
0000
0110
0000
0000
0000
0010
0000
0000
1000
0000
0000
0000
0000
0000
1000
0000
0000
0100
0000
0000
0000
0000
0000
0100
0000
0000
0001
0000
0000
0000
0000
0000
0001
0000
0000
0100
0000
0000
0000
0000
0000
,  // measure 52
0100
0000
0000
1000
0000
0000
0010
0000
0000
0001
0000
0000
0010
0000
0000
0100
0000
0000
0001
0000
0000
0010
0000
0000
0100
0000
0000
1000
0000
0000
0010
0000
0000
1000
0000
0000
0001
0000
0100
0000
0001
0000
0100
0000
0001
0000
0100
0000
,  // measure 53
0002
0000
0000
0000
0000
0000
0000
0000
0000
0000
0000
0000
2003
0000
0000
0000
0000
0000
0000
0000
0000
0000
0000
0000
3010
0000
0000
0000
0000
0000
0110
0000
0000
0000
0000
0000
0100
0000
0001
0000
1000
0000
0001
0000
0000
1000
0000
0000
,  // measure 54
0000
0000
0000
0000
0000
0000
0001
0000
0100
0000
0001
0000
0100
0000
0000
0010
0000
0000
1000
0000
0000
0001
0000
0000
0100
0000
0000
0001
0000
0000
0010
0000
0000
0100
0000
0000
2000
0000
0000
0000
0000
0000
0000
0000
0000
0000
0000
0000
,  // measure 55
3001
0100
0010
0000
0010
1000
0000
1000
0001
0100
0001
0000
1000
0001
0100
0000
,  // measure 56
0001
1000
0001
1000
0001
1000
0001
1000
0001
1000
0000
0000
0010
0100
0010
0100
0010
0100
0010
0000
0100
0000
0001
0000
,  // measure 57
1001
0000
0000
0000
;
