#TITLE:Silent Hill;
#SUBTITLE:;
#ARTIST:THOMAS HOWARD;
#TITLETRANSLIT:;
#SUBTITLETRANSLIT:;
#ARTISTTRANSLIT:;
#GENRE:;
#CREDIT:;
#BANNER:Silent Hill.png;
#BACKGROUND:Silent Hill-bg.png;
#LYRICSPATH:;
#CDTITLE:;
#MUSIC:Silent Hill.ogg;
#OFFSET:0.000000;
#SAMPLESTART:33.090000;
#SAMPLELENGTH:15.000000;
#SELECTABLE:YES;
#DISPLAYBPM:125.000000;
#BPMS:0.000000=124.999992
;
#STOPS:
;
#BGCHANGES:;
#KEYSOUNDS:;
#ATTACKS:;

//---------------dance-single - ----------------
#NOTES:
     dance-single:
     :
     Beginner:
     3:
     0.133070,0.174404,0.080128,0.000000,0.000000,93.000000,85.000000,8.000000,0.000000,0.000000,0.000000,0.133070,0.174404,0.080128,0.000000,0.000000,93.000000,85.000000,8.000000,0.000000,0.000000,0.000000:
0000
0000
0000
0000
,
0000
0000
0000
0000
,
0000
0000
0000
0000
,
0000
0000
0000
0000
,
0000
0000
0000
0000
,
0000
0000
0000
0000
,
0000
0100
0000
0000
,
0000
0100
0000
0000
,
0000
0100
0000
0000
,
0000
0100
0000
0000
,
0000
0001
0000
0000
,
0000
1000
0000
0000
,
0000
0001
0000
0000
,
0000
1000
0000
0000
,
0000
0001
0000
0000
,
0000
1000
0000
0000
,
0000
0001
0000
0000
,
0000
1000
0000
0010
,
0000
0100
0000
0010
,
0000
1001
0000
0010
,
0000
0100
0000
0010
,
0000
1001
0000
1000
,
0000
0001
0000
0010
,
0000
0110
0000
0001
,
0000
1000
0000
0010
,
0000
0110
0000
1000
,
0000
1000
0000
1000
,
1000
1000
0000
0001
,
0000
0001
0000
0001
,
0001
0001
0000
1000
,
0000
1000
0000
1000
,
1000
1000
0000
0001
,
0000
0001
0000
0001
,
0001
0001
0000
1000
,
0000
1000
0000
1000
,
1000
1000
0000
0010
,
0000
1001
0000
0100
,
0000
0100
0000
0010
,
0000
0010
0000
0001
,
0000
0001
0000
0100
,
0000
0100
0000
1001
,
0000
1001
0000
0001
,
0000
0001
0000
0001
,
0001
0001
0000
0010
,
0010
0010
0000
0100
,
0100
0100
0000
1000
,
0000
1000
0000
0010
,
0000
0001
0000
0001
,
0000
0001
0000
0100
,
0000
1000
0000
1001
,
0000
0000
0000
0000
;

//---------------dance-single - ----------------
#NOTES:
     dance-single:
     :
     Easy:
     4:
     0.167411,0.224234,0.000000,0.000000,0.000000,117.000000,117.000000,0.000000,0.000000,0.000000,0.000000,0.167411,0.224234,0.000000,0.000000,0.000000,117.000000,117.000000,0.000000,0.000000,0.000000,0.000000:
0000
0000
0000
0000
,
0000
0000
0000
0000
,
0000
0000
0000
0000
,
0000
0000
0000
0000
,
0000
0000
0000
0000
,
0000
0000
0000
0000
,
0000
0100
0000
0000
,
0000
0100
0000
0000
,
0000
0100
0000
0000
,
0000
0100
0000
0001
,
0000
1000
0000
0001
,
0000
1000
0000
0001
,
0000
1000
0000
0001
,
0000
1000
0000
0001
,
0000
1000
0100
0001
,
0100
0001
1000
0000
,
0000
0000
0100
0000
,
0000
0000
1000
0000
,
0001
0000
1000
0000
,
0001
0000
0010
0000
,
0000
0000
0100
0000
,
0000
0000
1000
0000
,
0001
0000
0010
0000
,
0010
0000
0001
0000
,
1000
0000
1000
0000
,
0001
0000
1000
0000
,
0001
0000
0100
0100
,
0100
0100
1000
0000
,
0001
0000
1000
0000
,
0001
0000
1000
0100
,
0100
0100
0001
0100
,
0100
0100
1000
0100
,
0100
0100
0001
0100
,
1000
0100
0001
0001
,
1000
1000
0001
0001
,
1000
1000
0001
0001
,
1000
1000
0100
0001
,
1000
0100
0001
0001
,
1000
1000
0001
0001
,
1000
1000
0001
0010
,
1000
0100
0001
0100
,
1000
0001
1000
1000
,
0001
0001
1000
0001
,
1000
0001
0010
0000
,
0000
0000
0100
0000
,
0000
0000
0010
0000
,
0000
0000
1000
0001
,
1000
0001
0100
0001
,
0100
0001
1000
0100
,
1000
0100
0001
1000
,
0000
0000
0000
0000
;

//---------------dance-single - ----------------
#NOTES:
     dance-single:
     :
     Medium:
     9:
     0.317651,0.475761,0.200321,0.000000,0.000000,222.000000,202.000000,20.000000,0.000000,0.000000,0.000000,0.317651,0.475761,0.200321,0.000000,0.000000,222.000000,202.000000,20.000000,0.000000,0.000000,0.000000:
0000
0000
0000
0000
,
0000
0000
0000
0000
,
0000
0000
0000
0000
,
0000
0000
0000
0000
,
0000
0000
0000
0000
,
0000
0000
0010
1000
,
0100
0001
0100
1000
,
0010
0001
0010
1000
,
0100
0001
0100
1000
,
0001
0001
1000
1000
,
0001
1000
0100
0000
1000
0000
0001
0000
,
1000
0001
0100
0000
0010
0000
0010
0000
,
1000
0000
0001
0000
1000
0000
0100
0100
,
1000
0001
0100
0001
,
1000
0100
1000
0001
,
0100
0001
1000
0000
,
0000
0000
0001
0100
,
0010
0000
1000
0000
0001
1000
0010
0001
,
0010
1000
0100
0001
0100
1000
0010
0001
,
0010
1000
0001
0000
0110
0110
1001
0000
,
1000
0000
1000
0000
1000
1000
0110
0000
,
0110
0001
0100
0100
,
0100
0000
0100
1000
0001
0000
0001
0000
,
0001
0000
0001
0100
0010
0000
0010
0000
,
0010
0000
0010
1000
0001
0000
1000
0000
,
1000
1000
0001
0001
,
0100
0100
1000
1000
,
0100
0000
0100
0000
0001
0000
0001
1000
,
0100
0000
0100
0000
1000
0100
1000
0001
,
0100
0100
0001
1000
,
0001
0000
1000
0100
1000
0000
0001
0000
,
1000
0000
0001
0100
0001
0000
1000
0000
,
0100
0010
0001
0100
,
1000
0100
1001
0100
,
1000
1001
0100
1001
,
0010
1001
0010
1001
,
0100
1001
0100
0100
,
0100
0100
0010
0001
,
0100
0001
1000
0100
,
1000
0010
1000
0001
,
0100
0001
1000
1000
,
1000
1000
0110
1000
,
0010
0110
1000
0110
,
0010
0000
0110
0000
0110
0110
1001
0000
,
1000
0000
1000
0000
1000
1000
0110
0000
,
0110
0000
0001
0000
0001
0000
1000
0100
,
0100
0000
1000
0000
0010
0000
0010
1000
,
0001
0000
0100
0000
0001
0000
0001
1000
,
0100
0100
0010
0001
,
1000
0000
0100
0000
0100
0000
0100
1000
,
0001
0000
0000
0000
,
0000
0000
0000
0000
;

//---------------dance-single - ----------------
#NOTES:
     dance-single:
     :
     Hard:
     10:
     0.400641,0.448468,0.150240,0.000000,0.000000,280.000000,265.000000,15.000000,0.000000,0.000000,0.000000,0.400641,0.448468,0.150240,0.000000,0.000000,280.000000,265.000000,15.000000,0.000000,0.000000,0.000000:
// measure 0
0000
0000
0000
0000
,  // measure 1
0000
0000
0000
0000
,  // measure 2
0000
0000
0000
0000
,  // measure 3
0000
0000
0000
0000
,  // measure 4
0000
0000
0000
0000
,  // measure 5
0000
0000
0000
0000
0001
0000
1000
0100
,  // measure 6
0100
0000
0001
0000
0010
0000
0001
1000
,  // measure 7
1000
0000
0100
0000
1000
0000
0001
0100
,  // measure 8
0100
1000
0010
1000
,  // measure 9
0001
0001
0100
0000
1000
0100
0010
0001
,  // measure 10
0100
0001
1000
0010
1000
0100
0010
0001
,  // measure 11
0100
0001
1000
0100
1000
0100
0010
0001
,  // measure 12
0100
0001
1000
0010
1000
0100
0010
0001
,  // measure 13
0100
0100
0100
0000
0001
0100
0010
1000
,  // measure 14
0100
1000
0001
0010
0001
0100
0010
1000
,  // measure 15
0100
1000
0001
0100
0001
0100
0010
1000
,  // measure 16
0100
1000
0001
0010
0001
0100
0010
1000
,  // measure 17
0100
0100
0100
0000
1001
1000
0100
0000
,  // measure 18
0001
1000
1001
0000
0010
1000
0001
0000
,  // measure 19
1000
0001
1001
0000
0100
0001
1001
0000
,  // measure 20
0010
1000
1001
0000
0010
0000
1000
0000
,  // measure 21
0100
0000
0001
0000
1001
0100
0100
0000
,  // measure 22
1000
0100
0100
0000
0001
0100
0100
0000
,  // measure 23
1000
0100
0100
0000
0001
0010
0100
1000
,  // measure 24
0001
0100
0010
1000
0100
0000
0000
0000
,  // measure 25
1000
0100
0010
0001
1000
0100
0010
0001
,  // measure 26
0100
0000
0001
0000
1000
0100
0010
0001
,  // measure 27
1000
0000
0100
0000
0001
0010
0100
1000
,  // measure 28
0010
0000
1000
0000
0001
0010
0100
1000
,  // measure 29
0001
0100
0010
0010
,  // measure 30
0010
0000
1000
0001
0100
0000
0100
0000
,  // measure 31
0100
0000
0001
1000
0001
0000
0001
0000
,  // measure 32
0001
0000
0010
0100
1000
0000
1000
0000
,  // measure 33
1000
0000
1000
0000
0110
0001
1000
0000
,  // measure 34
0110
1000
0001
1000
0100
1000
0001
0000
,  // measure 35
0110
0001
1000
0001
0100
0100
0100
0000
,  // measure 36
1000
0100
0001
0100
1000
0000
0100
0000
,  // measure 37
0001
0000
0100
0000
1000
0100
0001
0000
,  // measure 38
1000
0010
0001
0000
1000
0100
0001
0000
,  // measure 39
1000
0010
0001
0000
0001
0100
1000
0000
,  // measure 40
0001
0010
1000
0000
0001
0100
1000
0000
,  // measure 41
0001
0010
1000
0000
0010
1000
0001
0000
,  // measure 42
0010
0001
1000
0000
0010
0001
0010
1000
,  // measure 43
0100
0100
0100
0000
0010
0010
0010
0010
,  // measure 44
0010
0010
0010
0000
1001
0000
1001
0000
,  // measure 45
1001
0100
0010
0000
1000
0000
0100
0000
,  // measure 46
0001
0000
0100
0000
1001
0000
0100
0100
,  // measure 47
0100
0100
1000
0100
,  // measure 48
0001
0000
0100
0000
1001
0000
0100
0100
,  // measure 49
0100
0010
0000
1001
;

//---------------dance-double - ----------------
#NOTES:
     dance-double:
     :
     Easy:
     5:
     0.254693,0.345303,0.130208,0.000000,0.000000,178.000000,165.000000,13.000000,0.000000,0.000000,0.000000,0.254693,0.345303,0.130208,0.000000,0.000000,178.000000,165.000000,13.000000,0.000000,0.000000,0.000000:
00000000
00000000
00000000
00000000
,
00000000
00000000
00000000
00000000
,
00000000
00000000
00000000
00000000
,
00000000
00000000
00000000
00000000
,
00000000
00000000
00000000
00000000
,
00000000
00000000
10000000
00000000
,
00010000
00000000
00001000
00000000
,
00000001
00000000
00001000
00000000
,
00010000
00000000
10000000
00000000
,
00010000
00000000
00001000
00000100
,
00000001
00000100
00001000
00000100
,
00010000
00001000
01000000
00010000
,
10000000
01000000
00010000
01000000
,
01000000
01000000
10010000
01000000
,
00010000
00001000
00000100
00000001
,
00001000
00000100
00010000
00001000
,
01000000
00010000
10000000
10000000
,
01000000
01000000
10010000
01000000
,
00010000
00001000
00011000
00000100
,
00000001
00001000
00001001
00000100
,
00001000
00010000
00010000
01000000
,
10000000
00010000
10000000
10000000
,
10000000
10000000
00100000
00100000
,
00010000
00010000
00001000
00001000
,
00000100
00000100
00000001
00000001
,
00001000
00001000
00000001
00001000
,
00010000
00010000
00001000
00010000
,
10000000
10000000
00010000
10000000
,
01000000
01000000
00010000
00010000
,
00010000
00010000
00011000
00011000
,
00000100
00000001
00001001
00001001
,
00000100
00010000
00011000
00011000
,
01000000
10000000
10010000
10010000
,
01000000
00001000
00010000
00100000
,
00010000
00001000
00000010
00001000
,
00010000
00001000
00010000
00100000
,
00010000
00001000
00000010
00000010
,
00000001
00000001
00001000
00000001
,
00001000
00000001
00001000
00001000
,
00000100
00010000
00001000
00001000
,
01000000
00010000
10000000
10000000
,
01000000
01000000
10000000
00010000
,
01000000
00001000
00010000
00000100
,
00001000
00000001
00000100
00000100
,
00000100
00000100
00001001
00000000
,
00000000
00000000
00010000
00001000
,
00010000
01000000
10000000
00010000
,
10000000
00010000
01000000
00001000
,
00010000
00000100
00010000
00001000
,
00010000
00001000
00000000
00000000
,
00000000
00000000
00000000
00000000
;

//---------------dance-double - ----------------
#NOTES:
     dance-double:
     :
     Medium:
     7:
     0.310497,0.373723,0.110176,0.000000,0.000000,217.000000,206.000000,11.000000,0.000000,0.000000,0.000000,0.310497,0.373723,0.110176,0.000000,0.000000,217.000000,206.000000,11.000000,0.000000,0.000000,0.000000:
00000000
00000000
00000000
00000000
,
00000000
00000000
00000000
00000000
,
00000000
00000000
00000000
00000000
,
00000000
00000000
00000000
00000000
,
00000000
00000000
00000000
00000000
,
00000000
00000000
10000000
00010000
,
10000000
01000000
00010000
00000000
00001000
00000000
00010000
00000000
,
00001000
00000100
00000001
00000000
00001000
00000000
00000001
00000000
,
00000100
00001000
00010000
00000000
00001000
00000000
00010000
00000000
,
00100000
00010000
00001000
00000000
00010000
00000000
00010000
00001000
,
00010000
00001000
01000000
00010000
,
10000000
10000000
10000000
00000000
00100000
00010000
00001000
00000000
,
00010000
00000000
00010000
00000000
00010000
01000000
10000000
00000000
,
10000000
00100000
00010000
00000000
00001000
00000000
00001000
00010000
,
01000000
10000000
00100000
00100000
,
10000000
01000000
00010000
00000000
00001000
00000000
00001000
00000000
,
00001000
00000100
00000001
00000000
00001000
00000000
00001000
00000000
,
00000001
00000100
00001000
00000000
00010000
00000000
00010000
00000000
,
00001000
00010000
00001000
00000000
00100000
00000000
00100000
00000000
,
00010000
10000000
01000000
00000000
00010000
00000000
00010000
00000000
,
00001000
00010000
00001000
00000000
00000010
00000000
00000001
00000000
,
00000100
00001000
00010000
01000000
,
10000000
00100000
00010000
00001000
,
00010000
00001000
00000100
00001000
,
00010000
01000000
00010000
00001000
,
00010000
00001000
00010000
00000000
00001000
00000000
00001000
00000100
,
00000001
00000000
00000001
00000000
00001000
00000000
00000010
00001000
,
00000100
00010000
00000000
00001000
,
00000000
00001000
00010000
00010000
,
00010000
00010000
10000000
01000000
,
00010000
00000000
10000000
01000000
00010000
00000000
00001000
00000000
,
00000100
00000000
00000001
00000100
00001000
00000000
00010000
00000000
,
01000000
00000000
10000000
01000000
00010000
00000000
00001000
00000000
,
00001000
00001000
00011000
01100000
,
10000000
00010000
00011000
00000110
,
00000001
00001100
00011000
01010000
,
01000000
10000000
00010000
00001000
,
00000100
00000001
00001001
00000100
,
00010000
00001000
00011000
01000000
,
00010000
00001000
00000100
00001000
,
00010000
00011000
01100000
10000000
,
00010000
10000000
00010000
00010000
,
00001000
00001000
00010000
00010000
,
00001000
00001000
00001000
00000100
,
00000001
00000000
00000010
00000000
00001000
00000100
00000001
00000010
,
00001000
00000100
00000001
00000010
00001000
00000000
00001000
00000000
,
00000001
00000100
00001000
00000000
00010000
00000000
00010000
00000000
,
00010000
01000000
10000000
00000000
00010000
00000000
00010000
00000000
,
10000000
01000000
00010000
00000000
00001000
00000000
00001000
00000000
,
00010000
00000000
00010000
00001000
00000100
00000000
00000100
00000000
,
00000000
00000000
00000000
00000000
;

//---------------dance-double - ----------------
#NOTES:
     dance-double:
     :
     Hard:
     11:
     0.419242,0.448468,0.250401,0.000000,0.000000,293.000000,268.000000,25.000000,0.000000,0.000000,0.000000,0.419242,0.448468,0.250401,0.000000,0.000000,293.000000,268.000000,25.000000,0.000000,0.000000,0.000000:
00000000
00000000
00000000
00000000
,
00000000
00000000
00000000
00000000
,
00000000
00000000
00000000
00000000
,
00000000
00000000
00000000
00000000
,
00000000
00000000
00000000
00000000
,
00000000
00000000
00000000
00000000
00100000
10000000
01000000
00010000
,
00001000
00000100
00000001
00000010
00000001
00000100
00001000
00010000
,
01000000
10000000
00100000
00010000
00100000
10000000
01000000
00010000
,
00001000
00000100
00000001
00000010
00000001
00000100
00001000
00010000
,
01000000
10000000
00100000
00010000
00100000
10000000
01000000
00010000
,
00001000
00000100
00001000
00010000
01000000
00010000
00001000
00000100
,
00000001
00001000
00000001
00000000
00000001
00000000
00000001
00001000
,
00000100
00010000
00001000
00010000
01000000
00010000
00001000
00000100
,
00001000
00010000
00010000
00000000
00001000
00000000
00001000
00010000
,
00001000
00000100
00000001
00001000
,
00000100
00000100
00000100
00000000
00001001
00000000
00001000
00010000
,
01000000
10000000
00100000
00100000
,
00100000
10000000
01000000
00000000
10010000
00000000
01000000
00000000
,
10000000
00010000
01000000
00000000
00011000
00000000
00000100
00000000
,
00010000
00001000
00000100
00000000
00001001
00000000
00000100
00000000
,
00000001
00001000
00000100
00000000
00011000
00000000
01010000
00000000
,
00010000
10000000
00010000
00000000
01100000
00000000
10000000
00000000
,
00010000
00000010
00000001
00000000
00000110
00000000
00000001
00000000
,
00001000
00100000
10000000
00000000
00010000
00000000
10000000
00000000
,
00100000
00010000
00001000
00000000
00000010
00000000
00000001
00000000
,
00001000
00000100
00000010
00000000
00000001
00000000
00000001
00000000
,
00000001
00000000
00000001
00001000
00000100
00000000
00000100
00000000
,
00000100
00000000
00000100
00010000
00001000
00000000
00001000
00000000
,
00001000
00000000
00001000
00100000
00010000
00000000
00010000
00000000
,
00010000
10000000
01000000
10000000
00010000
01000000
10000000
01000000
,
00010000
00100000
10000000
00100000
00001000
00000100
00000001
00000010
,
00001000
00000010
00000001
00000100
00001000
00100000
10000000
00100000
,
00010000
01000000
10000000
01000000
00010000
10000000
01000000
00010000
,
00001000
00010000
00001000
00000100
00001001
00000000
00000100
00000000
,
00000100
00000000
00000100
00001000
00000001
00000000
00000100
00000000
,
00000100
00000000
00000100
00000001
00001000
00000000
00001010
00000000
,
00011000
01010000
01000000
00010000
,
10000000
00000000
01000000
00000000
10010000
01000000
00010000
00000000
,
10010000
01000000
10000000
00000000
00010000
10000000
01000000
00000000
,
00010000
00001000
00000100
00000000
00001000
00010000
01000000
00000000
,
00010000
00001000
00010000
00000000
00011000
00000000
00001100
00000000
,
00000001
00000100
00001000
00000000
00011000
01000000
10000000
00000000
,
10010000
01000000
00010000
00000000
00110000
00010000
00001000
00000000
,
00011000
00001000
00000100
00000000
00001000
00010000
00001000
00010000
,
00001000
00010000
00001000
00010000
00001000
00010000
00001000
00010000
,
00001000
00010000
00001000
00010000
00011000
00000000
00010000
01000000
,
10000000
00000000
10010000
00000000
00100000
00000000
10000000
01000000
,
00010000
00000000
00011000
00000000
00001001
00000000
00000001
00000100
,
00001000
00000000
00011000
00000000
00010000
00001000
00010000
01000000
,
10000000
01000000
00010000
00001000
00000100
00000000
00000001
00000000
,
00000000
00000000
00000000
00000000
;

//---------------dance-couple - ----------------
#NOTES:
     dance-couple:
     :
     Medium:
     1:
     0.271864,0.448468,0.080128,0.000000,0.000000,190.000000,182.000000,8.000000,0.000000,0.000000,0.000000,0.271864,0.448468,0.080128,0.000000,0.000000,190.000000,182.000000,8.000000,0.000000,0.000000,0.000000:
00000000
00000000
00000000
00000000
,
00000000
00000000
00000000
00000000
,
00000000
00000000
00000000
00000000
,
00000000
00000000
00000000
00000000
,
00000000
00000000
00000000
00000000
,
00000000
00000000
00100010
10001000
,
01000100
00010001
10001000
01000100
,
00010001
01000100
00100010
10001000
,
01000100
00010001
01000100
10001000
,
00010001
00000000
00010001
00000000
10000000
01000000
00100001
00010000
,
01000000
00010000
10000001
00100000
10000000
01000000
00100001
00010000
,
01000000
00010000
10000001
01000000
10000000
01000000
00100001
00010000
,
01000000
00010000
10000001
00100000
10000000
01000000
00100001
00010000
,
01000000
01000000
01000001
00000000
00001000
00000100
10000010
00000001
,
00000100
00000001
10001000
00000010
00001000
00000100
10000010
00000001
,
00000100
00000001
10001000
00000100
00001000
00000100
10000010
00000001
,
00000100
00000001
10001000
00000010
00001000
00000100
10000010
00000001
,
00000100
00000100
10000100
00000000
00100000
10000000
00010001
00000000
,
10000000
00010000
10010001
00000000
01000000
00010000
10010001
00000000
,
00100000
10000000
10010001
00000000
00000010
00001000
10000001
00000000
,
00001000
00000001
10001001
00000000
00000100
00000001
10001001
00000000
,
00000010
00001000
10001001
00000000
10010000
01000000
01000001
00000000
,
10000000
01000000
01000001
00000000
00010000
01000000
01000001
00000000
,
10000000
01000000
01000001
00000000
00001001
00000100
10000100
00000000
,
00001000
00000100
10000100
00000000
00000001
00000100
10000100
00000000
,
00001000
00000100
10000100
00000000
00010000
00000000
00000001
00000000
,
01000000
00000100
10000000
00001000
,
01000000
00000100
00010000
00000001
,
01000000
00000000
00000100
00000000
10001000
01000100
10001000
00010001
,
01000100
01000100
00000010
00000010
,
00000010
00000000
10001000
00010001
01000100
00000000
01000000
00000000
,
01000000
00000000
00010001
10001000
00010001
00000000
00000001
00000000
,
00000001
00000000
00100010
01000100
10001000
00000000
10000000
00000000
,
10000000
00000000
10000000
00000000
00000110
00000001
10001000
00000000
,
00000110
00001000
10000001
00001000
00000100
00001000
10000001
00000000
,
00000110
10000001
10001000
00000001
00000100
00000100
10000100
00000000
,
00001000
00000100
10000001
00000100
00001000
00000000
10000100
00000000
,
00000001
10000000
10000100
00000000
00001000
00000100
10000001
00000000
,
00001000
00000010
10000001
00000000
00001000
00000100
10000001
00000000
,
00001000
10000010
10000001
00000000
00000001
00000100
10001000
00000000
,
00000001
00000010
10001000
00000000
00000001
00000100
10001000
00000000
,
00000001
00000010
10001000
00000000
01100000
00010000
10000001
00000000
,
01100000
10000000
00010001
10000000
01000000
10000000
00010001
00000000
,
01100000
00010001
10000001
00010000
01000000
01000000
01000001
00000000
,
10000000
01000000
00010001
01000000
10000000
00000000
01000001
00000000
,
00010000
00000001
01000001
00000000
10000000
01000000
00010001
00000000
,
10000000
00100000
00010001
00000000
10000000
01000000
00010001
00000000
,
10000000
00100001
00010001
00000000
00010000
01000000
10000001
00000000
,
00010000
00100000
10000001
00000000
00010000
01000000
10000001
00000000
,
00010000
00100000
10000001
00000000
00000000
00000000
01011100
00000000
;

//---------------dance-solo - ----------------
#NOTES:
     dance-solo:
     :
     Easy:
     3:
     0.167411,0.224234,0.000000,0.000000,0.000000,117.000000,117.000000,0.000000,0.000000,0.000000,0.000000,0.167411,0.224234,0.000000,0.000000,0.000000,117.000000,117.000000,0.000000,0.000000,0.000000,0.000000:
000000
000000
000000
000000
,
000000
000000
000000
000000
,
000000
000000
000000
000000
,
000000
000000
000000
000000
,
000000
000000
000000
000000
,
000000
000000
000000
000000
,
000000
010000
000000
000000
,
000000
010000
000000
000000
,
000000
010000
000000
000000
,
000000
010000
000000
000010
,
000000
100000
000000
000010
,
000000
100000
000000
000010
,
000000
100000
000000
000010
,
000000
100000
000000
000010
,
000000
100000
000001
001000
,
000001
001000
000100
000000
,
000000
000000
001000
000000
,
000000
000000
100000
000000
,
010000
000000
100000
000000
,
000001
000000
000100
000000
,
000000
000000
000010
000000
,
000000
000000
100000
000000
,
000001
000000
001000
000000
,
001000
000000
000010
000000
,
000010
000000
010000
000000
,
010000
000000
000010
000000
,
100000
000000
000100
000100
,
000100
000100
001000
000000
,
001000
000000
000001
000000
,
100000
000000
000100
001000
,
001000
001000
000001
001000
,
001000
001000
100000
001000
,
001000
001000
000001
000100
,
001000
100000
000001
000001
,
100000
100000
000001
000001
,
100000
100000
000001
000001
,
100000
100000
001000
000010
,
000010
100000
000001
000001
,
100000
100000
000001
000001
,
100000
100000
000001
001000
,
000100
100000
000001
100000
,
000100
001000
000001
000001
,
100000
100000
000001
100000
,
000001
100000
000100
000000
,
000000
000000
010000
000000
,
000000
000000
000010
000000
,
000000
000000
100000
001000
,
100000
001000
000001
001000
,
000001
001000
100000
000001
,
100000
000001
010000
001000
;

//---------------dance-solo - ----------------
#NOTES:
     dance-solo:
     :
     Medium:
     6:
     0.314789,0.475761,0.200321,0.000000,0.000000,220.000000,200.000000,20.000000,0.000000,0.000000,0.000000,0.314789,0.475761,0.200321,0.000000,0.000000,220.000000,200.000000,20.000000,0.000000,0.000000,0.000000:
000000
000000
000000
000000
,
000000
000000
000000
000000
,
000000
000000
000000
000000
,
000000
000000
000000
000000
,
000000
000000
000000
000000
,
000000
000000
001000
000010
,
001000
010000
001000
000010
,
001000
010000
000001
100000
,
000100
001000
000001
001000
,
000100
100000
000010
000010
,
000010
001000
000010
000000
100000
000000
100000
000000
,
000100
001000
000100
000000
000001
000000
000001
000000
,
010000
000000
010000
000000
000100
000000
001000
001000
,
000010
100000
000001
001000
,
000100
100000
000010
000010
,
100000
000001
001000
000000
,
000000
000000
000001
000010
,
000001
000000
100000
000000
000100
001000
000010
001000
,
000100
001000
000010
001000
000001
100000
000001
010000
,
000001
001000
000001
000000
001100
001100
100001
000000
,
000001
000000
000001
000000
000001
100000
100001
000000
,
001100
000100
001000
001000
,
001000
000000
001000
000010
100000
000000
100000
000000
,
100000
000000
100000
000001
001000
000000
001000
000000
,
001000
000000
001000
000100
100000
000000
000001
000000
,
000001
000001
001000
001000
,
000100
000100
100000
100000
,
000010
000000
000010
000000
001000
000000
000010
001000
,
000001
000000
000001
000000
100000
001000
100000
000000
,
000010
000010
100000
000001
,
100000
000000
000001
001000
000001
000000
100000
000000
,
000100
000000
001000
000100
001000
000000
000001
000000
,
100000
000100
001000
000010
,
100000
000001
001100
001000
,
000100
001100
010000
010001
,
000010
100010
000001
010001
,
100000
100010
001000
001000
,
001000
001000
000100
000001
,
100000
001000
010000
001000
,
010000
001000
100000
000100
,
001000
000010
000001
000001
,
000001
000001
001100
100000
,
000001
100001
000100
000110
,
000100
000000
001100
000000
001100
001100
100001
000000
,
100000
000000
100000
000000
010000
010000
100010
000000
,
100001
000000
000001
000000
000001
000000
010000
001000
,
001000
000000
100000
000000
000100
000000
000100
001000
,
000001
000000
001000
000000
000010
000000
000010
100000
,
001000
001000
000100
000001
,
100000
001000
001000
001000
,
010000
000000
000000
000000
;

//---------------dance-solo - ----------------
#NOTES:
     dance-solo:
     :
     Hard:
     7:
     0.397779,0.448468,0.130208,0.000000,0.000000,278.000000,265.000000,13.000000,0.000000,0.000000,0.000000,0.397779,0.448468,0.130208,0.000000,0.000000,278.000000,265.000000,13.000000,0.000000,0.000000,0.000000:
000000
000000
000000
000000
,
000000
000000
000000
000000
,
000000
000000
000000
000000
,
000000
000000
000000
000000
,
000000
000000
000000
000000
,
000000
000000
000000
000000
000001
000000
010000
000001
,
000001
000000
100000
000000
000100
000000
010000
001000
,
001000
000000
010000
000000
000010
000000
100000
000100
,
000100
001000
000001
010000
,
000010
000010
100000
000000
000001
001000
000100
100000
,
000001
010000
001000
010000
000001
100000
001000
000100
,
000010
001000
000010
001000
000001
100000
000100
100000
,
000010
001000
000010
001000
000001
010000
000100
001000
,
001000
001000
001000
000000
000010
001000
010000
001000
,
000010
001000
010000
001000
000010
001000
000001
001000
,
010000
001000
100000
001000
000100
001000
000001
001000
,
000100
001000
100000
001000
000010
001000
010000
001000
,
001000
001000
001000
000000
100001
000010
100000
000000
,
100001
010000
000001
000000
000100
100000
000001
000000
,
100000
000010
100000
000000
001000
000100
000110
000000
,
100000
000100
010100
000000
000001
000000
001000
000000
,
000100
000000
100000
000000
100001
010000
010000
000000
,
000010
001000
001000
000000
000001
000100
000100
000000
,
100000
001000
001000
000000
000001
000100
001000
100000
,
000001
001000
000100
100000
001000
000000
000000
000000
,
010000
000100
001000
000010
010000
000100
001000
000010
,
010000
000000
000001
000000
100000
001000
000100
000001
,
010000
000000
001000
000000
000001
000100
001000
100000
,
000100
000000
100000
000000
000001
000100
001000
100000
,
000010
001000
000100
000100
,
000100
000000
100000
000010
001000
000000
001000
000000
,
001000
000000
001000
010000
100000
000000
100000
000000
,
100000
000000
000001
001000
000100
000000
000100
000000
,
000100
000000
000100
000000
001100
000010
000001
000000
,
001100
010000
100000
000001
001000
000001
001000
000000
,
100001
010000
000100
100000
001000
001000
001000
000000
,
100000
001000
000001
001000
100000
000000
001000
000000
,
000001
000000
001000
000000
000010
001000
100000
000000
,
100000
001000
000010
000000
000001
001000
010000
000000
,
010000
001000
000001
000000
000001
001000
100000
000000
,
000010
000100
010000
000000
000001
001000
100000
000000
,
000010
000100
010000
000000
000100
000010
100000
000000
,
000010
100000
001000
000000
000100
000001
000100
000001
,
001000
001000
001000
000000
000100
000100
000100
000100
,
000100
000100
000100
000000
100001
000000
100001
000000
,
100001
001000
000100
000000
010000
000000
001000
000000
,
000010
000000
001000
000000
100001
000000
001000
001000
,
001000
001000
000100
001000
,
000010
000000
100000
000000
000001
000000
010000
010000
,
010000
000100
000000
100001
;

//---------------dance-single - ----------------
#NOTES:
     dance-single:
     :
     Challenge:
     11:
     0.429258,0.485276,0.150240,0.851362,0.085136,300.000000,285.000000,15.000000,85.000000,0.000000,0.000000,0.429258,0.485276,0.150240,0.851362,0.085136,300.000000,285.000000,15.000000,85.000000,0.000000,0.000000:
// measure 0
0000
0000
0000
0000
,  // measure 1
0000
0000
0000
0000
,  // measure 2
0000
0000
0000
0000
,  // measure 3
0000
0000
0000
0000
,  // measure 4
0000
0000
0000
0000
,  // measure 5
0000
0000
2001
0100
,  // measure 6
3200
0010
0010
0000
0320
0000
0001
0000
,  // measure 7
0032
0100
0100
0000
0203
0000
0010
0000
,  // measure 8
0320
0000
1000
0000
2030
0100
0100
0000
,  // measure 9
3200
0000
0010
0010
0310
0001
1000
0001
,  // measure 10
0100
0010
1000
0010
0100
0001
0010
0001
,  // measure 11
0000
1000
0001
0100
0020
0000
1030
0001
,  // measure 12
2000
0000
3010
0100
0001
0010
0100
1000
,  // measure 13
0001
0100
0010
0100
0002
0000
2003
0000
,  // measure 14
3020
0000
2030
0100
3100
0001
0100
0000
,  // measure 15
1000
0001
0010
0001
0200
0000
0310
1000
,  // measure 16
0002
1000
0103
0020
0100
0100
1030
1000
,  // measure 17
0001
0000
0010
0000
0001
0100
0001
0000
2001
0000
0000
0000
3010
0000
1000
0000
,  // measure 18
0100
0010
0011
0000
0201
0000
0310
1000
,  // measure 19
0001
1000
0020
0000
0230
0000
0301
1000
,  // measure 20
0020
0000
0130
0001
2001
0000
3002
0000
,  // measure 21
0023
0000
0230
0000
2300
0010
3010
0100
,  // measure 22
0002
1000
1003
0010
0200
0001
0301
1000
,  // measure 23
0020
0100
0130
0001
2000
0000
3020
0000
,  // measure 24
0230
0000
0000
0000
0302
0000
0000
0000
1003
0000
0010
1000
0010
0000
1000
0000
,  // measure 25
0001
0000
0100
0000
0010
0000
1000
0000
0002
0000
0000
0000
0103
0000
0000
0100
,  // measure 26
0010
0100
0000
0000
1002
0000
0000
0000
2003
0000
0000
0000
3001
0000
0000
0001
,  // measure 27
0010
0001
0000
0000
0100
0000
0010
0000
2010
0000
0000
0000
3002
0000
0000
0100
,  // measure 28
0013
0100
0000
0000
0010
0000
1000
0000
0002
0000
0023
0000
0230
0000
2300
0000
,  // measure 29
3001
0010
0001
0000
0100
0000
0000
0000
0120
0000
0000
0000
0230
0000
0000
0000
,  // measure 30
0301
1000
0001
0000
2000
0000
0000
0000
3200
0000
0000
0000
0320
0000
0000
0001
,  // measure 31
0030
0010
0000
0000
0100
0000
1000
0000
0020
0000
0000
0000
0130
0000
0000
0001
,  // measure 32
0000
1001
0000
0000
2000
0000
3200
0000
0320
0000
0032
0000
0203
0000
0320
0000
,  // measure 33
1030
0000
0001
0100
0102
0000
1003
0010
,  // measure 34
1000
0100
0010
0001
0200
0010
0310
1000
,  // measure 35
0002
0000
0203
0000
0301
0010
1000
0100
,  // measure 36
0001
0010
0011
0000
2010
0000
3020
0000
,  // measure 37
0230
0001
0302
0000
2003
0010
3010
0000
,  // measure 38
2000
0100
3100
0000
0020
0001
0031
1000
,  // measure 39
0100
0000
1000
0000
0010
0000
0000
0000
0100
0001
1000
0000
0001
0000
0000
0000
,  // measure 40
0010
0001
0100
0000
0010
1000
0001
1000
,  // measure 41
0010
0100
0001
0010
0012
0000
1003
0000
,  // measure 42
0100
1000
1020
0000
0230
0000
0301
0010
,  // measure 43
0002
0000
0000
0000
2003
0000
0000
0000
3100
0000
1000
0000
0010
1000
0001
0000
,  // measure 44
1000
0100
0020
0000
0032
0000
0000
0000
,  // measure 45
1003
1000
0010
0100
0002
0000
2003
0000
,  // measure 46
3020
0100
0230
0000
0301
1000
0010
2000
,  // measure 47
0100
3000
0001
0100
0020
0000
2030
0000
,  // measure 48
3200
0010
0310
0000
2001
0001
3100
0100
,  // measure 49
0010
0000
0010
0000
1000
0001
2000
0000
0000
0000
0000
0000
0002
0000
0000
0000
,  // measure 50
3000
0200
0000
0000
,  // measure 51
0303
0000
0000
0000
;
