#TITLE:灼熱Beach Side Bunny;
#SUBTITLE:;
#ARTIST:DJ Mass MAD Izm*;
#TITLETRANSLIT:Shakunetsu Beach Side Bunny;
#SUBTITLETRANSLIT:;
#ARTISTTRANSLIT:;
#GENRE:;
#CREDIT:;
#BANNER:Shakunetsu Beach Side Bunny.png;
#BACKGROUND:Shakunetsu Beach Side Bunny-bg.png;
#LYRICSPATH:;
#CDTITLE:;
#MUSIC:Shakunetsu Beach Side Bunny.ogg;
#OFFSET:0.000000;
#SAMPLESTART:83.116997;
#SAMPLELENGTH:15.000000;
#SELECTABLE:YES;
#BPMS:0.000000=153.000000
;
#STOPS:
;
#BGCHANGES:;
#KEYSOUNDS:;
#ATTACKS:;

//---------------dance-single - ----------------
#NOTES:
     dance-single:
     :
     Beginner:
     3:
     0.200028,0.343638,0.162813,0.000000,0.000000,172.000000,152.000000,20.000000,0.000000,0.000000,0.000000,0.200028,0.343638,0.162813,0.000000,0.000000,172.000000,152.000000,20.000000,0.000000,0.000000,0.000000:
0000
0000
0000
0000
,
0000
0000
0000
0000
,
0000
0000
0000
0000
,
0000
0000
0000
0000
,
0000
0000
0000
0000
,
1000
0000
1000
0000
,
1000
1000
1000
0000
,
0001
0000
0001
0000
,
0001
0001
0001
0000
,
0100
0000
0100
0000
,
0100
0100
0100
0000
,
1001
0000
1001
0000
,
1001
1001
1001
0000
,
1000
1000
1000
1000
,
0000
0000
0000
0000
,
0001
0001
0001
0001
,
0000
0000
0000
0000
,
1000
1000
1000
1000
,
0000
0000
0000
0000
,
0001
0001
0001
0001
,
0000
0000
0000
0000
,
0100
0000
0100
0000
,
0100
0100
0100
0000
,
0001
0000
0001
0000
,
0001
0001
0001
0000
,
0100
0000
0100
0000
,
0100
0100
0100
0000
,
1000
0000
1000
0000
,
1000
1000
1000
0000
,
0001
0000
0001
0000
,
0010
0000
0010
0000
,
0100
0000
0100
0000
,
1000
0000
1000
0000
,
0001
0000
0001
0000
,
0010
0000
0010
0000
,
0100
0000
0100
0000
,
1000
1000
1000
0000
,
1001
0000
0000
0000
,
1001
0000
0000
0000
,
1001
0000
0000
0000
,
1001
0000
0000
0000
,
0100
0100
0100
0000
,
0010
0000
0000
0000
,
1001
0000
0000
0000
,
1001
0000
0000
0000
,
1000
0000
1000
0000
,
0010
0000
0010
0000
,
0100
0000
0100
0000
,
0001
0000
0001
0000
,
1000
0000
1000
0000
,
0010
0000
0010
0000
,
0100
0000
0100
0000
,
0001
0000
0001
0000
,
1000
0000
1000
0000
,
1000
1000
1000
0000
,
0100
0000
0100
0000
,
0100
0100
0100
0000
,
0001
0000
0001
0000
,
0001
0001
0001
0000
,
0100
0000
0100
0000
,
0100
0100
0100
0000
,
0001
0000
0001
0000
,
0010
0000
0010
0000
,
0100
0000
0100
0000
,
1000
0000
1000
0000
,
0001
0000
0000
0000
,
0010
0000
0000
0000
,
0100
0000
0000
0000
,
1000
0000
0000
0000
,
0001
0001
0001
0000
,
1001
0000
1001
0000
,
1000
1000
1000
0000
,
1001
0000
1001
0000
,
0100
0100
0100
0000
,
1001
0000
1001
0000
,
0010
0010
0010
0000
,
1001
0000
1001
1001
,
0000
0000
0000
0000
;

//---------------dance-single - ----------------
#NOTES:
     dance-single:
     :
     Easy:
     7:
     0.387263,0.499837,0.651254,0.374471,0.000000,333.000000,253.000000,80.000000,46.000000,0.000000,0.000000,0.387263,0.499837,0.651254,0.374471,0.000000,333.000000,253.000000,80.000000,46.000000,0.000000,0.000000:
0000
0000
0000
0000
,
0000
0000
0000
0000
,
0000
0000
0000
0000
,
0000
0000
0000
0000
,
0000
0000
0000
0000
,
1001
1001
1001
0000
,
0010
0001
1000
0000
,
0110
0110
0110
0000
,
0001
0100
0010
0000
,
1001
1001
1001
0000
,
0100
0010
1000
0000
,
2002
3003
0220
0330
,
1001
1001
2002
3003
,
1010
1010
1010
1010
,
0100
0100
0200
0300
,
0011
0011
0011
0011
,
0100
0100
0200
0300
,
0010
0110
0100
0110
,
0001
0001
0002
0003
,
0010
0110
0100
0110
,
1000
1000
2000
3000
,
0101
0100
0001
1000
,
0001
0100
0001
0000
0010
0000
0000
0000
,
1100
0100
1000
0001
,
1000
0100
1000
0100
1000
0000
0000
0000
,
0011
0010
0001
1000
,
0001
0100
0001
0000
1000
0000
0000
0000
,
1010
0010
1000
0001
,
1000
0001
1000
0001
1000
0000
0000
0000
,
0002
0013
0020
0130
,
0200
1300
2000
3001
,
0002
0103
0200
0310
,
0020
1030
2000
3001
,
0002
0013
0200
1300
,
0002
0103
0020
1030
,
0002
0023
0230
2300
,
3001
0001
0001
0000
0002
0000
0003
0000
,
1001
1001
1001
0000
,
0100
0010
1000
0000
,
0110
0110
0110
0000
,
0001
1000
0010
0000
,
1000
0001
1000
0001
1000
0000
0000
0000
,
0001
0100
0110
0000
,
0110
0110
0110
0000
,
1000
0001
1001
0000
,
1000
2000
0100
3200
,
0010
0320
0001
0032
,
1000
2003
0010
3020
,
0100
0230
0001
0302
,
2003
0100
0010
3001
,
0200
1000
0010
0301
,
0020
1000
0100
0031
,
0002
1000
0100
0013
,
1000
1100
1001
0000
,
0001
0011
1001
0000
,
0010
1010
1001
0000
,
0100
1100
1001
0000
,
0110
0110
1001
0000
,
1001
1001
0110
0000
,
1010
1001
1100
0000
,
0011
1001
0101
0000
,
2000
0100
0001
3010
,
0002
0100
1000
0013
,
2000
0010
0001
3100
,
0002
0010
1000
0103
,
1000
0000
1000
0000
,
0010
0000
0010
0000
,
0100
0000
0100
0000
,
0002
0000
0000
0003
,
1000
1100
0010
0110
,
0001
0011
0100
0110
,
1000
0101
0010
1100
,
0001
1010
0100
0011
,
0100
1100
1001
1100
,
0010
0101
1001
0101
,
0010
0110
1001
0110
,
2002
3003
0100
0110
,
0000
0000
0000
0000
;

//---------------dance-single - ----------------
#NOTES:
     dance-single:
     :
     Medium:
     11:
     0.622180,0.686716,0.976881,0.073266,0.219798,535.000000,415.000000,120.000000,9.000000,0.000000,0.000000,0.622180,0.686716,0.976881,0.073266,0.219798,535.000000,415.000000,120.000000,9.000000,0.000000,0.000000:
0000
0000
0000
0000
,
0000
0000
0000
0000
,
0000
0000
0000
0000
,
0000
0000
0000
0000
,
0000
0000
0000
0000
,
0010
0000
0000
0000
1001
0000
0000
0000
0001
0000
0000
0001
0000
0000
0001
0000
,
0100
0000
0000
0000
1010
0000
0000
0000
1000
0000
0000
1000
0000
0000
1000
0000
,
0100
0000
0000
0000
0011
0000
0000
0000
0001
0000
0000
0001
0000
0000
0001
0000
,
1000
0000
0000
0000
0110
0000
0000
0000
0100
0000
0000
0100
0000
0000
0100
0000
,
0010
0000
0000
0000
1001
0000
0000
0000
0100
0000
0000
0100
0000
0000
0100
0000
,
0001
0000
0000
0000
0110
0000
0000
0000
1000
0000
0000
1000
0000
0000
1000
0000
,
0020
0030
0200
0300
,
0001
1000
0001
1000
0001
1000
0001
1000
0001
1000
0000
0000
,
1001
0000
0000
0000
1001
0000
0000
0000
1001
0000
0000
1001
0000
0000
1001
0000
,
0100
0000
0000
0000
0100
0000
0000
0000
0010
0000
0000
0010
0000
0000
0010
0000
,
1010
0000
0000
0000
1010
0000
0000
0000
1010
0000
0000
1010
0000
0000
1010
0000
,
0100
0000
0001
0000
1000
0000
0001
0000
0100
0000
0000
0100
0000
0000
0100
0000
,
0101
0000
0000
0000
0101
0000
0000
0000
0101
0000
0000
0101
0000
0000
0101
0000
,
0010
0000
1000
0000
0001
0000
0000
0000
0010
0000
0000
0100
0000
0000
1000
0000
,
1100
0000
0000
0000
1100
0000
0000
0000
1100
0000
0000
1100
0000
0000
1100
0000
,
0001
1000
0010
1000
0001
0000
0000
0000
,
1010
0000
0000
0000
1010
0000
0000
0000
1001
0000
0000
1001
0000
0000
1001
0000
,
0100
0000
0010
0000
1000
0000
0000
0000
0001
0000
0000
0010
0000
0000
0100
0000
,
1100
0000
0000
0000
1100
0000
0000
0000
1001
0000
0000
1001
0000
0000
1001
0000
,
0100
0000
0001
0000
0100
0000
0010
0000
0100
0000
0000
0100
0000
0000
0010
0000
,
1010
0000
0000
0000
1010
0000
0000
0000
1001
0000
0000
1001
0000
0000
1001
0000
,
0010
0000
0001
0000
0100
0000
0000
0000
0010
0000
0000
1000
0000
0000
0100
0000
,
0110
0000
0000
0000
0110
0000
0000
0000
0011
0000
0000
0011
0000
0000
0011
0000
,
1000
0100
0010
0001
1000
0000
0000
0000
,
0010
0001
0010
0001
0100
0010
0100
0010
,
1000
0100
1000
0100
0010
0001
0100
0000
,
0010
1000
0010
1000
0100
0010
0100
0010
,
0001
0100
0001
0100
0010
1000
0100
0000
,
0010
0001
0100
0001
0010
0100
1000
0100
,
0010
0001
0100
0010
0100
0001
0010
0000
,
0100
1000
0010
1000
0100
0010
0100
1000
,
0001
1000
0001
1000
0002
0000
0003
0000
,
1001
0000
0000
0000
1001
0000
0000
0000
1100
0000
0000
1100
0000
0000
1001
0000
,
0100
0000
0000
0000
0100
0000
0000
0000
0010
0000
0000
0010
0000
0000
1000
0000
,
1010
0000
0000
0000
1010
0000
0000
0000
1001
0000
0000
1001
0000
0000
0101
0000
,
0010
0000
0000
0000
0010
0000
0000
0000
1000
0000
0000
1000
0000
0000
0001
0000
,
0100
0100
0010
0010
0110
0000
0000
0000
,
1010
0101
1001
0000
,
0100
0000
0000
0000
0100
0000
0000
0000
0010
0000
0000
0001
0000
0000
1000
0000
,
0001
0100
0010
0100
0001
0000
1001
0000
,
1000
0100
1000
0100
0010
0100
0010
0100
,
0001
0100
0001
0100
0010
0100
0010
0100
,
0001
0100
0001
0100
0010
0100
0010
0100
,
1000
0100
1000
0100
0010
0100
0010
0100
,
1000
0100
0010
0100
1000
0100
0001
0100
,
0010
0100
0001
0100
1000
0100
0010
0100
,
0001
0100
0010
0100
0001
0100
0010
1000
,
0100
0010
0001
0100
0010
1000
0001
0000
,
0101
0000
0000
0000
0101
0000
0000
0000
1001
0000
0000
1001
0000
0000
1001
0000
,
1100
0000
0000
0000
1100
0000
0000
0000
0110
0000
0000
0110
0000
0000
0110
0000
,
0011
0000
0000
0000
0011
0000
0000
0000
1001
0000
0000
1001
0000
0000
1001
0000
,
0101
0000
0000
0000
0100
0000
0010
0000
1000
0000
0000
0100
0000
0000
0010
0000
,
0011
0000
0000
0000
0011
0000
0000
0000
1001
0000
0000
1001
0000
0000
1100
0000
,
1100
0000
0000
0000
1100
0000
0000
0000
1010
0000
0000
1010
0000
0000
0110
0000
,
0110
0000
0000
0000
0110
0000
0000
0000
0101
0000
0000
0101
0000
0000
1001
0000
,
1001
0000
0000
0000
0001
0000
1000
0000
0010
0000
0000
0010
0100
0000
0000
0000
,
0001
0000
0000
0000
2000
0000
0000
0000
0100
0000
0000
0001
0000
0000
3010
0000
,
0100
0000
0000
0000
0002
0000
0000
0000
0100
0000
0000
1000
0000
0000
0013
0000
,
0100
0000
0000
0000
2000
0000
0000
0000
0010
0000
0000
0100
0000
0000
3001
0000
,
0010
0000
0000
0000
0200
0000
0000
0000
0010
0000
0000
0010
0000
0000
0310
0000
,
0001
0000
0000
0000
0001
0000
0000
0000
0001
0000
0000
0100
0000
0000
0010
0000
,
1000
0000
0000
0000
1000
0000
0000
0000
1000
0000
0000
0100
0000
0000
0010
0000
,
0001
0000
0000
0000
0001
0000
0000
0000
0001
0000
0000
1000
0000
0000
0010
0000
,
0100
2002
0000
3003
,
1100
0000
0000
0000
0101
0000
0000
0000
1100
0000
0000
0101
0000
0000
0100
0000
,
1100
0000
0000
0000
1010
0000
0000
0000
1100
0000
0000
1010
0000
0000
0010
0000
,
0011
0000
0000
0000
1010
0000
0000
0000
0011
0000
0000
1010
0000
0000
0001
0000
,
0011
0000
0000
0000
0101
0000
0000
0000
0011
0000
0000
0101
0000
0000
0010
0000
,
0001
0000
0100
0000
0010
0000
1000
0000
1010
0000
0000
1010
0000
0000
1001
0000
,
0010
0000
0001
0000
1000
0000
0100
0000
1100
0000
0000
1100
0000
0000
0110
0000
,
0010
0000
0001
0000
0100
0000
0001
0000
0101
0000
0000
0101
0000
0000
1001
0000
,
0010
0000
1000
0000
0100
0000
0010
0000
0001
0000
0000
1001
0000
0000
0000
0000
,
0000
0000
0000
0000
;

//---------------dance-single - ----------------
#NOTES:
     dance-single:
     :
     Hard:
     15:
     0.873378,1.030914,1.343211,0.317486,0.700098,751.000000,586.000000,165.000000,39.000000,0.000000,0.000000,0.873378,1.030914,1.343211,0.317486,0.700098,751.000000,586.000000,165.000000,39.000000,0.000000,0.000000:
// measure 0
0000
0000
0000
0000
,  // measure 1
0000
0000
0000
0000
,  // measure 2
0000
0000
0000
0000
,  // measure 3
0000
0000
0000
0000
,  // measure 4
0000
0000
0000
0000
,  // measure 5
1001
0000
0000
0000
1001
0000
0000
0000
1010
0000
0000
0101
0000
0000
1010
0000
,  // measure 6
0001
0000
0000
0000
0001
0000
0000
0000
0010
0000
0000
0100
0000
0000
1000
0000
,  // measure 7
1001
0000
0000
0000
1001
0000
0000
0000
0011
0000
0000
1100
0000
0000
0011
0000
,  // measure 8
1000
0000
0000
0000
1000
0000
0000
0000
0010
0000
0000
0100
0000
0000
0001
0000
,  // measure 9
1001
0000
0000
0000
0110
0000
0000
0000
0011
0000
0000
0101
0000
0000
1100
0000
,  // measure 10
0010
0000
0001
0000
0100
0000
0000
0000
0010
0000
0000
1000
0000
0000
0001
0000
,  // measure 11
0010
0001
0100
0010
0000
0000
0010
1000
0100
0010
0000
0000
,  // measure 12
0010
0000
0001
0000
0100
0000
0010
0000
1000
0000
0100
0000
0010
0000
0001
0000
0100
0000
0220
0000
0000
0330
0000
0000
,  // measure 13
1010
0000
0000
0000
1010
0000
0000
0000
0101
0000
0000
1100
0000
0000
0101
0000
,  // measure 14
1000
0000
0000
0000
0001
0000
0000
0000
0200
0000
0000
0302
0000
0000
0013
0000
,  // measure 15
0110
0000
0000
0000
0110
0000
0000
0000
0011
0000
0000
1010
0000
0000
0011
0000
,  // measure 16
1000
0000
0010
0000
0100
0000
0001
0000
1000
0100
0000
0010
0100
0010
0001
0000
,  // measure 17
1000
0000
0100
0000
0001
0000
0100
0000
1000
0001
0000
0100
0010
0100
1000
0000
,  // measure 18
0100
0000
0001
0000
1000
0000
0000
0000
1001
0000
0000
0101
0000
0000
1010
0000
,  // measure 19
0001
0000
0100
0000
1000
0000
0100
0000
0001
0010
0000
0100
1000
0001
0100
0000
,  // measure 20
0010
0000
0100
0000
0010
0000
0100
0000
0110
0000
0000
0110
0000
0000
0110
0000
,  // measure 21
1000
0000
0100
0000
1000
0100
0000
0000
1100
0000
0000
1010
0000
0000
1100
0000
,  // measure 22
0001
0000
0100
0000
0001
0100
0000
0000
0101
0000
0000
0011
0000
0000
0101
0000
,  // measure 23
1000
0000
0001
0000
0100
0010
0000
0000
0110
0000
0000
1100
0000
0000
0101
0000
,  // measure 24
1000
0001
1000
0001
0100
0010
1001
0000
,  // measure 25
0001
0000
1000
0000
0010
0100
0000
0000
0101
0000
0000
0011
0000
0000
0101
0000
,  // measure 26
1000
0000
0001
0000
0010
0000
0000
0000
1000
0100
0000
1000
0010
0000
1010
0000
,  // measure 27
0100
0000
0001
0000
0010
0100
0000
0000
1100
0000
0000
1010
0000
0000
1100
0000
,  // measure 28
0001
0010
0100
0010
0001
0000
1001
0000
,  // measure 29
0001
0010
0001
0010
0001
0010
0100
0000
0110
0000
1100
0000
2002
0000
3003
0000
,  // measure 30
0200
0000
1300
0010
1000
0010
0100
0000
0110
0000
0101
0000
2002
0000
3003
0000
,  // measure 31
0001
0010
0100
0010
0001
0010
0100
0000
1100
0000
1001
0000
0202
0000
0303
0000
,  // measure 32
1000
0100
1000
0100
1000
0001
0100
0000
0101
0000
1001
0000
2020
0000
3030
0000
,  // measure 33
0200
0000
0310
1000
0010
1000
0100
0000
0110
0000
0011
0000
0202
0000
0303
0000
,  // measure 34
2000
0000
3100
0010
0100
1000
0100
0000
0110
0000
0011
0000
2002
0000
3003
0000
,  // measure 35
0010
1000
0010
0100
0010
1000
0100
1000
0100
0000
0110
0000
2002
0000
3003
0000
,  // measure 36
1001
0000
1001
0000
1001
0000
1001
0000
1000
0001
0100
0010
1000
0001
0010
0000
,  // measure 37
0011
0000
0000
0000
0011
0000
0000
0000
0101
0000
0000
1100
0000
0000
0101
0000
,  // measure 38
0010
0000
0000
0000
0010
0000
0000
0000
0001
0000
0000
0010
0000
0000
1000
0000
,  // measure 39
1010
0000
0000
0000
1010
0000
0000
0000
0110
0000
0000
1001
0000
0000
0110
0000
,  // measure 40
1000
0000
0100
0000
0001
0000
0100
0000
1100
0000
0000
0101
0000
0000
1001
0000
,  // measure 41
1100
0000
0011
0000
1010
0000
0101
0000
0110
0000
0000
1010
0000
0000
0011
0000
,  // measure 42
0100
0000
0000
0000
0100
0000
0000
0000
0001
0000
0000
0010
0000
0000
1000
0000
,  // measure 43
0001
0000
1000
0100
0010
0000
0001
0000
0100
0010
0000
1000
0001
0000
1001
0000
,  // measure 44
0100
0010
0100
0010
0110
0000
1001
0000
,  // measure 45
1100
0000
0001
1000
0100
0010
0001
0000
0011
0000
0101
0000
2020
0000
3030
0000
,  // measure 46
0010
1000
0010
1000
0100
0000
0010
0001
0100
0000
0101
0000
2002
0000
3003
0000
,  // measure 47
0100
0001
1000
0001
0010
0000
1100
0000
0110
0000
0011
0000
0110
0000
1100
0000
,  // measure 48
1001
0000
0001
1000
0010
0100
0001
0000
1010
0000
0101
0000
2002
0000
3003
0000
,  // measure 49
0010
0001
0010
0001
0010
0001
0010
0001
0100
0000
0010
1000
0100
0000
1001
0000
,  // measure 50
1000
0010
1000
0010
1000
0010
1000
0010
0100
0000
0001
0010
0100
0000
0110
0000
,  // measure 51
1000
0001
1000
0001
0100
0010
0100
0010
1000
0010
1000
0010
0100
0001
0100
0001
,  // measure 52
1000
0100
0010
0001
1000
0010
0100
0001
0010
0100
1000
0001
0100
0010
1000
0000
,  // measure 53
1010
0000
0000
0000
1001
0000
0000
0000
0101
0000
0000
1001
0000
0000
0011
0000
,  // measure 54
0100
0000
0000
0000
0100
0000
0000
0000
1000
0000
0000
0010
0000
0000
0001
0000
,  // measure 55
0101
0000
0000
0000
1001
0000
0000
0000
1010
0000
0000
1001
0000
0000
1100
0000
,  // measure 56
0001
0000
0100
0000
1000
0000
0100
0000
0110
0000
0000
1001
0000
0000
0110
0000
,  // measure 57
1000
0000
0001
0000
0101
0000
0000
0000
1010
0000
0000
1001
0000
0000
1100
0000
,  // measure 58
1000
0000
0001
0000
0010
0100
0000
1000
0010
0000
0100
0001
0000
1000
0010
0000
,  // measure 59
0100
0000
0001
0000
0101
0000
0000
0000
1001
0000
0000
1100
0000
0000
1010
0000
,  // measure 60
1000
0001
1000
0001
1001
0000
0110
0000
,  // measure 61
1001
0000
0100
0000
0010
0000
0001
0010
0000
0010
0000
0001
0010
0100
1000
0000
,  // measure 62
1001
0000
0100
0000
0010
0000
1000
0010
0000
0010
0000
1000
0010
0100
0001
0000
,  // measure 63
1001
0000
0010
0000
0100
0000
1000
0010
0000
0010
0000
1000
0100
0010
0001
0000
,  // measure 64
1001
0000
0010
0000
0100
0000
0001
0010
0000
0010
0000
0001
0100
0010
1000
0000
,  // measure 65
0001
0000
0000
0000
0001
0000
0000
0000
0101
0000
0000
1100
0000
0000
1010
0000
,  // measure 66
0100
0000
0000
0000
0100
0000
0000
0000
0110
0000
0000
1010
0000
0000
1100
0000
,  // measure 67
0010
0000
0000
0000
0010
0000
0000
0000
0011
0000
0000
1010
0000
0000
0110
0000
,  // measure 68
2000
0002
0000
3003
,  // measure 69
2100
0000
3010
0000
0102
0000
0013
0000
1100
0000
0010
0001
0000
0100
0001
0000
,  // measure 70
0012
0000
0103
0000
2010
0000
3100
0000
0011
0000
0100
1000
0000
0001
0100
0000
,  // measure 71
2010
0000
3100
0000
0012
0000
0103
0000
1010
0000
0100
0001
0000
0010
0001
0000
,  // measure 72
0102
0000
0013
0000
2100
0000
3010
0000
0110
0000
0000
0110
0000
0000
1001
0000
,  // measure 73
0001
0100
0001
0100
0001
0100
0001
0100
0010
0100
0010
0100
0010
0100
0010
0100
,  // measure 74
0001
0010
0001
0010
0001
0010
0001
0010
0100
0010
0100
0010
0100
0010
0100
0010
,  // measure 75
0001
1000
0001
1000
0100
0010
0100
0010
0001
0100
0001
0100
0010
1000
0010
1000
,  // measure 76
0001
0010
0100
1000
0010
0100
0001
1000
0100
0000
0000
2002
3003
0000
0000
0000
;

//---------------dance-double - ----------------
#NOTES:
     dance-double:
     :
     Easy:
     7:
     0.374471,0.437358,0.602410,0.040703,0.000000,322.000000,248.000000,74.000000,5.000000,0.000000,0.000000,0.374471,0.437358,0.602410,0.040703,0.000000,322.000000,248.000000,74.000000,5.000000,0.000000,0.000000:
00000000
00000000
00000000
00000000
,
00000000
00000000
00000000
00000000
,
00000000
00000000
00000000
00000000
,
00000000
00000000
00000000
00000000
,
00000000
00000000
00000000
00000000
,
00011000
00011000
00011000
00000000
,
00001000
01000000
00010000
00000000
,
10010000
10010000
10010000
00000000
,
00100000
00001000
00010000
00000000
,
00011000
00011000
00011000
00000000
,
00010000
00000100
00001000
00000000
,
00001001
00000000
00000110
00000000
,
00001000
00010000
00022000
00033000
,
00011000
00011000
00011000
00011000
,
01000000
01000000
01000000
00000000
,
00011000
00011000
00011000
00011000
,
00000100
00000100
00000100
00000000
,
00011000
00011000
00011000
00011000
,
01000000
01000000
00100000
00000000
,
00011000
00011000
00011000
00011000
,
00000100
00000010
00000100
00000000
,
00001001
00001001
00001001
00001001
,
00000100
00000010
00010000
00001000
,
00011000
00011000
00011000
00011000
,
00001000
00100000
00010000
10000000
,
10010000
10010000
10010000
10010000
,
00100000
01000000
00001000
00010000
,
00011000
00011000
00011000
00011000
,
00000010
00001000
00001001
00000000
,
00000001
00000001
00000010
00000010
,
00000100
00000100
00001000
00001000
,
00010000
00010000
00100000
00100000
,
01000000
01000000
10000000
10000000
,
00010000
00100000
01000000
10000000
,
00010000
00100000
00001000
00010000
,
00000010
00000100
00001000
00010000
,
00001000
00001000
00001000
00000000
00022000
00000000
00033000
00000000
,
00011000
00011000
00011000
00011000
,
00001000
00000100
00000001
00000100
,
00001001
00001001
00001001
00001001
,
00000100
00001000
00010000
00010000
,
00001000
00010000
00001000
00010000
00001000
00000000
00000000
00000000
,
00010000
01000000
10000000
00000000
,
10010000
10010000
10010000
10010000
,
01000000
00100000
01100000
00000000
,
10000000
10000000
01000000
01000000
,
00100000
00100000
00010000
00010000
,
00001000
00001000
00000100
00000100
,
00000010
00000010
00000001
00000001
,
00001000
00000100
00000010
00000001
,
00001000
00000010
00010000
00001000
,
00100000
00010000
01000000
00100000
,
10000000
01000000
00100000
00010000
,
10000000
00000000
00110000
00000000
,
00000100
00000000
00011000
00000000
,
00010000
00000000
00000011
00000000
,
00000100
00000000
00110000
00000000
,
01000000
00000000
00010100
00000000
,
00000010
00000000
01010000
00000000
,
10000000
00000000
00110000
00000000
,
00000100
00000000
00011000
00000000
,
01000000
01000000
00010000
00001000
,
00000100
00000100
00001000
00010000
,
00100000
00100000
00010000
00001000
,
00000010
00000010
00001000
00010000
,
01000000
00000000
01000000
00000000
,
00010000
00000000
00010000
00000000
,
00001000
00000000
00001000
00000000
,
00000020
00000000
00000000
00000030
,
00000001
00001000
00000010
00001010
,
00000100
00000010
00010000
00011000
,
00001000
00100000
00010000
00110000
,
01000000
10000000
00100000
00010000
,
01000000
10000000
00100000
10100000
,
01000000
00001000
00010000
00011000
,
00000100
00001000
00000010
00001010
,
00000100
00000001
00000010
00000110
,
00000000
00000000
00000000
00000000
;

//---------------dance-double - ----------------
#NOTES:
     dance-double:
     :
     Medium:
     12:
     0.553566,0.686716,0.732660,0.065125,0.191306,476.000000,386.000000,90.000000,8.000000,0.000000,0.000000,0.553566,0.686716,0.732660,0.065125,0.191306,476.000000,386.000000,90.000000,8.000000,0.000000,0.000000:
00000000
00000000
00000000
00000000
,
00000000
00000000
00000000
00000000
,
00000000
00000000
00000000
00000000
,
00000000
00000000
00000000
00000000
,
00000000
00000000
00000000
00000000
,
00011000
00000000
00000000
00000000
00001000
00000000
00000000
00000000
00100000
00000000
00000000
00010000
00000000
00000000
10000000
00000000
,
00010000
00000000
00000000
00000000
10010000
00000000
00000000
00000000
00100000
00000000
00000000
00001000
00000000
00000000
00010000
00000000
,
00001000
00000000
00000000
00000000
00011000
00000000
00000000
00000000
00000010
00000000
00000000
00001000
00000000
00000000
00000001
00000000
,
00001000
00000000
00000000
00000000
00001001
00000000
00000000
00000000
00000100
00000000
00000000
00000100
00000000
00000000
00000010
00000000
,
00000001
00000000
00000000
00000000
00000101
00000000
00000000
00000000
00000100
00000000
00000000
00001000
00000000
00000000
00010000
00000000
,
00001000
00000000
00000000
00000000
00011000
00000000
00000000
00000000
00010000
00000000
00000000
01000000
00000000
00000000
10000000
00000000
,
00020000
01030000
20000000
31000000
,
00110000
00000000
00000000
00011000
00000000
00000000
00001000
00010000
00001000
00010000
00000000
00000000
,
00000010
00000000
00000000
00000000
00000010
00000000
00000000
00000000
00000110
00000000
00000000
00000110
00000000
00000000
00000100
00000000
,
00000001
00000000
00000000
00000000
00001001
00000000
00000000
00000000
00000100
00000000
00000000
00001000
00000000
00000000
00010000
00000000
,
00100000
00000000
00000000
00000000
00100000
00000000
00000000
00000000
01100000
00000000
00000000
01100000
00000000
00000000
00100000
00000000
,
10000000
00000000
00000000
00000000
10010000
00000000
00000000
00000000
01000000
00000000
00000000
00010000
00000000
00000000
00001000
00000000
,
00010000
00000000
00000000
00000000
00011000
00000000
00000000
00000000
00010100
00000000
00000000
00010100
00000000
00000000
00000100
00000000
,
00001000
00000000
00000000
00000000
00001000
00000000
00000000
00000000
00000001
00000000
00000000
00000010
00000000
00000000
00001000
00000000
,
00010000
00000000
00000000
00000000
00010000
00000000
00000000
00000000
00101000
00000000
00000000
00101000
00000000
00000000
00100000
00000000
,
00010000
00000000
00000000
00000000
00010000
00000000
00000000
00000000
10000000
00000000
00000000
00100000
00000000
00000000
01000000
00000000
,
00010000
00000000
00000000
00000000
00010000
00000000
00000000
00000000
11000000
00000000
00000000
11000000
00000000
00000000
10000000
00000000
,
00100000
00000000
00010000
00000000
00001000
00000000
00000000
00000000
00000100
00000000
00000000
00000010
00000000
00000000
00000100
00000000
,
00001000
00000000
00000000
00000000
00001000
00000000
00000000
00000000
00000101
00000000
00000000
00000101
00000000
00000000
00000001
00000000
,
00000010
00000000
00001000
00000000
00010000
00000000
00000000
00000000
01000000
00000000
00000000
00100000
00000000
00000000
01000000
00000000
,
00010000
00000000
00000000
00000000
00101000
00000000
00000000
00000000
00010000
00000000
00000000
01010000
00000000
00000000
01000000
00000000
,
00100000
00000000
10000000
00000000
01000000
00000000
00000000
00000000
00100000
00000000
00000000
00101000
00000000
00000000
00010000
00000000
,
00001000
00000000
00000000
00000000
00010100
00000000
00000000
00000000
00001000
00000000
00000000
00001010
00000000
00000000
00000010
00000000
,
00000100
00000001
00000010
00000000
00000100
00000000
00000110
00000000
,
00000001
00000010
00000100
00001000
00000001
00000100
00001000
00000000
,
00010000
00100000
01000000
00010000
00100000
01000000
00010000
00000000
,
00000010
00001000
00000100
00000001
00000100
00000010
00001000
00000000
,
00010000
01000000
00100000
01000000
10000000
00100000
00010000
00000000
,
00001000
00000100
00000010
00001000
00000001
00000010
00001000
00000000
,
00010000
01000000
00100000
10000000
00100000
01000000
00010000
00000000
,
00001000
00000100
00000010
00001000
00000100
00000010
00001000
00000000
,
00010000
00010000
00001000
00001000
00010000
00001000
00010000
00000000
,
00011000
00000000
00000000
00000000
00011000
00000000
00000000
00000000
00011000
00000000
00000000
00011000
00000000
00000000
00011000
00000000
,
01000000
00000000
00000000
00000000
10000000
00000000
00000000
00000000
00100000
00000000
00000000
00010000
00000000
00000000
00001000
00000000
,
00011000
00000000
00000000
00000000
00011000
00000000
00000000
00000000
00011000
00000000
00000000
00011000
00000000
00000000
00011000
00000000
,
00001000
00000000
00000000
00000000
00000100
00000000
00000000
00000000
00000001
00000000
00000000
00000010
00000000
00000000
00001000
00000000
,
00010000
01000000
00010000
00001000
00000100
00000000
00000000
00000000
,
00001000
00010000
00011000
00000000
,
00000010
00000000
00000000
00000000
00000010
00000000
00000000
00000000
00000001
00000000
00000000
00000100
00000000
00000000
00000010
00000000
,
00010000
00001000
00100000
00010000
01000000
00000000
10010000
00000000
,
00010000
00100000
01000000
10000000
01000000
00100000
00010000
00000000
,
00001000
00000100
00000010
00000001
00000010
00000100
00001000
00000000
,
00010000
01000000
00100000
10000000
00100000
01000000
00010000
00000000
,
00001000
00000010
00000100
00000001
00000100
00000010
00001000
00000000
,
00010000
01000000
00100000
10000000
01000000
00100000
00010000
00000000
,
00001000
00000100
00000010
00000001
00000100
00000010
00001000
00000000
,
00010000
00100000
01000000
00100000
00010000
10000000
00010000
00000000
,
00001000
00000100
00000010
00000100
00001000
00000001
00001000
00000000
,
00000101
00000000
00000000
00000000
00000101
00000000
00000000
00000000
00001000
00000000
00000000
00000001
00000000
00000000
00001000
00000000
,
00001100
00000000
00000000
00000000
00001100
00000000
00000000
00000000
00010000
00000000
00000000
00000010
00000000
00000000
00010000
00000000
,
00011000
00000000
00000000
00000000
00011000
00000000
00000000
00000000
01000000
00000000
00000000
00010000
00000000
00000000
01000000
00000000
,
01010000
00000000
00000000
00000000
01010000
00000000
00000000
00000000
10000000
00000000
00000000
00010000
00000000
00000000
10000000
00000000
,
10100000
00000000
00000000
00000000
11000000
00000000
00000000
00000000
00010000
00000000
00000000
10000000
00000000
00000000
00010000
00000000
,
00110000
00000000
00000000
00000000
01010000
00000000
00000000
00000000
00001000
00000000
00000000
01000000
00000000
00000000
00001000
00000000
,
00011000
00000000
00000000
00000000
00011000
00000000
00000000
00000000
00000010
00000000
00000000
00001000
00000000
00000000
00000010
00000000
,
00001010
00001100
00000001
00001001
,
00002000
00000000
00000000
00000000
00000100
00000000
00000000
00000000
00000001
00000000
00000000
00000010
00000000
00000000
00013000
00000000
,
00020000
00000000
00000000
00000000
01000000
00000000
00000000
00000000
10000000
00000000
00000000
00100000
00000000
00000000
00031000
00000000
,
00002000
00000000
00000000
00000000
00000100
00000000
00000000
00000000
00000001
00000000
00000000
00000010
00000000
00000000
00013000
00000000
,
00020000
00000000
00000000
00000000
01000000
00000000
00000000
00000000
10000000
00000000
00000000
00100000
00000000
00000000
00031000
00000000
,
00001000
00001000
00000100
00000010
,
00000001
00000001
00000100
00001000
,
00010000
00010000
00100000
10000000
,
01000000
02200000
00000000
03300000
,
11000000
00000000
00000000
00000000
11000000
00000000
00000000
00000000
00110000
00000000
00000000
00110000
00000000
00000000
00110000
00000000
,
00101000
00000000
00000000
00000000
00101000
00000000
00000000
00000000
00011000
00000000
00000000
00011000
00000000
00000000
00011000
00000000
,
00010010
00000000
00000000
00000000
00010010
00000000
00000000
00000000
00001010
00000000
00000000
00001010
00000000
00000000
00001010
00000000
,
00001001
00000000
00000000
00000000
00001001
00000000
00000000
00000000
00000101
00000000
00000000
00000101
00000000
00000000
00000101
00000000
,
00000010
00000000
00000000
00000000
00000100
00000000
00000000
00000000
00001010
00000000
00000000
00011000
00000000
00000000
00101000
00000000
,
01000000
00000000
00000000
00000000
00100000
00000000
00000000
00000000
01001000
00000000
00000000
00011000
00000000
00000000
00010100
00000000
,
00000010
00000000
00000000
00000000
00000100
00000000
00000000
00000000
00001010
00000000
00000000
00010100
00000000
00000000
00101000
00000000
,
00010000
00000000
00000000
00000000
01000000
00000000
00000000
00000000
10100000
00000000
00000000
10010000
00000000
00000000
00000000
00000000
,
00000000
00000000
00000000
00000000
;

//---------------dance-double - ----------------
#NOTES:
     dance-double:
     :
     Hard:
     15:
     0.853608,1.030914,1.229241,0.170954,0.708238,734.000000,583.000000,151.000000,21.000000,0.000000,0.000000,0.853608,1.030914,1.229241,0.170954,0.708238,734.000000,583.000000,151.000000,21.000000,0.000000,0.000000:
00000000
00000000
00000000
00000000
,
00000000
00000000
00000000
00000000
,
00000000
00000000
00000000
00000000
,
00000000
00000000
00000000
00000000
,
00000000
00000000
00000000
00000000
,
00011000
00000000
00000000
00000000
00011000
00000000
00000000
00000000
00110000
00000000
00000000
00011000
00000000
00000000
00001010
00000000
,
00000010
00000000
00000000
00000000
00000100
00000000
00000000
00000000
00000001
00000000
00000000
00000010
00000000
00000000
00001000
00000000
,
00011000
00000000
00000000
00000000
00011000
00000000
00000000
00000000
00001010
00000000
00000000
00011000
00000000
00000000
00110000
00000000
,
00100000
00000000
00000000
00000000
01000000
00000000
00000000
00000000
10000000
00000000
00000000
00100000
00000000
00000000
00010000
00000000
,
00011000
00000000
00000000
00000000
00011000
00000000
00000000
00000000
00010010
00000000
00000000
00001100
00000000
00000000
00010010
00000000
,
00011000
00000000
00000000
00000000
00011000
00000000
00000000
00000000
01001000
00000000
00000000
00110000
00000000
00000000
01001000
00000000
,
00100000
00010000
01000000
00001000
00000000
00000000
00010000
00000010
00001000
00000100
00000000
00000000
,
00001000
00000000
00000010
00000000
00010000
00000000
00001000
00000000
00100000
00000000
00001000
00000000
00010000
00000000
01000000
00000000
00010000
00000000
00002000
00000000
00000000
00003000
00000000
00000000
,
00011000
00000000
00000000
00000000
00011000
00000000
00000000
00000000
00110000
00000000
00000000
10100000
00000000
00000000
10010000
00000000
,
01000000
00000000
00000000
00000000
01000000
00000000
00000000
00000000
11000000
00000000
00000000
01010000
00000000
00000000
00110000
00000000
,
00011000
00000000
00000000
00000000
00011000
00000000
00000000
00000000
00001010
00000000
00000000
00000011
00000000
00000000
00000101
00000000
,
00001000
00000000
00000100
00000000
00000001
00000000
00000100
00000000
00001000
00000000
00000000
00001000
00010000
00001000
00100000
00000000
,
00010000
00000000
10000000
00000000
01000000
00000000
00100000
00000000
00001000
00010000
00000000
01000000
10000000
01000000
00100000
00000000
,
00001000
00000000
00010000
00000000
00001000
00000000
00000100
00000000
00000110
00000000
00000000
00001010
00000000
00000000
00000101
00000000
,
00000010
00000000
00001000
00000000
00000010
00000000
00000001
00000000
00000010
00000100
00000000
00001000
00000100
00010000
00001000
00000000
,
00010000
00000000
01000000
00000000
10000000
00000000
01000000
00000000
01100000
00000000
00000000
00110000
00000000
00000000
11000000
00000000
,
00010000
00000000
01000000
00000000
00001000
00000000
00000000
00000000
00110000
00000000
00000000
00011000
00000000
00000000
00001100
00000000
,
00000010
00000000
00000001
00000000
00001000
00000000
00000000
00000000
00001010
00000000
00000000
00011000
00000000
00000000
01010000
00000000
,
00100000
00000000
10000000
00000000
01000000
00000000
00000000
00000000
11000000
00000000
00000000
01010000
00000000
00000000
00101000
00000000
,
00010000
00000000
00001000
00000000
00000100
00000000
00001000
00000000
00010000
00000000
00000000
00010100
00000000
00000000
00001010
00000000
,
00000100
00000000
00000001
00000000
00000010
00000000
00000000
00000000
00001100
00000000
00000000
00011000
00000000
00000000
01010000
00000000
,
00100000
00000000
10000000
00000000
00010000
00000000
00000000
00000000
01100000
00000000
00000000
01001000
00000000
00000000
00010010
00000000
,
00001000
00000000
00000100
00000000
00001000
00000000
00000001
00000000
00001001
00000000
00000000
00000110
00000000
00000000
00010010
00000000
,
00000100
00001000
00010000
00001000
00000100
00000000
00000110
00000000
,
00000001
00000010
00000001
00001000
00000001
00000010
00000001
00000000
00000100
00000000
00001100
00000000
00022000
00000000
00033000
00000000
,
02000000
00000000
13000000
00010000
10000000
00010000
10000000
01000000
00100000
00000000
00110000
00000000
00022000
00000000
00033000
00000000
,
00000010
00001000
00000010
00000100
00000010
00001000
00000001
00000000
00000010
00000000
00001010
00000000
00022000
00000000
00033000
00000000
,
00010000
01000000
00100000
01000000
00100000
00000000
00010000
00000000
10000000
00000000
01010000
00000000
00022000
00000000
00033000
00000000
,
00000010
00000100
00000001
00001000
00000001
00001000
00000010
00000000
00000100
00000000
00001010
00000000
00022000
00000000
00033000
00000000
,
00200000
00000000
01300000
10000000
00010000
01000000
00010000
00000000
01000000
00000000
00110000
00000000
00022000
00000000
00033000
00000000
,
00000010
00001000
00000001
00000100
00000001
00001000
00000100
00000000
00000010
00000000
00001100
00000000
00022000
00000000
00033000
00000000
,
00011000
00000000
00011000
00000000
00011000
00000000
00011000
00000000
00001000
00010000
00001000
00100000
00010000
01000000
00100000
10000000
,
01000000
00000000
00000000
00000000
11000000
00000000
00000000
00000000
00110000
00000000
00000000
01001000
00000000
00000000
00010100
00000000
,
00001000
00000000
00000000
00000000
00000100
00000000
00000000
00000000
00000010
00000000
00000000
00000001
00000000
00000000
00000100
00000000
,
00000101
00000000
00000000
00000000
00001010
00000000
00000000
00000000
00001100
00000000
00000000
00101000
00000000
00000000
00110000
00000000
,
01000000
00000000
00000000
00000000
10000000
00000000
00010000
00000000
00100000
00000000
00000000
00110000
00000000
00000000
00101000
00000000
,
00011000
00000000
00001100
00000000
00011000
00000000
00110000
00000000
00011000
00000000
00000000
00001100
00000000
00000000
00000110
00000000
,
00000001
00000000
00000000
00000000
00001000
00000000
00000000
00000000
00000010
00000000
00000000
00000100
00000000
00000000
00001000
00000000
,
00010000
00000000
00001000
00010000
00100000
00000000
00010000
00000000
00001000
00000100
00000000
00001000
00010000
00000000
00001000
00000000
,
00010000
01000000
10000000
00100000
00010000
00000000
01100000
00000000
,
10000000
00100000
10000000
00100000
10000000
00100000
10000000
00100000
01000000
00010000
01000000
00010000
01000000
00010000
01000000
00010000
,
00100000
00010000
00100000
00010000
00100000
00010000
00100000
00010000
00100000
00001000
00100000
00001000
00010000
00001000
00010000
00000000
,
00000010
00001000
00000010
00001000
00000010
00001000
00000010
00001000
00000001
00000100
00000001
00000100
00000001
00000100
00000001
00000100
,
00000001
00000010
00000001
00000010
00000001
00000010
00000001
00000010
00000100
00001000
00000100
00001000
00000100
00010000
00000100
00000000
,
00010000
00001000
00010000
00001000
00010000
00001000
00010000
00001000
00100000
00010000
00100000
00010000
00100000
00010000
00100000
00010000
,
01000000
00100000
01000000
00100000
01000000
00100000
01000000
00100000
10000000
00100000
10000000
00100000
10000000
00010000
10000000
00000000
,
00100000
01000000
00100000
01000000
00100000
01000000
00100000
01000000
00010000
00100000
00010000
00100000
00010000
00100000
00010000
00100000
,
00001000
00010000
00001000
00010000
00000010
00001000
00000010
00001000
00000001
00000010
00000100
00001000
00000001
00000100
00000010
00000000
,
00000110
00000000
00000000
00000000
00000110
00000000
00000000
00000000
00000101
00000000
00000000
00000011
00000000
00000000
00001010
00000000
,
00000100
00000000
00000000
00000000
00010000
00000000
00000000
00000000
00100000
00000000
00000000
10000000
00000000
00000000
00010000
00000000
,
10010000
00000000
00000000
00000000
10010000
00000000
00000000
00000000
10100000
00000000
00000000
11000000
00000000
00000000
01010000
00000000
,
00001000
00000000
00000000
00000000
00010000
00000000
00000010
00000000
00010000
00000000
00000000
00001000
00000000
00000000
00000100
00000000
,
00000010
00000000
00000000
00000000
00000110
00000000
00000000
00000000
00001010
00000000
00000000
00001001
00000000
00000000
00001100
00000000
,
00100000
00000000
00000000
00000000
01100000
00000000
00000000
00000000
01010000
00000000
00000000
10010000
00000000
00000000
00110000
00000000
,
00000100
00000000
00000000
00000000
00000110
00000000
00000000
00000000
00000101
00000000
00000000
00001001
00000000
00000000
00001010
00000000
,
01000000
00000000
01000000
00100000
01100000
00000000
10010000
00000000
,
10000000
00000000
01000000
00000000
10000000
00000000
00100000
00000000
10000000
00000000
01000000
00100000
00000000
00010000
00100000
00000000
,
00001000
00000000
01000000
00000000
00001000
00000000
00100000
00000000
00001000
00000000
00010000
00000100
00000000
00001000
00000010
00000000
,
00000100
00000000
00000001
00000000
00000010
00000000
00000001
00000000
00000100
00000000
00000010
00000100
00000000
00001000
00000100
00000000
,
00000010
00000000
00010000
00000000
00000100
00000000
00010000
00000000
00000010
00000000
00010000
00000100
00010000
00001000
00010000
00000000
,
00011000
00000000
00000000
00000000
01010000
00000000
00000000
00000000
10010000
00000000
00000000
00110000
00000000
00000000
00011000
00000000
,
00011000
00000000
00000000
00000000
00001100
00000000
00000000
00000000
00001001
00000000
00000000
00001010
00000000
00000000
00011000
00000000
,
00011000
00000000
00000000
00000000
01010000
00000000
00000000
00000000
10010000
00000000
00000000
00110000
00000000
00000000
00011000
00000000
,
00002000
00000002
00000000
00003003
,
00000101
00000000
00000010
00000000
00001000
00000000
00000100
00000000
00010100
00000000
00001000
00010000
00000000
01000000
10000000
00000000
,
10100000
00000000
01000000
00000000
00010000
00000000
00100000
00000000
00101000
00000000
00010000
00001000
00000000
00000010
00000001
00000000
,
00001001
00000000
00000010
00000000
00000100
00000000
00010000
00000000
00010010
00000000
00001000
01000000
00000000
00100000
10000000
00000000
,
10010000
00000000
01000000
00000000
00100000
00000000
00001000
00000000
01001000
00000000
00010000
00000010
00000000
00000100
00000001
00000000
,
00001000
00000100
00001000
00000100
00000010
00000001
00000010
00000001
00000100
00000000
00000000
00001010
00000000
00000000
00001100
00000000
,
00010000
00001000
00010000
00001000
00100000
00010000
00100000
00010000
01000000
00000000
00000000
10100000
00000000
00000000
11000000
00000000
,
00100000
01000000
00100000
01000000
00010000
00001000
00010000
00001000
01000000
00000000
00000000
01001000
00000000
00000000
00011000
00000000
,
00000100
00001000
00000001
00000100
00000010
00001000
00000100
00000010
00000100
00000000
00000000
00000022
00000033
00000000
00000000
00000000
,
00000000
00000000
00000000
00000000
;

//---------------dance-single - ----------------
#NOTES:
     dance-single:
     :
     Challenge:
     17:
     1.073406,1.034272,2.035168,0.162813,0.899544,923.000000,673.000000,250.000000,20.000000,8.000000,0.000000,1.073406,1.034272,2.035168,0.162813,0.899544,923.000000,673.000000,250.000000,20.000000,8.000000,0.000000:
// measure 0
0000
0000
0000
0000
,  // measure 1
0000
0000
0000
0000
,  // measure 2
0000
0000
0000
0000
,  // measure 3
0000
0000
0000
0000
,  // measure 4
0000
0000
0000
0000
,  // measure 5
1010
0000
1010
0000
1010
0000
0000
0000
0101
0000
0000
0101
0000
0000
0101
0000
,  // measure 6
1001
0000
1001
0000
1001
0000
0000
0000
1010
0000
0000
1010
0000
0000
0110
0000
,  // measure 7
0110
0000
0101
0000
0101
0000
0000
1001
0000
0000
1010
0000
0000
0110
0000
0000
,  // measure 8
0101
0000
0011
0000
0011
0000
0000
0000
1100
0000
0000
1100
0000
0000
1001
0000
,  // measure 9
1001
0000
0101
0000
0101
0000
0000
0000
0110
0000
0000
1010
0000
0000
1001
0000
,  // measure 10
0011
0000
0011
0000
0011
0000
0000
0000
1001
0000
0000
1100
0000
0000
1100
0000
,  // measure 11
0001
0010
0100
1000
0000
0000
1000
0100
0010
0001
0000
0000
,  // measure 12
1000
0100
0001
1000
0010
0001
1000
0100
0001
0110
0000
0000
,  // measure 13
0110
0000
0000
0000
1001
0000
0000
0000
1100
0000
0000
0110
0000
0000
0011
0000
,  // measure 14
1001
0000
0000
0000
1001
0000
0000
0000
0101
0000
0000
0101
0000
0000
0110
0000
,  // measure 15
0110
0000
0000
0000
1010
0000
0000
0000
1100
0000
0000
0110
0000
0000
0011
0000
,  // measure 16
0101
0000
0101
0000
0101
0000
0110
0000
1010
0000
0000
1000
0100
0010
0001
0000
,  // measure 17
0100
0010
1000
0100
1000
0001
0010
0000
0001
0010
1000
0010
0001
0100
1000
0000
,  // measure 18
1100
0000
0101
0000
0011
0000
0000
0000
0110
0000
0000
1100
0000
0000
1001
0000
,  // measure 19
0001
0010
0000
0010
0100
1000
0001
0000
0001
1000
0000
1000
0100
0000
0010
0000
,  // measure 20
0011
0000
0011
0000
0101
0000
0101
0000
0110
0000
0000
1010
0000
0000
1001
0000
,  // measure 21
0101
0000
0000
0000
0101
0000
0000
0000
1001
0000
0000
1001
0000
0000
1010
0000
,  // measure 22
0110
0000
0110
0000
0110
0000
0000
0000
0101
0000
0000
0011
0000
0000
0110
0000
,  // measure 23
1100
0000
0000
0000
1001
0000
0101
0000
1001
0000
0000
1010
0000
0000
0110
0000
,  // measure 24
0101
0000
0110
0000
1010
0000
0110
0000
0100
0001
0010
0100
1000
0010
0100
0000
,  // measure 25
1001
0000
0000
0000
0011
0000
0000
0000
0011
0000
0000
1100
0000
0000
0110
0000
,  // measure 26
0010
0001
0100
0010
1000
0000
0000
0000
0001
1000
0000
0010
1000
0000
1001
0000
,  // measure 27
0101
0000
0000
0000
0110
0000
1010
0000
1000
0001
0100
0001
0010
0000
0110
0000
,  // measure 28
1100
0000
1100
0000
0110
0000
0110
0000
0011
0000
0000
0011
0000
0000
0101
0000
,  // measure 29
0100
0010
1000
0100
1000
0001
0010
0000
0001
0010
1000
0010
0002
0000
0003
0000
,  // measure 30
0200
0000
0310
1000
0001
1000
0010
0100
0001
0000
0101
0000
0220
0000
0330
0000
,  // measure 31
1000
0100
0010
0001
0010
0100
1000
0000
1001
0000
0101
0000
0110
0000
0110
0000
,  // measure 32
0010
1000
0100
0010
0001
0100
0010
0000
1010
0000
1001
0000
0202
0000
0303
0000
,  // measure 33
2000
0000
3001
0100
0010
0100
1000
0000
1100
0000
0101
0000
0022
0000
0033
0000
,  // measure 34
0010
0100
1000
0100
0010
0001
0020
0000
0130
1000
0001
0100
0020
0000
0030
0000
,  // measure 35
1000
0100
0010
1000
0010
0001
1000
0000
1001
0000
0101
0000
0220
0000
0330
0000
,  // measure 36
0010
0100
0001
0010
0100
1000
0010
0100
0001
0010
0100
1000
0010
0100
0010
0100
,  // measure 37
0001
0000
0001
0000
1001
0000
0000
0000
1010
0000
0000
0110
0000
0000
0101
0000
,  // measure 38
0011
0000
0011
0000
0110
0000
0000
0000
1100
0000
0000
1001
0000
0000
0101
0000
,  // measure 39
0110
0000
0000
0000
1001
0000
0000
0000
1100
0000
0000
0011
0000
0000
0110
0000
,  // measure 40
1001
0000
1001
0000
1001
0000
1001
0000
0110
0000
0000
0110
0000
0000
0101
0000
,  // measure 41
0011
0000
0011
0000
0011
0000
0011
0000
1100
0000
0000
1010
0000
0000
0110
0000
,  // measure 42
0101
0000
0011
0000
0110
0000
0000
0000
2200
0000
3300
2002
0000
3003
0011
0000
,  // measure 43
0110
0000
0100
1000
0001
0000
0101
0000
0110
0000
0010
1000
0001
0000
1001
0000
,  // measure 44
1000
0010
0100
0010
1000
0001
0100
0001
1000
0100
0010
0001
0200
0000
0310
0000
,  // measure 45
1010
0000
1000
0001
0100
0001
0010
0000
0010
0100
1000
0100
0010
0100
1000
0000
,  // measure 46
1000
0001
0010
0001
0100
0010
0100
0000
0001
1000
0100
1000
0010
0100
0010
0000
,  // measure 47
1000
0100
1000
0100
0010
0001
0010
0000
0001
0010
0001
0010
0100
1000
0100
0000
,  // measure 48
1010
0000
0010
0100
0001
0010
0100
0000
1100
0000
1001
0000
0011
0000
0101
0000
,  // measure 49
0100
0010
1000
0010
0100
0010
1000
0010
0100
0010
1000
0010
0100
0010
1000
0000
,  // measure 50
0001
0100
0010
0100
0001
0100
0010
0100
0001
0100
0010
0100
0001
0100
0010
0000
,  // measure 51
1000
0100
0010
0001
0100
0010
1000
0100
0010
0001
0100
0010
1000
0100
0010
0000
,  // measure 52
0001
0010
1000
0010
0001
0100
1000
0100
0001
0010
1000
0010
0001
0100
1000
0100
,  // measure 53
0001
0000
0001
0000
0011
0000
0000
0000
1010
0000
0000
1100
0000
0000
0110
0000
,  // measure 54
0011
0000
0001
0100
0010
0000
0000
0000
1010
0000
0000
1100
0000
0000
0110
0000
,  // measure 55
0011
0000
1001
0000
1010
0000
0000
0000
0110
0000
0000
0110
0000
0000
1010
0000
,  // measure 56
1000
0100
1000
0000
0101
0000
0101
0000
0010
1000
0001
1000
0100
0010
0001
0000
,  // measure 57
0101
0000
0100
0000
0110
0000
0000
0000
1010
0000
0000
1001
0000
0000
0101
0000
,  // measure 58
0110
0000
0100
0000
0001
1000
0000
0010
1000
0000
0100
0010
0000
0001
0010
0000
,  // measure 59
0011
0000
1001
0000
1001
0000
0000
0000
1100
0000
0000
1010
0000
0010
0100
0001
,  // measure 60
0100
0010
1000
0000
1010
0000
1001
0000
0101
0000
0000
0110
0000
0000
0101
0000
,  // measure 61
1001
0000
1000
0000
1010
0000
0010
0100
0000
0100
0001
0010
0001
1000
0100
0000
,  // measure 62
1010
0000
MMMM
0000
0101
0000
MMMM
0000
1010
0000
0000
1100
0000
0100
0010
0000
,  // measure 63
0011
0000
0011
0000
0101
0000
0100
1000
0000
1000
0100
0010
1000
0010
0100
0000
,  // measure 64
0011
0000
1001
0000
1000
0000
0100
1000
0000
0010
0000
1000
0001
0100
0010
0000
,  // measure 65
0011
0000
0011
0000
0011
0000
0011
0000
0011
0000
0001
1000
0000
1000
0010
0000
,  // measure 66
0110
0000
0110
0000
0110
0000
0110
0000
0110
0000
0100
0001
0000
0001
1000
0000
,  // measure 67
1010
0000
1010
0000
1010
0000
1010
0000
1010
0000
0010
1000
0000
0001
1000
0000
,  // measure 68
0101
0000
0101
0000
0110
0000
0110
0000
1010
0000
1000
0001
0000
0100
0001
0000
,  // measure 69
0011
0000
0110
0000
1100
0000
0110
0000
0011
0000
0001
1000
0100
1000
0010
0000
,  // measure 70
0101
0000
0011
0000
1010
0000
0011
0000
0101
0000
0100
0010
1000
0100
1000
0000
,  // measure 71
1100
0000
0110
0000
0011
0000
0110
0000
1100
0000
0001
0010
0100
0010
0001
0000
,  // measure 72
0100
0010
1000
0000
1001
0000
0101
0000
0110
0000
1000
0100
0000
0010
0001
0000
,  // measure 73
1000
0100
0001
0100
1000
0010
1000
0010
1000
0100
0001
0100
1000
0001
1000
0001
,  // measure 74
0100
0010
1000
0010
0100
0001
0010
1000
0010
0001
0100
1000
0100
0001
0010
0100
,  // measure 75
1000
0100
0010
1000
0010
0001
0010
0100
0001
0100
1000
0100
0010
1000
0010
0001
,  // measure 76
0100
0010
1000
0100
0001
1000
0010
0001
1000
0000
0000
2002
0000
0000
0000
0000
,  // measure 77
3003
0000
0000
0000
;
