#TITLE:SEDUCTION(Vocal Remix);
#SUBTITLE:;
#ARTIST:NC feat. NRG Factory;
#TITLETRANSLIT:;
#SUBTITLETRANSLIT:;
#ARTISTTRANSLIT:;
#GENRE:;
#CREDIT:;
#BANNER:SEDUCTION(Vocal Remix).png;
#BACKGROUND:SEDUCTION(Vocal Remix)-bg.png;
#LYRICSPATH:;
#CDTITLE:;
#MUSIC:SEDUCTION(Vocal Remix).ogg;
#OFFSET:0.000000;
#SAMPLESTART:53.080002;
#SAMPLELENGTH:15.000000;
#SELECTABLE:YES;
#DISPLAYBPM:190.000000;
#BPMS:0.000000=190.475998
,4.000000=190.013000
;
#STOPS:
;
#BGCHANGES:;
#KEYSOUNDS:;
#ATTACKS:;

//---------------dance-single - ----------------
#NOTES:
     dance-single:
     :
     Beginner:
     3:
     0.190385,0.222449,0.020040,0.000000,0.000000,133.000000,131.000000,2.000000,0.000000,0.000000,0.000000,0.190385,0.222449,0.020040,0.000000,0.000000,133.000000,131.000000,2.000000,0.000000,0.000000,0.000000:
0000
0000
0000
0000
,
0000
0000
0000
0000
,
0000
0000
0000
0000
,
0000
0000
0000
0000
,
0000
0000
0000
0000
,
0000
0000
0000
0000
,
0010
0000
0000
0000
,
0001
0000
0000
0000
,
0100
0000
0000
0000
,
1000
0000
0000
0000
,
0010
0000
1000
0000
,
0001
0000
0001
0000
,
0010
0000
0001
0000
,
1000
0000
1000
0000
,
0010
0000
0100
0000
,
1000
0000
1000
0000
,
0100
0000
0001
0000
,
1000
0000
0010
0000
,
0100
0000
0001
0000
,
0100
0000
1000
0000
,
0010
0000
0001
0000
,
0010
0000
1000
0000
,
0001
0000
0100
0000
,
0001
0000
1000
0000
,
0001
0001
0000
1000
,
0000
0100
0000
1001
,
0000
1000
0000
1000
,
0000
0010
0000
1000
,
0000
0010
0000
0100
,
0000
0100
0000
0010
,
0000
0100
0000
0100
,
0000
0001
0000
1000
,
0000
0001
0000
1000
,
0000
0000
0000
0000
,
1000
0000
0001
0000
,
1000
0000
0100
0000
,
0010
0000
0010
0000
,
0100
0000
1000
0000
,
0010
0000
1000
0000
,
0100
0000
0001
0000
,
0010
0000
1000
0000
,
0010
0000
0000
0000
,
0100
0000
1000
0000
,
0100
0000
1000
0000
,
0010
0000
0100
0000
,
0010
0000
0001
0000
,
0001
0000
0001
0000
,
0100
0000
1000
0000
,
1000
0000
0100
0000
,
1000
0000
0010
0000
,
0010
0000
0100
0000
,
0010
0000
0001
0000
,
1000
0000
0001
0000
,
1000
0000
0010
0000
,
0100
0000
0100
0000
,
0010
0000
1000
0000
,
0100
0000
1000
0000
,
0010
0000
0001
0000
,
0100
0000
1000
0000
,
0100
0000
0001
0000
,
0010
0000
0100
0000
,
0010
0000
0100
0000
,
1000
0000
1000
0000
,
0001
0000
0001
0000
,
0010
0000
0001
0000
,
0010
0000
1000
0000
,
0010
0000
1000
0000
,
0100
0000
0010
0000
,
0001
0000
0100
0000
,
0010
0000
1000
0000
,
0001
0000
0001
0000
,
1000
0000
1000
0000
,
0100
0000
0010
0000
,
0100
0000
0100
0000
,
1001
0000
0000
0000
,
0000
0000
0000
0000
;

//---------------dance-single - ----------------
#NOTES:
     dance-single:
     :
     Easy:
     6:
     0.324942,0.374507,0.040081,0.040081,0.000000,227.000000,223.000000,4.000000,4.000000,0.000000,0.000000,0.324942,0.374507,0.040081,0.040081,0.000000,227.000000,223.000000,4.000000,4.000000,0.000000,0.000000:
0000
0000
0000
0000
,
0000
0000
0000
0000
,
0000
0000
0000
0000
,
0000
0000
0000
0000
,
0000
0000
0000
0000
,
0000
0000
0000
0000
,
0010
0000
0000
0000
,
0001
0000
0000
0000
,
0100
0000
0000
0000
,
1000
0000
0000
0000
,
0010
0000
1000
0000
,
0001
0100
0001
0000
,
0010
0000
0001
0000
,
1000
0100
1000
0000
,
0010
0000
0100
0000
,
1000
0001
1000
0000
,
0100
0000
0001
0000
,
1000
0100
0010
0000
,
0100
0000
0001
0000
,
0100
0000
1000
0000
,
0010
0000
0001
0000
,
0010
0000
1000
0000
,
0001
0000
0100
0000
,
0001
0000
1000
0000
,
0001
0001
1000
1000
,
0010
0100
0010
1001
,
0100
1000
0010
1000
,
0100
0010
0001
1000
,
0001
0010
0001
0100
,
0010
0100
1000
0010
,
1000
0100
0010
0100
,
1000
0001
0100
1000
,
0100
0001
0010
1000
,
0002
0000
0000
0003
,
1000
0100
0001
0100
,
1000
0010
0100
0001
,
0010
1000
0010
0001
,
0100
0010
1000
0100
,
0010
0001
1000
0010
,
0100
0010
0001
1000
,
0010
0100
1000
0001
,
0020
0000
0000
0030
,
0100
0001
1000
0001
,
0100
0010
1000
0100
,
0010
0001
0100
1000
,
0010
0100
0001
1000
,
0001
0100
0001
0010
,
0100
0010
1000
0100
,
1000
0010
0100
0010
,
1000
0001
0010
1000
,
0010
0001
0100
1000
,
0010
0100
0001
0100
,
1000
0010
0001
0010
,
1000
0100
0010
0001
,
0100
1000
0100
0001
,
0010
0100
1000
0010
,
0100
0001
1000
0100
,
0010
0100
0001
1001
,
0100
0010
1000
0000
,
0100
0010
0001
0000
,
0010
1000
0100
0000
,
0010
0001
0100
0000
,
1000
0100
1000
0100
,
0001
0100
0001
0100
,
0010
1000
0001
0100
,
0010
0100
1000
1001
,
0010
0001
1000
0000
,
0100
1000
0010
0000
,
0001
1000
0100
0000
,
0010
0100
1000
0000
,
0001
0010
0001
0010
,
1000
0010
1000
0010
,
0100
0001
0010
1000
,
0100
0010
0100
0001
,
2002
0000
0000
3003
,
0000
0000
0000
0000
;

//---------------dance-single - ----------------
#NOTES:
     dance-single:
     :
     Medium:
     9:
     0.445185,0.486858,0.070142,0.060121,0.000000,311.000000,304.000000,7.000000,6.000000,0.000000,0.000000,0.445185,0.486858,0.070142,0.060121,0.000000,311.000000,304.000000,7.000000,6.000000,0.000000,0.000000:
0000
0000
0000
0000
,
0000
0000
0000
0000
,
0000
0000
0000
0000
,
0000
0000
0000
0000
,
0000
0000
0000
0000
,
0000
0000
0000
0000
,
0010
0000
1000
0000
,
0100
0000
0000
0000
1000
0001
0100
0000
,
0010
0000
0100
0000
,
0001
0000
0000
0000
0010
0001
0100
0000
,
0010
0000
0000
1000
0002
0000
0000
0000
,
0100
1000
0010
0003
,
0100
0000
0000
0001
2000
0000
0000
0000
,
0010
0001
0100
3000
,
0100
0000
0000
0010
0002
0000
0000
0000
,
0010
0100
0010
0003
,
0100
0000
0000
0001
2000
0000
0000
0000
,
0010
0001
0100
3000
,
1000
0100
0001
0100
,
1000
0001
0010
0100
,
0001
0100
0001
1000
,
0100
0010
0001
0100
,
1000
0100
1000
0000
0001
0100
0001
0000
,
1000
0010
1000
0000
0001
0010
0001
0000
,
0010
1000
0100
0001
,
0010
0000
1000
0010
0100
0000
1001
0000
,
0001
1000
0001
0010
,
1000
0000
0100
0000
0001
0100
0010
0000
,
1000
0001
0100
0010
,
0001
0000
1000
0000
0010
0100
1000
0000
,
0001
0100
1000
0100
,
0010
0000
1000
0000
0010
0001
1000
0000
,
0100
0001
0100
1000
,
0010
1000
0100
1001
,
0010
0000
1000
0100
1000
0000
0010
0000
,
1000
0000
0100
0000
0001
0100
0010
0000
,
0001
0000
1000
0100
0001
0000
0100
0000
,
1000
0000
0010
0000
0001
0010
0100
0000
,
0001
0000
1000
0001
0100
0000
0010
0000
,
0100
0000
0001
0000
0100
0010
1000
0000
,
0100
0000
0001
1000
0010
0000
1000
0000
,
0010
0100
0010
1001
,
0100
0000
0010
0001
0000
0010
0000
1000
,
0000
0100
0000
0001
1000
0000
0100
0000
,
0001
0000
0010
0100
0000
0010
0000
1000
,
0000
0100
0000
0010
0100
0000
1000
0000
,
0100
0000
1000
0001
0000
0100
0000
1000
,
0000
0001
0000
0010
1000
0000
0001
0000
,
0100
0000
0010
0100
0000
0001
0000
0010
,
0000
1000
0000
0100
0001
0000
1000
0000
,
0010
0000
0100
0001
0000
1000
0000
0001
,
0000
0100
0000
1000
0100
0000
0010
0000
,
1000
0000
0100
0010
0000
0100
0000
1000
,
0000
0010
0000
0001
1000
0000
0100
0000
,
0001
0000
1000
0100
0000
0001
0000
0100
,
0000
1000
0000
0010
0001
0000
0100
0000
,
1000
0000
0001
0010
0000
0001
0000
1000
,
0000
0100
0000
0010
0001
0000
0110
0000
,
0010
0000
1000
0000
0010
0001
0100
0000
,
1000
0000
0001
0000
0100
1000
0010
0000
,
1000
0000
0010
0000
1000
0001
0100
0000
,
1000
0000
0001
0000
0010
0001
0100
0000
,
0001
0010
0001
0000
1000
0010
1000
0000
,
0100
0010
0100
0000
0001
0010
0001
0000
,
1000
0001
0010
0000
0100
1000
0001
0000
,
0010
0001
1000
0110
,
0001
0000
1000
0000
0100
0001
0010
0000
,
0100
0000
0001
0000
0010
1000
0100
0000
,
1000
0000
0100
0000
1000
0001
0010
0000
,
1000
0000
0010
0000
0100
0001
0010
0000
,
0001
0100
0001
0000
0010
0100
0010
0000
,
1000
0100
1000
0000
0001
0100
0001
0000
,
0010
1000
0001
0000
1000
0010
0100
0000
,
0010
1000
0001
0110
,
2002
0000
0000
3003
,
0000
0000
0000
0000
;

//---------------dance-single - ----------------
#NOTES:
     dance-single:
     :
     Hard:
     12:
     0.605509,0.636661,0.470951,0.020040,0.000000,423.000000,376.000000,47.000000,2.000000,0.000000,0.000000,0.605509,0.636661,0.470951,0.020040,0.000000,423.000000,376.000000,47.000000,2.000000,0.000000,0.000000:
0000
0000
0000
0000
,
0000
0000
0000
0000
,
0000
0000
0000
0000
,
0000
0000
0000
0000
,
0000
0000
0000
0000
,
0000
0000
0000
0000
,
0100
0000
1000
0001
0000
0100
0000
0001
,
0000
0010
0000
0001
1000
0000
0010
0000
,
0100
0000
0001
0010
0000
0100
0000
1000
,
0000
0010
0000
1000
0100
0000
0010
0000
,
0100
0000
0000
0001
0100
0000
0000
0001
,
0010
0001
0100
0000
,
0010
0000
0000
0001
1000
0000
0000
0010
,
0100
1000
0100
0001
,
0010
0000
0000
0100
1000
0000
0000
0001
,
0100
0010
0100
0000
,
0010
0000
0000
1000
0001
0000
0000
0010
,
0001
1000
0010
0100
,
0001
0000
0010
1000
0000
0010
0000
0001
,
0000
1000
0000
0100
0010
0000
0100
0000
,
1000
0000
0010
1000
0000
0001
0000
0010
,
0000
0100
0000
1000
0100
0000
0001
0100
,
0000
0010
0001
0100
0000
0010
1000
0100
,
0000
0010
0100
1000
0000
0010
0100
0001
,
1000
0100
0010
0100
1000
0100
0010
0100
,
1000
0000
0001
0100
0010
1000
0100
0000
,
1000
0001
0100
1000
0000
0100
0000
0001
,
0000
0010
0000
0001
1000
0010
0100
0001
,
0000
1000
0100
0010
0000
0100
0000
1000
,
0000
0001
0000
0100
0010
0100
0001
1000
,
0000
0010
1000
0001
0000
0010
0000
0100
,
0000
0001
0000
0100
1000
0001
0100
0010
,
0000
1000
0100
0010
0000
0001
0000
0100
,
0000
0001
0000
0010
0001
1000
0010
0000
,
0100
0001
0010
0001
0000
1100
0000
0101
,
0000
0011
0000
1000
0010
0100
0010
1000
,
0000
0001
0010
1000
0000
0011
0000
1001
,
0000
0101
0000
1000
0100
0010
0100
1000
,
0000
0001
1000
0010
0000
0101
0000
0011
,
0000
1100
0000
0010
0100
0001
0100
0010
,
0000
1000
0001
0100
0000
0001
1000
0100
,
0000
0010
0001
0100
0010
1000
0001
0000
,
0001
1000
0100
0001
0000
1100
0000
1001
,
0000
0110
0000
1000
0001
0010
0100
1000
,
0000
0001
0100
0010
0000
0101
0000
1001
,
0000
0011
0000
0100
0010
0100
1000
0001
,
0000
0010
0001
1000
0000
0110
0000
0101
,
0000
1010
0000
0100
0001
1000
0100
0010
,
0000
0001
0100
0010
0000
1100
0000
0101
,
0000
1001
0000
0010
1000
0001
0010
0100
,
0000
1000
0010
1000
0000
0101
0000
1100
,
0000
1010
0000
0001
0010
0100
0010
0001
,
0000
1000
0010
0100
0000
1010
0000
1001
,
0000
1100
0000
0001
0100
0010
0100
0001
,
0000
1000
0001
0010
0000
1100
0000
1010
,
0000
0101
0000
0010
0100
1000
0100
0010
,
0000
0001
1000
0100
0000
1000
0001
0100
,
0000
0010
1000
0100
0010
0001
1000
0000
,
0110
0000
1001
0000
0100
1000
0010
0000
,
0101
0000
1100
0000
0010
0001
0100
0000
,
0011
0000
1100
0000
0001
1000
0010
0000
,
0101
0000
1010
0000
0100
1000
0010
0000
,
1000
0100
1000
0100
0001
0100
0001
0100
,
0010
0100
0010
0100
1000
0100
1000
0100
,
0010
0001
0100
0010
1000
0100
0010
0001
,
0100
0010
1000
0100
0001
0100
1000
0000
,
0110
0000
1001
0000
0010
1000
0100
0000
,
0011
0000
1010
0000
0100
0001
0010
0000
,
0101
0000
1010
0000
0001
1000
0100
0000
,
0011
0000
1100
0000
0010
1000
0100
0000
,
1000
0010
1000
0010
0100
0010
0100
0010
,
0001
0010
0001
0010
1000
0010
1000
0010
,
0001
1000
0100
0001
1000
0010
0001
0010
,
0100
0001
0010
0001
0100
0010
1000
0000
,
2002
0000
0000
3003
;

//---------------dance-double - ----------------
#NOTES:
     dance-double:
     :
     Easy:
     6:
     0.299176,0.374507,0.050101,0.060121,0.000000,209.000000,204.000000,5.000000,6.000000,0.000000,0.000000,0.299176,0.374507,0.050101,0.060121,0.000000,209.000000,204.000000,5.000000,6.000000,0.000000,0.000000:
00000000
00000000
00000000
00000000
,
00000000
00000000
00000000
00000000
,
00000000
00000000
00000000
00000000
,
00000000
00000000
00000000
00000000
,
00000000
00000000
00000000
00000000
,
00000000
00000000
00000000
00000000
,
01000000
00000000
00000000
00000000
,
10000000
00000000
00000000
00000000
,
00100000
00000000
00000000
00000000
,
00010000
00000000
00000000
00000000
,
00001000
00000000
00000100
00000000
,
00001000
00000010
00001000
00000000
,
00000001
00000000
00000010
00000000
,
00000100
00000010
00000100
00000000
,
00001000
00000000
00010000
00000000
,
00100000
00010000
00100000
00000000
,
10000000
00000000
01000000
00000000
,
00010000
00001000
00010000
00000000
,
00022000
00000000
00000000
00000000
,
00000000
00000000
00000000
00000000
,
00000000
00000000
00000000
00000000
,
00000000
00000000
00000000
00033000
,
00000010
00000000
00001000
00000000
,
00010000
00000000
00100000
00000000
,
00001000
00001000
00010000
00010000
,
00001000
00010000
00001000
00011000
,
00100000
00010000
01000000
00010000
,
00100000
01000000
10000000
00000000
,
10000000
01000000
10000000
00100000
,
01000000
00100000
00010000
00000000
,
00001000
00000010
00000100
00000010
,
00001000
00000001
00000010
00000000
,
00000001
00001000
00000100
00000010
,
00002000
00000000
00000000
00003000
,
00010000
00100000
10000000
00100000
,
00010000
01000000
00100000
10000000
,
01000000
00010000
01000000
10000000
,
00100000
01000000
00010000
00000000
,
00001000
00000010
00000001
00000100
,
00000010
00000100
00001000
00000001
,
00000100
00000010
00000001
00001000
,
00000200
00000000
00000000
00000300
,
00000010
00001000
00000001
00000000
,
00000010
00000100
00000001
00000100
,
00001000
00010000
00100000
00000000
,
01000000
00100000
10000000
00010000
,
10000000
00100000
10000000
00000000
,
00100000
10000000
01000000
00010000
,
00001000
00000010
00000001
00000000
,
00000001
00001000
00000100
00000001
,
00000100
00001000
00000010
00000000
,
00000100
00000010
00001000
00010000
,
00100000
10000000
01000000
00000000
,
00010000
00100000
01000000
10000000
,
00100000
00010000
00100000
00000000
,
01000000
00100000
00010000
00001000
,
00000010
00001000
00000001
00000000
,
00000100
00000010
00001000
00001001
,
00000010
00000100
00000001
00000000
,
00000100
00001000
00010000
00000000
,
01000000
00010000
00100000
00000000
,
01000000
10000000
00100000
00000000
,
10000000
01000000
10000000
01000000
,
00010000
01000000
00010000
01000000
,
00010000
00001000
00010000
00001000
,
00000100
00000001
00000010
00001001
,
00000010
00000100
00000001
00000000
,
00000010
00001000
00010000
00000000
,
00100000
00010000
01000000
00000000
,
00100000
10000000
00010000
00000000
,
10000000
01000000
10000000
01000000
,
00010000
01000000
00010000
01000000
,
00010000
00001000
00010000
00001000
,
00000010
00000001
00000100
00000010
,
00002002
00000000
00000000
00003003
,
00000000
00000000
00000000
00000000
;

//---------------dance-double - ----------------
#NOTES:
     dance-double:
     :
     Medium:
     8:
     0.429439,0.486858,0.030061,0.020040,0.000000,300.000000,297.000000,3.000000,2.000000,0.000000,0.000000,0.429439,0.486858,0.030061,0.020040,0.000000,300.000000,297.000000,3.000000,2.000000,0.000000,0.000000:
00000000
00000000
00000000
00000000
,
00000000
00000000
00000000
00000000
,
00000000
00000000
00000000
00000000
,
00000000
00000000
00000000
00000000
,
00000000
00000000
00000000
00000000
,
00000000
00000000
00000000
00000000
,
00000010
00000000
00000001
00000000
,
00000100
00000000
00000000
00000000
00000001
00001000
00000100
00000000
,
00000010
00000000
00000100
00000000
,
00001000
00000000
00000000
00000000
00000010
00001000
00000100
00000000
,
00000010
00000000
00000000
00000001
00000100
00000000
00000000
00000000
,
00001000
00010000
00100000
00000000
,
01000000
00000000
00000000
10000000
00010000
00000000
00000000
00000000
,
00100000
10000000
01000000
00000000
,
01000000
00000000
00000000
00100000
10000000
00000000
00000000
00000000
,
00100000
00010000
00001000
00000000
,
00000100
00000000
00000000
00000010
00000001
00000000
00000000
00000000
,
00000010
00001000
00000100
00000000
,
00000001
00000100
00001000
00000000
,
00000001
00001000
00000010
00000000
,
00001000
00000100
00001000
00000000
,
00000100
00000010
00001000
00000000
,
00000001
00000100
00000001
00000000
00001000
00000100
00001000
00000000
,
00010000
00001000
00010000
00000000
01000000
00010000
01000000
00000000
,
00100000
00010000
01000000
10000000
,
00100000
01000000
00100000
10010000
,
01000000
00010000
10000000
00100000
,
00010000
00000000
01000000
00000000
10000000
01000000
00100000
00000000
,
00010000
10000000
00100000
01000000
,
10000000
00000000
00010000
00000000
00100000
01000000
00010000
00000000
,
00001000
00000100
00000001
00000100
,
00000010
00000000
00000001
00000000
00000010
00001000
00000001
00000000
,
00000100
00001000
00000100
00000001
,
00000010
00000001
00000000
00000100
00000000
00001000
00010000
00000000
,
00100000
00010000
01000000
00100000
,
00010000
00000000
01000000
00000000
10000000
01000000
00100000
00000000
,
10000000
00010000
10000000
01000000
,
00010000
00000000
00100000
00000000
10000000
00100000
01000000
00000000
,
00010000
00001000
00000100
00000010
,
00000100
00000000
00001000
00000000
00000100
00000010
00000001
00000000
,
00000100
00001000
00000010
00000001
,
00000010
00001000
00000000
00010000
00000000
00001000
00000010
00000000
,
00000100
00001000
00000001
00000010
,
00001000
00000000
00000100
00000000
00000001
00000100
00000010
00000000
,
00001000
00000001
00000010
00000100
,
00000001
00000000
00001000
00000000
00000010
00000100
00001000
00000000
,
00010000
01000000
10000000
01000000
,
00100000
00000000
10000000
00000000
00100000
00010000
10000000
00000000
,
01000000
00010000
01000000
10000000
,
00100000
00000000
10000000
00000000
01000000
00010000
00001000
00000000
,
00000010
00000100
00001000
00000010
,
00000001
00000000
00000100
00000000
00001000
00000100
00000010
00000000
,
00000001
00001000
00000001
00000100
,
00001000
00000000
00000010
00000000
00000001
00000010
00000100
00000000
,
00001000
00010000
01000000
00100000
,
01000000
00000000
00010000
00000000
01000000
00100000
10000000
00000000
,
01000000
00010000
00100000
10000000
,
00100000
00000000
01000000
00000000
00100000
00010000
00001000
00000000
,
00000010
00000000
00000001
00000000
00001000
00000001
00000100
00000000
,
00000001
00000000
00000010
00000000
00000100
00000001
00000010
00000000
,
00000100
00000000
00001000
00000000
00000001
00001000
00000100
00000000
,
00000010
00000000
00001000
00000000
00000001
00000100
00000010
00000000
,
00000001
00000010
00000001
00000000
00000010
00001000
00000010
00000000
,
00001000
00010000
00001000
00000000
00010000
00100000
00010000
00000000
,
00100000
01000000
00100000
00000000
10000000
00010000
10000000
00000000
,
01000000
10000000
00100000
01010000
,
00100000
00000000
10000000
00000000
00010000
10000000
01000000
00000000
,
10000000
00000000
00100000
00000000
01000000
10000000
00100000
00000000
,
01000000
00000000
00010000
00000000
10000000
00010000
01000000
00000000
,
00100000
00000000
00010000
00000000
10000000
01000000
00100000
00000000
,
10000000
00100000
10000000
00000000
01000000
00010000
01000000
00000000
,
00010000
00001000
00010000
00000000
00001000
00000010
00001000
00000000
,
00000010
00000001
00000010
00000000
00000001
00000100
00000001
00000000
,
00000010
00000001
00000100
00001000
,
00022000
00000000
00000000
00033000
,
00000000
00000000
00000000
00000000
;

//---------------dance-double - ----------------
#NOTES:
     dance-double:
     :
     Hard:
     12:
     0.571154,0.636661,0.290587,0.020040,0.000000,399.000000,370.000000,29.000000,2.000000,0.000000,0.000000,0.571154,0.636661,0.290587,0.020040,0.000000,399.000000,370.000000,29.000000,2.000000,0.000000,0.000000:
00000000
00000000
00000000
00000000
,
00000000
00000000
00000000
00000000
,
00000000
00000000
00000000
00000000
,
00000000
00000000
00000000
00000000
,
00000000
00000000
00000000
00000000
,
00000000
00000000
00000000
00000000
,
00000010
00000000
00000001
00001000
00000000
00000010
00000000
00001000
,
00000000
00000100
00000000
00010000
00001000
00000000
00100000
00000000
,
00010000
00000000
10000000
01000000
00000000
00010000
00000000
00001000
,
00000000
00000100
00000000
00001000
00010000
00000000
01000000
00000000
,
00100000
00000000
00000000
00001000
00010000
00000000
00000000
00000010
,
00001000
00000001
00000010
00000000
,
00000100
00000000
00000000
00001000
00000001
00000000
00000000
00000100
,
00001000
00010000
01000000
00000000
,
10000000
00000000
00000000
00010000
01000000
00000000
00000000
00001000
,
00010000
00000100
00000010
00000000
,
00000001
00000000
00000000
00001000
00000010
00000000
00000000
00000100
,
00001000
00010000
01000000
00000000
,
10010000
00000000
01000000
00001000
00000000
00010000
00000000
00000010
,
00000000
00001000
00000000
00000100
00010000
00000000
00001000
00000000
,
00100000
00000000
00010000
01000000
00000000
00001000
00000000
00000010
,
00000000
00000001
00000000
00001000
00000010
00000000
00000100
00001000
,
00000000
00010000
01000000
10000000
00000000
00010000
01000000
00001000
,
00000000
00010000
01000000
10000000
00000000
00010000
01000000
00100000
,
00010000
00001000
00000010
00000001
00000100
00001000
00000100
00000001
,
00001000
00000000
00000001
00000100
00001000
00010000
00100000
00000000
,
10000000
01000000
00100000
00010000
00000000
01000000
00000000
00001000
,
00000000
00010000
00000000
00000010
00001000
00000100
00010000
00001000
,
00000000
00100000
00010000
01000000
00000000
00001000
00000000
00010000
,
00000000
00000010
00000000
00001000
00000001
00000010
00000100
00001000
,
00000000
00000001
00000100
00001000
00000000
00010000
00000000
00100000
,
00000000
10000000
00000000
00010000
10000000
01000000
00010000
00001000
,
00000000
00100000
00010000
01000000
00000000
00001000
00000000
00010000
,
00000000
00000010
00000000
00001000
00000001
00001000
00000010
00000000
,
00000100
00001000
00010000
00001000
00000000
00100000
00000000
00010000
,
00000000
10000000
00000000
01000000
00010000
00001000
00000100
00001000
,
00000000
00010000
00001000
00010010
00000000
00000100
00000000
00000001
,
00000000
00001000
00000000
00000100
00010000
00001000
00010000
00000100
,
00000000
00001000
00000001
00000100
00000000
00001000
00000000
00010000
,
00000000
00100000
00000000
10000000
01000000
00010000
01000000
10000000
,
00000000
00010000
01000000
00100000
00000000
00010000
00001000
00000010
,
00000000
00000001
00000100
00001000
00010000
00100000
10000000
00000000
,
11000000
01010000
00011000
00001010
,
00000011
00000000
00001000
00000100
00010000
00001000
00100000
00000000
,
00010000
01000000
00100000
00000000
10000000
01000000
00010000
00000000
,
00001000
00000100
00001000
00000000
00010000
01000000
10000000
00000000
,
10010000
01001000
00010010
00001001
,
00000110
00000000
00001000
00000001
00000100
00000010
00001000
00000000
,
00000100
00010000
00001000
00000000
00110000
00000000
00011000
00000000
,
00001100
00000000
00000001
00000010
00000100
00001000
00000010
00000000
,
00000101
00001100
00011000
00110000
,
10100000
00000000
01000000
00010000
00100000
01000000
10000000
00000000
,
00010000
01000000
00100000
00000000
00010000
00001000
00000010
00000000
,
00000001
00001000
00000010
00000000
00000100
00000001
00001000
00000000
,
00010100
00101000
10010000
01001000
,
00010010
00000000
00001000
00000001
00000010
00000100
00001000
00000000
,
00000001
00000100
00000010
00000000
00001001
00000000
00010100
00000000
,
00101000
00000000
00010000
10000000
00100000
01000000
00010000
00000000
,
10000000
00000000
01000000
00000000
00010000
00001000
00000100
00000000
,
00000001
00000000
00001000
00000000
00000100
00000010
00000001
00000000
,
00001000
00000000
00000100
00000000
00010000
00001000
00100000
00000000
,
00010000
00000000
10000000
00000000
00100000
01000000
00010000
00000000
,
10000000
01000000
10000000
01000000
00010000
01000000
00010000
01000000
,
00010000
00001000
00010000
00001000
00000010
00001000
00000010
00001000
,
00000010
00000001
00000010
00000100
00000010
00001000
00000010
00000100
,
00001000
00000001
00000100
00001000
00010000
00100000
10000000
00000000
,
01000000
00000000
00010000
00000000
00001000
00000100
00000001
00000000
,
00001000
00000000
00000100
00000000
00010000
00000010
00000100
00000000
,
00001000
00000000
00010000
00000000
01000000
00010000
00001000
00000000
,
00000100
00000000
00000001
00000000
00001000
00000100
00000010
00000000
,
00000001
00000100
00000001
00000100
00001000
00000100
00001000
00000100
,
00001000
00010000
00001000
00010000
01000000
00010000
01000000
00010000
,
01000000
10000000
01000000
00100000
01000000
00010000
01000000
00100000
,
00010000
10000000
00100000
00010000
00001000
00000100
00000001
00000000
,
00002002
00000000
00000000
00003003
,
00000000
00000000
00000000
00000000
;

//---------------dance-single - ----------------
#NOTES:
     dance-single:
     :
     Challenge:
     15:
     0.793031,0.861365,0.380769,0.020040,0.265536,554.000000,516.000000,38.000000,2.000000,48.000000,0.000000,0.793031,0.861365,0.380769,0.020040,0.265536,554.000000,516.000000,38.000000,2.000000,48.000000,0.000000:
// measure 0
0000
0000
0000
0000
,  // measure 1
0000
0000
0000
0000
,  // measure 2
0000
0000
0000
0000
,  // measure 3
0000
0000
0000
0000
,  // measure 4
0000
0000
0000
0000
,  // measure 5
0000
0000
0000
0000
,  // measure 6
0001
0010
1000
0010
0000
0011
0000
0101
,  // measure 7
0000
1100
0000
0100
0001
0010
0100
0000
,  // measure 8
1000
0010
0001
0010
0000
1010
0000
1000
,  // measure 9
0100
0010
0001
0010
0100
1000
0001
0010
,  // measure 10
0001
0000
0000
0100
0001
0000
MMMM
0010
,  // measure 11
0100
0010
1000
0001
0010
0001
0100
0000
,  // measure 12
0010
1000
0010
0000
1000
0000
0100
0000
0001
0000
0100
0000
1000
0000
0100
0000
,  // measure 13
0010
0000
0001
0000
0100
0000
0010
0000
1000
0010
1000
0000
0010
0000
0000
0000
,  // measure 14
0100
0001
0100
0001
0100
0000
0010
0000
1000
0000
0100
0000
0010
0000
0000
0000
,  // measure 15
0001
0000
0100
0000
1000
0000
0100
0000
0001
0010
0001
0010
0001
0000
0010
0000
,  // measure 16
0001
0010
0001
0010
0100
1000
0010
0100
,  // measure 17
0001
0010
0001
0010
0001
0000
1000
0000
0010
0000
0100
0000
0001
0000
0010
0000
,  // measure 18
0100
1000
0010
0100
0000
0101
0000
0011
,  // measure 19
0000
0110
0000
1000
0100
0001
0100
0000
,  // measure 20
1000
0001
1000
0000
0100
0000
0010
0000
0001
0000
0010
0000
0001
0000
0100
0000
,  // measure 21
0010
1000
0010
0000
0100
0000
0001
0000
1000
0000
0010
0000
0100
0000
0010
0000
,  // measure 22
1000
0100
1000
0000
0100
0000
0010
0000
0001
0100
0001
0000
0100
0000
0010
0000
,  // measure 23
1000
0001
1000
0000
0010
0000
0100
0000
0001
0010
0001
0000
0100
0000
0010
0000
,  // measure 24
1000
0100
1000
0100
0010
0000
0001
0000
0100
0010
0100
0010
1000
0000
0001
0000
,  // measure 25
0010
0000
1000
0000
0010
0000
0001
0000
0100
0000
0010
0000
1000
0100
0010
0000
,  // measure 26
0001
0001
0100
1010
0000
0011
0000
1010
,  // measure 27
0000
MMMM
0000
1000
0100
0010
0101
0000
,  // measure 28
0001
0010
1000
0010
0000
MMMM
0000
0101
,  // measure 29
0000
0110
0000
0010
1000
0100
MMMM
0000
,  // measure 30
0010
0001
0100
1000
0000
0101
0000
0011
,  // measure 31
0000
MMMM
0000
1000
0010
0001
0010
0000
,  // measure 32
0100
1000
0010
0100
0000
MMMM
0000
0011
,  // measure 33
0000
0000
1100
0000
0000
0000
0010
0000
0100
0000
0001
0000
0010
0001
0010
0000
,  // measure 34
0100
0000
1000
0000
0001
0000
0010
0001
0010
0000
0100
0010
0100
0000
1000
0100
,  // measure 35
1000
0000
0001
0010
0001
0000
0100
0000
0010
0000
1000
0000
MMMM
0000
0000
0000
,  // measure 36
0001
0000
0010
0000
0100
1000
0100
0000
0000
0000
0011
0000
0000
0000
0101
0000
,  // measure 37
0000
MMMM
0000
1000
0100
0001
MMMM
0000
,  // measure 38
0010
0000
0100
0000
1000
0100
1000
0000
0100
0000
0010
0000
0001
0000
0100
0000
,  // measure 39
0010
1000
0010
0000
0100
0000
0001
0000
1000
0000
0010
0000
0100
0000
0001
0000
,  // measure 40
0010
0100
0010
0000
0100
0000
1000
0000
0001
0010
0001
0000
0100
0000
0010
0000
,  // measure 41
1000
0100
1000
0000
0100
0000
0010
0000
0001
0100
0001
0100
0010
0000
1000
0000
,  // measure 42
0100
0001
0100
MMMM
0000
1010
0000
0110
,  // measure 43
0000
0101
0000
0001
0010
1000
0010
0001
,  // measure 44
0100
1000
0100
0001
0010
0100
1000
0100
,  // measure 45
0010
0001
0100
0010
0100
0001
1000
0000
,  // measure 46
0000
MMMM
0100
0010
0000
0001
0000
1010
,  // measure 47
0000
0000
0110
0000
0000
0000
0100
0000
0001
0010
0001
0000
0010
0000
0100
0000
,  // measure 48
1000
0010
0001
1010
0100
0010
0001
0100
,  // measure 49
0010
1000
0010
0100
0001
0010
0100
1000
,  // measure 50
0010
0100
0001
0011
0000
1010
0000
0011
,  // measure 51
0000
0101
0000
1000
0100
0001
0010
0001
,  // measure 52
0000
0100
1000
0010
0000
0101
0000
0011
,  // measure 53
0000
0010
0100
1000
0100
0010
0001
0100
,  // measure 54
0010
1000
0010
0000
1000
0000
0100
0000
0010
0000
0001
0000
0010
0000
0100
0000
,  // measure 55
1000
0001
1000
0000
0010
0000
0100
0000
0010
0000
1000
0000
0001
0000
0100
0000
,  // measure 56
0010
1000
0010
0000
1000
0000
0100
0000
0010
0001
0010
0000
0001
0000
0100
0000
,  // measure 57
0010
0100
0010
0000
1000
0000
0100
0000
0010
0001
0010
0000
0001
0000
0000
0000
,  // measure 58
0110
0000
1001
0000
1000
0100
0001
0100
,  // measure 59
1000
0000
1010
0000
0010
0001
0010
1000
,  // measure 60
0001
0100
0001
0100
0010
1000
0010
1000
,  // measure 61
0100
0000
0010
0000
0001
0000
0100
0000
0010
1000
0010
0000
0100
0000
0001
0000
,  // measure 62
0010
0010
0100
0100
1000
1000
0001
0001
,  // measure 63
0010
0010
0100
0100
1000
1000
0001
0001
,  // measure 64
0010
0100
0010
0000
0100
0010
0100
0000
0010
1000
0010
1000
0001
0000
0000
0000
,  // measure 65
MMMM
0000
0100
0010
0100
0010
1000
0000
0001
0000
0010
0000
0001
0000
0100
0000
,  // measure 66
0010
1000
0010
1000
0001
0100
0001
0100
,  // measure 67
0010
0100
0010
0001
0010
0100
0010
0001
,  // measure 68
0010
0100
1000
0100
0010
0100
1000
0001
,  // measure 69
0010
0001
0010
0000
0100
1000
0100
0000
1000
0001
1000
0000
0001
0100
0001
0000
,  // measure 70
0100
0000
0100
0000
0010
0000
0010
0000
1000
0001
1000
0000
0001
0000
0100
0000
,  // measure 71
0010
0000
1000
0000
0010
0000
0100
0000
0001
0010
0001
0000
0010
0001
0010
0000
,  // measure 72
0001
0010
0100
0001
0100
1000
0010
0100
,  // measure 73
0011
0000
1010
0000
0011
0000
0100
0010
,  // measure 74
2002
0000
0000
3003
;

//---------------dance-single - EXTREME----------------
#NOTES:
     dance-single:
     :
     Edit:
     18:
     1.037811,1.235872,0.511032,0.010020,0.886791,725.000000,674.000000,51.000000,1.000000,0.000000,0.000000,1.037811,1.235872,0.511032,0.010020,0.886791,725.000000,674.000000,51.000000,1.000000,0.000000,0.000000:
// measure 0
0000
0000
0000
0000
,  // measure 1
0000
0000
0000
0000
,  // measure 2
0000
0000
0000
0000
,  // measure 3
0000
0000
0000
0000
,  // measure 4
0000
0000
0000
0000
,  // measure 5
0000
0000
0000
0000
,  // measure 6
0001
0010
1000
0011
0000
0011
0000
0101
,  // measure 7
0000
1100
0000
0100
0001
0010
1100
0000
,  // measure 8
1000
0010
1000
0000
0001
0000
0010
0000
0000
0000
1001
0000
0000
0000
1000
0000
,  // measure 9
0100
0010
0001
0010
0100
1000
0001
0010
,  // measure 10
0001
0000
0001
0100
0001
0000
0100
0010
,  // measure 11
0100
0010
1000
0001
0010
0001
0100
0000
,  // measure 12
0010
1000
0010
1000
0010
1000
0010
1000
0010
1000
0010
1000
0010
1000
0010
1000
,  // measure 13
0001
0100
0001
0100
0001
0100
0001
0100
0001
0100
0001
0000
0100
0000
0010
0000
,  // measure 14
0100
0010
0100
0010
0100
0010
0100
0010
0100
0010
0100
0010
0100
0010
0100
0010
,  // measure 15
0100
1000
0100
1000
0100
1000
0100
1000
0100
1000
0100
1000
0100
1000
0100
1000
,  // measure 16
0100
0010
0100
0010
0100
0001
0010
0001
0010
0100
1000
0100
1000
0100
1000
0001
,  // measure 17
0010
0001
0100
0010
1000
0001
0010
0001
0010
0001
1000
0100
0010
0001
0010
0100
,  // measure 18
1000
1000
0010
0100
0000
0101
0000
0011
,  // measure 19
0000
0110
0000
1000
0100
0001
0100
0000
,  // measure 20
1000
0001
1000
0000
0100
0000
0010
0000
0001
0000
0010
0000
0001
0000
0100
0000
,  // measure 21
0010
1000
0010
0000
0100
0000
0001
0000
1000
0000
0010
0000
0100
0000
0010
0000
,  // measure 22
1000
0100
1000
0100
0010
0001
0010
0001
0100
0010
0100
0010
1000
0100
0010
0001
,  // measure 23
0010
0100
1000
0001
1000
0100
0001
0100
1000
0010
0001
0010
1000
0100
0010
0001
,  // measure 24
1000
0100
1000
0100
0010
0001
0010
0001
0100
0010
0100
0010
1000
0001
1000
0001
,  // measure 25
0010
0000
1000
0000
0010
0000
0001
0000
0100
0000
0010
0000
1000
0100
0010
0000
,  // measure 26
0001
0001
0100
1010
0000
0011
0000
1010
,  // measure 27
0000
0000
1001
0000
0000
0000
1000
0000
0100
0010
0001
0010
0100
0000
0000
0000
,  // measure 28
0001
0010
1000
0010
0000
0011
0000
0101
,  // measure 29
0000
0000
0110
0000
0000
0000
0010
0000
1000
0100
0010
0100
1000
0000
0000
0000
,  // measure 30
0010
0001
1000
0100
0000
0101
0000
0011
,  // measure 31
0000
0000
1010
0000
0000
0000
1000
0000
0100
0010
0001
0010
0100
0000
0000
0000
,  // measure 32
1000
0010
0001
0010
0000
1100
0000
0011
,  // measure 33
0000
0000
1100
0000
0000
0000
0010
0000
0100
0001
0100
0000
0010
0001
0010
0000
,  // measure 34
0100
0000
1000
0000
0001
0000
0010
0001
0010
0000
0100
0010
0100
0000
1000
0100
,  // measure 35
1000
0000
0001
0010
0001
0000
0100
0000
0010
1000
0010
0001
0010
0000
0000
0000
,  // measure 36
0100
0001
0010
0000
0100
1000
0001
0000
0000
0000
0001
0010
0100
0000
1000
0100
,  // measure 37
0010
0000
0001
0100
0010
0000
1000
0000
0100
0001
0100
1000
0100
0000
0000
0000
,  // measure 38
0010
0100
1000
0001
1000
0100
1000
0100
0010
0001
0100
0010
0100
0000
0001
0000
,  // measure 39
0100
0010
0100
0001
0100
1000
0100
0010
0100
1000
0100
0000
0100
0000
0010
0000
,  // measure 40
0001
0100
0010
0100
0001
0100
0010
0100
0001
1000
0010
1000
0001
1000
0010
1000
,  // measure 41
0001
0010
0100
0010
0001
0010
0100
0010
0001
0010
0100
1000
0001
0010
0100
1000
,  // measure 42
0001
0000
0001
0000
0100
0000
1010
0000
0000
0000
1000
0001
0100
0000
0010
1000
,  // measure 43
0001
0000
0100
0010
1000
0000
0001
0000
0010
1000
0001
1000
0010
0000
0001
0000
,  // measure 44
0100
0000
1000
0000
0100
0000
0001
0000
0010
0000
0100
0000
1000
0000
0100
0010
,  // measure 45
0001
0010
0100
0000
1000
0000
0010
0000
0100
0000
0001
0000
1001
0000
0000
0000
,  // measure 46
0110
0100
0100
1001
0000
0001
0000
1010
,  // measure 47
0000
0000
0110
0000
0000
0000
0100
0000
0001
0010
0001
0000
0010
0000
0100
0000
,  // measure 48
1000
0010
0001
1010
0100
0010
0001
0100
,  // measure 49
0010
1000
0010
0100
1001
0010
1100
1000
,  // measure 50
0010
0000
0100
0000
0001
0000
0001
1000
0010
0000
0010
0100
0001
0000
0001
0010
,  // measure 51
0100
0000
0100
1000
0100
0000
1000
0000
0100
0010
0001
0010
0001
0000
0101
0000
,  // measure 52
0100
0010
1000
0010
0101
0001
0010
0100
,  // measure 53
1000
0010
0100
0000
0001
1000
0010
0000
0100
0000
0010
0000
0001
0000
1000
0000
,  // measure 54
0001
0010
0100
0000
0001
0000
0100
0000
0010
0000
1000
0000
0010
0000
0100
0000
,  // measure 55
0001
0010
1000
0000
0010
0000
0001
0000
0010
0000
1000
0000
0010
0000
0001
0000
,  // measure 56
0100
1000
0100
0000
0001
0000
1000
0000
0010
0100
0010
0000
1000
0000
0100
0000
,  // measure 57
0010
0001
0100
0000
0010
0000
1000
0000
0100
0010
0001
0010
0100
0010
0001
0010
,  // measure 58
0100
0000
1001
0000
1000
0100
0001
0100
,  // measure 59
1000
0000
1010
0000
0010
0001
0010
1000
,  // measure 60
0001
0100
0001
0100
0010
1000
0010
1000
,  // measure 61
0100
0010
0001
0000
0001
0100
0010
0000
0010
1000
0010
0000
0100
0000
0001
0000
,  // measure 62
0110
0110
1100
1100
1001
1001
0101
0101
,  // measure 63
0110
0110
0101
0101
1001
1001
0101
0101
,  // measure 64
0010
1000
0100
0010
0001
0010
0100
1000
0010
0100
0001
0100
0010
0000
0000
0000
,  // measure 65
1000
0000
0100
0010
0100
0010
0001
1000
0001
0010
1000
0010
0001
0100
1000
0100
,  // measure 66
0001
1000
0010
1000
0001
0100
0001
0100
,  // measure 67
0010
0100
0010
0001
0010
0100
0010
0001
,  // measure 68
0010
0100
1000
0100
0010
0100
1000
0001
,  // measure 69
0010
0001
0010
0000
0100
1000
0100
0000
1000
0001
1000
0000
0001
0100
0001
0000
,  // measure 70
0100
0000
0100
0000
0010
0000
0010
0000
1000
0001
1000
0000
0001
0000
0100
0000
,  // measure 71
0010
0000
1000
0000
0010
0000
0100
0000
0001
0010
0001
0000
0010
0001
0010
0000
,  // measure 72
0001
0010
0100
0001
0100
1000
0010
0100
,  // measure 73
0001
0010
0100
0010
0001
1000
0010
1000
0001
0100
0010
0100
0001
0010
0100
1000
,  // measure 74
0002
0000
0000
0003
;
