#TITLE:Scarlet Moon;
#SUBTITLE:;
#ARTIST:REDALiCE feat. Ayumi Nomiya;
#TITLETRANSLIT:;
#SUBTITLETRANSLIT:;
#ARTISTTRANSLIT:;
#GENRE:;
#CREDIT:;
#BANNER:Scarlet Moon.png;
#BACKGROUND:Scarlet Moon-bg.png;
#LYRICSPATH:;
#CDTITLE:./CDTitles/DDR (2014).png;
#MUSIC:Scarlet Moon.ogg;
#OFFSET:0.000000;
#SAMPLESTART:39.686001;
#SAMPLELENGTH:15.000000;
#SELECTABLE:YES;
#DISPLAYBPM:180.000000;
#BPMS:0.000000=180.000000
;
#STOPS:
;
#BGCHANGES:0.000=Scarlet Moon.avi=1.000=0=0=0=StretchNoLoop====,
99999=-nosongbg-=1.000=0=0=0 // don't automatically add -songbackground-
;
#KEYSOUNDS:;
#ATTACKS:;

//---------------dance-single - ----------------
#NOTES:
     dance-single:
     :
     Beginner:
     2:
     0.130806,0.140398,0.026161,0.130806,0.000000,87.000000,3.000000,15.000000,0.000000,0.000000,0.000000,0.130806,0.140398,0.026161,0.130806,0.000000,87.000000,3.000000,15.000000,0.000000,0.000000,0.000000:
0000
0000
0000
0000
,
0000
0000
0000
0000
,
0000
0000
0000
0000
,
0000
0000
0000
0000
,
0000
0000
0000
0000
,
0001
0000
0000
0000
,
0010
0000
0000
0000
,
1000
0000
0000
0000
,
0010
0000
0000
0000
,
0001
0000
0000
0000
,
0010
0000
0000
0000
,
1000
0000
0000
0000
,
0000
0000
0000
0000
,
0001
0000
0000
0000
,
0001
0000
0000
0000
,
1000
0000
0000
0000
,
1000
0000
0000
0000
,
1001
0000
0000
0000
,
1001
0000
0000
0000
,
1001
0000
0000
0000
,
0000
0000
0000
0000
,
0002
0000
0003
0000
,
0002
0000
0003
0000
,
0020
0000
0030
0000
,
0002
0000
0003
0000
,
0001
0000
0000
0000
,
1000
0000
0000
0000
,
0010
0000
0010
0000
,
0020
0000
0000
0030
,
0000
0000
0000
0000
,
0001
0000
0001
0000
,
0001
0000
0000
0000
,
1000
0000
1000
0000
,
1000
0000
0000
0000
,
0010
0000
0010
0000
,
0010
0000
0000
0000
,
0010
0000
0010
0000
,
0000
0000
0000
0000
,
0001
0000
0001
0000
,
0001
0000
0000
0000
,
1000
0000
1000
0000
,
1000
0000
0000
0000
,
0020
0030
0000
0000
,
2000
3000
0000
0000
,
0001
0000
0001
0000
,
0000
0000
0000
0000
,
0002
0000
0003
0000
,
2000
0000
3000
0000
,
0020
0000
0030
0000
,
0010
0000
0000
0000
,
0010
0000
0000
0000
,
0000
0000
0000
0000
,
1000
0000
1000
0000
,
1000
0000
0000
0000
,
0010
0000
0010
0000
,
0010
0000
0000
0000
,
0010
0000
0010
0000
,
0000
0000
0000
0000
,
0001
0000
0001
0000
,
0001
0000
0000
0000
,
1000
0000
1000
0000
,
1000
0000
0000
0000
,
0020
0030
0000
0000
,
0002
0003
0000
0000
,
1000
0000
1000
0000
,
1000
0000
0000
0000
,
0020
0000
0000
0000
,
0030
0000
0000
0000
,
1000
0000
1000
0000
,
1000
0000
0000
0000
,
0001
0000
0001
0000
,
0001
0000
0000
0000
,
1000
0000
1000
0000
,
0000
0000
0000
0000
,
0001
0000
0001
0000
,
0001
0000
0000
0000
,
1000
0000
1000
0000
,
1000
0000
0000
0000
,
0002
0003
0000
0000
,
2000
3000
0000
0000
,
0010
0000
0010
0000
,
0000
0000
0000
0000
;

//---------------dance-single - ----------------
#NOTES:
     dance-single:
     :
     Easy:
     5:
     0.236696,0.281668,0.034881,0.087204,0.000000,176.000000,4.000000,10.000000,0.000000,0.000000,0.000000,0.236696,0.281668,0.034881,0.087204,0.000000,176.000000,4.000000,10.000000,0.000000,0.000000,0.000000:
0000
0000
0000
0000
,
0000
0000
0000
0000
,
0000
0000
0000
0000
,
0000
0000
0000
0000
,
0000
0000
0000
0000
,
0010
1000
0010
0000
,
0010
0000
0000
0000
,
0001
0010
0001
0000
,
0001
0000
0000
0000
,
1000
0010
1000
0000
,
1000
0000
0000
0000
,
1000
0010
0001
0001
,
0000
0000
0000
0000
,
0010
0000
0001
0001
,
1000
0000
0000
0000
,
1000
0000
0001
0010
,
0001
0000
0000
0000
,
1000
0000
0010
0000
,
1000
0000
0100
0000
,
0001
0000
0010
0000
,
1000
0001
1000
0000
,
2000
0000
3001
0000
,
0002
0000
1003
0000
,
0200
0000
0310
0000
,
0020
0000
0030
0000
,
0001
0010
0001
0000
,
1000
0010
1000
0000
,
0001
0000
1000
0000
,
0020
0000
0000
0030
,
0100
0000
0001
0000
,
0010
0010
0001
0000
,
0001
1000
0001
0000
,
0100
0100
0010
0000
,
0010
1000
0010
0000
,
0001
0001
0010
0000
,
1000
0010
1000
0000
,
0001
0001
1000
1000
,
0000
1001
0000
0000
,
0010
0010
0001
0000
,
0001
1000
0001
0000
,
0100
0100
0010
0000
,
0010
1000
0010
0000
,
0100
0001
0000
0000
,
1000
0100
0000
0000
,
1000
0001
1000
0001
,
0000
1001
0000
0000
,
0020
0030
0200
0300
,
0002
0003
2000
3000
,
0100
0100
0010
0010
,
0001
0001
0001
0000
,
1000
0000
0000
1000
0000
0000
1000
0000
,
0000
0000
0000
0000
,
0100
0100
0010
0000
,
0010
1000
0010
0000
,
0001
0001
0010
0000
,
1000
0010
1000
0000
,
0001
0001
1000
1000
,
0000
1001
0000
0000
,
0010
0010
0001
0000
,
0001
1000
0001
0000
,
0100
0100
0010
0000
,
0010
1000
0010
0000
,
0100
0001
0000
0000
,
1000
0100
0000
0000
,
0100
0010
0100
0010
,
0000
0110
0000
0000
,
2000
0000
0000
0000
,
0000
0000
3000
0000
,
0001
0010
0001
0000
,
1000
0000
0000
0000
,
1000
0010
1000
0000
,
0001
0000
0000
0000
,
1000
0010
0001
1000
,
0000
0000
0000
0000
,
0010
1000
0010
0000
,
0100
0000
0000
0000
,
0001
0010
0001
0000
,
1000
0000
0000
0000
,
0010
0001
0000
0000
,
0100
0100
0000
0000
,
0001
0010
0100
1000
,
0000
0000
0000
0000
;

//---------------dance-single - ----------------
#NOTES:
     dance-single:
     :
     Medium:
     9:
     0.360027,0.423156,0.052322,0.087204,0.004360,273.000000,6.000000,10.000000,0.000000,0.000000,0.000000,0.360027,0.423156,0.052322,0.087204,0.004360,273.000000,6.000000,10.000000,0.000000,0.000000,0.000000:
0000
0000
0000
0000
,
0000
0000
0000
0000
,
0000
0000
0000
0000
,
0000
0000
0000
0000
,
0000
0000
0000
0000
,
0001
0010
0001
1000
,
0001
0100
0000
0001
,
1000
0010
1000
0001
,
1000
0100
0000
1000
,
0001
1000
0100
1000
,
0001
0100
0000
0010
,
1000
0000
0010
0100
0000
0001
0010
0001
,
0000
0000
0000
0000
,
0010
0001
1000
0100
,
0001
0100
0010
1000
,
0001
0100
1000
0100
,
1000
0001
0100
0010
,
0200
0001
0301
0000
,
0020
1000
1030
0000
,
0001
0010
0100
1000
,
0010
0100
0010
0000
,
0110
0000
0000
0000
,
1001
0000
0000
0000
,
0100
0000
0000
0000
0000
0010
0000
1000
,
0010
0000
0000
0000
,
0001
0010
0100
1000
,
1000
0010
0100
0001
,
0002
0003
2000
3000
,
0010
1000
0001
0010
,
0100
0000
0000
1000
0000
0000
0001
0000
1000
0000
0000
0000
0000
0000
0000
0000
,
0001
0000
0010
0000
0001
0000
1000
0100
,
1000
0100
1000
0001
,
0100
0000
0010
0000
1000
0000
0001
0100
,
0001
0100
0001
1000
,
0100
0000
0010
0000
0100
0000
1000
0001
,
1000
0001
0100
0010
,
1000
0000
0100
0000
0010
0000
0001
1000
,
0000
0001
0100
0000
0000
0000
0000
0000
,
0001
0000
0100
0000
0001
0000
1000
0010
,
1000
0010
1000
0001
,
0010
0000
0100
0000
1000
0000
0001
0010
,
0001
0010
0001
1000
,
0010
0000
0110
0000
0000
0000
1000
0001
,
1000
1001
0000
0100
,
1000
0000
0010
0000
0100
0000
0001
1000
,
0000
0001
0100
0000
0000
0000
0000
0000
,
0020
0130
0200
0301
,
0002
1003
2000
3100
,
0100
0010
0001
1000
,
0010
0100
0010
0000
,
1000
0010
0000
1000
0010
0000
1000
0020
,
0000
0000
0030
0000
,
0100
0000
0010
0000
1000
0000
0001
0100
,
0001
0100
0001
1000
,
0100
0000
0010
0000
0100
0000
1000
0001
,
1000
0001
0100
0010
,
1000
0000
0100
0000
0010
0000
0001
1000
,
0000
0001
0100
0000
0000
0000
0000
0000
,
0001
0000
0100
0000
0001
0000
1000
0010
,
1000
0010
1000
0001
,
0010
0000
0100
0000
1000
0000
0001
0010
,
0001
0010
0001
1000
,
0010
0000
0110
0000
0000
0000
1000
0001
,
1000
1001
0000
0100
,
1000
0000
0010
0000
0100
0000
0001
1000
,
0000
0100
0010
0000
0000
0000
0000
0000
,
0020
0000
0000
0000
,
0000
0000
0000
0030
,
1000
0010
1000
0001
,
1000
0100
0000
1000
,
0001
0010
0100
1000
,
0100
0010
0000
0100
,
1000
0000
0100
0010
0000
0001
0100
0001
,
0000
0000
0000
0000
,
0001
0100
0001
1000
,
0001
0010
0000
0001
,
1000
0100
1000
0001
,
1000
0010
0000
1000
,
0001
0010
0001
0000
0000
0000
1000
0000
,
0010
0100
0010
0000
0000
0000
0100
0000
,
0001
0000
0010
0100
0000
1000
0001
1000
;

//---------------dance-single - ----------------
#NOTES:
     dance-single:
     :
     Hard:
     12:
     0.561841,0.499786,0.252891,0.043602,0.061043,417.000000,29.000000,5.000000,0.000000,0.000000,0.000000,0.561841,0.499786,0.252891,0.043602,0.061043,417.000000,29.000000,5.000000,0.000000,0.000000,0.000000:
0000
0000
0000
0000
,
0000
0000
0000
0000
,
0000
0000
0000
0000
,
0000
0000
0000
0000
,
0000
0000
0000
0110
,
1000
0100
0001
0000
0100
0000
0001
0000
,
0010
0100
0000
0010
0000
0001
1000
0100
,
0010
0100
1000
0000
0001
0000
1000
0000
,
0010
0100
0000
0010
0000
1000
0001
0010
,
0100
0010
0001
0000
1000
0000
0010
0000
,
0001
0010
0000
0100
0000
0001
0010
0100
,
1000
0000
0001
0100
0001
0010
0100
0010
,
0000
1001
0000
0110
0000
1000
0001
0100
,
0010
0000
0100
0000
0001
0000
0010
0100
,
1000
0000
0001
0000
0100
0000
1000
0001
,
0100
0000
0010
0000
1000
0000
0100
0010
,
0001
1000
0100
0110
,
1100
0000
0001
0100
0001
0000
1010
0000
,
0110
0000
0001
0010
0001
0000
1001
0000
,
0110
0000
1000
0010
0100
0010
0001
0000
,
1000
0100
0010
0100
1000
0000
0000
0000
,
1001
0000
0000
0000
0000
0000
0000
1000
,
0100
0000
0000
0000
,
0110
0000
0000
0000
0000
1000
0000
0001
,
0100
0000
0000
0010
,
1000
0100
0010
0000
0100
0000
1100
0000
,
0001
0100
0010
0000
0100
0000
0101
0000
,
1000
0000
0000
0010
0000
0000
0100
0000
0001
0000
0000
0010
0000
0000
0100
0000
,
1000
0001
0100
0010
1000
0001
1000
0100
,
0010
0000
0000
0001
0000
0000
0010
0000
0100
0000
0000
0000
0000
0000
0000
0000
,
1000
0000
0010
0000
0100
0000
0000
0000
0001
0000
0000
0010
0000
0000
0001
0000
,
1000
0100
1000
0010
1000
0001
0100
0010
,
0100
0000
0001
0000
1000
0000
0000
0000
0100
0000
0000
1000
0000
0000
0010
0000
,
0100
0001
0100
0010
0100
0001
1000
0100
,
1000
0000
0001
0000
0100
0000
0000
0000
0001
0000
0000
0010
0000
0000
0100
0000
,
1000
0100
1000
0010
0100
0001
0100
0010
,
1000
0000
0001
0010
0001
0010
0100
1000
,
0000
1001
1001
0000
0000
0000
0000
0000
,
0001
0000
0010
0000
0100
0000
0000
0000
1000
0000
0000
0010
0000
0000
1000
0000
,
0001
0100
0001
0010
0001
1000
0100
0010
,
0100
0000
1000
0000
0001
0000
0000
0000
0100
0000
0000
0001
0000
0000
0010
0000
,
0100
1000
0100
0010
0100
1000
0001
0100
,
0001
0000
1000
0000
0100
0000
0000
0000
1000
0000
0000
0100
0000
0000
0010
0000
,
0001
0100
0010
0100
0001
1000
0100
0010
,
0100
1000
0001
0100
1000
0100
0001
0100
,
0000
1001
1001
0000
0000
0000
0000
0000
,
2000
3001
0020
0130
,
0200
1300
0002
0103
,
0011
0101
1100
1010
,
0010
1000
0100
1000
0010
0000
0100
0000
,
0001
0010
0000
0100
1000
0000
0001
0010
,
0000
0000
0000
0000
,
0010
0000
0001
0000
1000
0000
0000
0000
0100
0000
0000
1000
0000
0000
0010
0000
,
0100
0001
1000
0010
0100
0001
1000
0100
,
1000
0000
0001
0000
0100
0000
0000
0000
0001
0000
0000
0010
0000
0000
0100
0000
,
1000
0100
1000
0010
0100
0001
0100
0010
,
1000
0000
0001
0100
0001
0100
0010
1000
,
0000
1001
1001
0000
0000
0000
0000
0000
,
0001
0000
0010
0000
0100
0000
0000
0000
1000
0000
0000
0010
0000
0000
1000
0000
,
0001
0100
0001
0010
0001
1000
0100
0010
,
0100
0000
1000
0000
0001
0000
0000
0000
0100
0000
0000
0001
0000
0000
0010
0000
,
0100
1000
0100
0010
0100
1000
0001
0100
,
0001
0000
1000
0000
0100
0000
0000
0000
1000
0000
0000
0100
0000
0000
0010
0000
,
0001
0100
0010
0100
0001
1000
0100
0010
,
0100
1000
0001
0100
1000
0100
0001
0100
,
0000
1001
1001
0000
0000
0000
0000
0000
,
0002
0000
0000
0000
,
0000
0000
0000
0003
,
0100
0010
1000
0000
0001
0000
1000
0000
,
0100
0010
0000
0100
0000
1000
0001
0100
,
0010
0100
0001
0000
1000
0000
0100
0000
,
0001
0100
0000
0010
0000
0001
0100
0010
,
1000
0000
0001
0010
0001
0100
0010
0100
,
0000
1001
0000
0110
0000
0001
0000
0100
,
1000
0100
0001
0000
0100
0000
0001
0000
,
0010
0100
0000
0010
0000
0001
1000
0100
,
0010
0100
1000
0000
0001
0000
1000
0000
,
0010
0100
0000
0010
0000
1000
0001
0010
,
0100
0100
1000
0000
0001
0000
0010
0000
,
0001
0001
0100
0000
0001
0000
0100
0010
,
1000
0000
0001
0100
0001
1000
0100
0010
,
0000
1001
0000
0110
0000
1000
0100
0001
;

//---------------dance-double - ----------------
#NOTES:
     dance-double:
     :
     Easy:
     5:
     0.237942,0.281668,0.043602,0.087204,0.000000,176.000000,5.000000,10.000000,0.000000,0.000000,0.000000,0.237942,0.281668,0.043602,0.087204,0.000000,176.000000,5.000000,10.000000,0.000000,0.000000,0.000000:
00000000
00000000
00000000
00000000
,
00000000
00000000
00000000
00000000
,
00000000
00000000
00000000
00000000
,
00000000
00000000
00000000
00000000
,
00000000
00000000
00000000
00000000
,
00000010
00000000
00000100
00000000
,
00001000
00001000
00001000
00000000
,
00010000
00000000
01000000
00000000
,
00100000
00100000
00100000
00000000
,
00001000
00000000
00010000
00000000
,
00001000
00001000
00001000
00000000
,
00010000
00001000
00010000
00010000
,
00000000
00000000
00000000
00000000
,
01000000
00000000
00010000
00000000
,
00001000
00000000
00000000
00000000
,
00010000
00000000
00001000
00010000
,
00001000
00000000
00000000
00000000
,
00000100
00000000
00000010
00000000
,
00000100
00000000
00001000
00000000
,
00010000
00000000
00100000
00000000
,
10010000
00000000
00000000
00000000
,
02000000
00000000
03000000
00000000
,
00020000
00000000
00030000
00000000
,
00002000
00000000
00003000
00000000
,
00000200
00000000
00000300
00000000
,
00000010
00000100
00000100
00000000
,
00001000
00010000
00010000
00000000
,
00001000
00000000
00010000
00000000
,
02000000
00000000
03000000
00000000
,
01000000
00000000
00010000
00000000
,
00001000
00001000
00000010
00000000
,
00000001
00000010
00000001
00000000
,
00000100
00000100
00001000
00000000
,
00010000
00001000
00010000
00000000
,
00010000
00010000
01000000
00000000
,
10000000
01000000
10000000
00000000
,
01000000
01000000
00010000
00010000
,
00000000
00011000
00000000
00000000
,
00001000
00001000
00010000
00000000
,
01000000
00100000
01000000
00000000
,
00010000
00010000
00001000
00000000
,
00000100
00000010
00000100
00000000
,
00000001
00001000
00000000
00000000
,
00000100
00000010
00000000
00000000
,
00001000
00010000
00010000
00100000
,
00000000
01100000
00000000
00000000
,
20000000
30000000
02000000
03000000
,
00020000
00030000
00002000
00003000
,
00010000
00010000
00001000
00001000
,
00000100
00000000
00000100
00000000
,
00000001
00000000
00000000
00000001
00000000
00000000
00000001
00000000
,
00000000
00000000
00000000
00000000
,
00000100
00000100
00001000
00000000
,
00010000
00001000
00010000
00000000
,
00010000
00010000
00100000
00000000
,
10000000
00100000
10000000
00000000
,
00100000
00100000
00010000
00010000
,
00000000
00011000
00000000
00000000
,
00001000
00001000
00010000
00000000
,
00100000
01000000
00100000
00000000
,
00010000
00010000
00001000
00000000
,
00000010
00000100
00000010
00000000
,
00000001
00001000
00000000
00000000
,
00000010
00000100
00000000
00000000
,
00001000
00010000
00001000
00010000
,
00000000
01000000
00000000
00000000
,
20000000
00000000
00000000
00000000
,
00000000
30000000
00000000
00000000
,
01000000
00000000
00010000
00000000
,
00001000
00001000
00001000
00000000
,
00001000
00000000
00010000
00000000
,
00100000
00100000
00100000
00000000
,
10000000
01000000
00010000
00001000
,
00000000
00000000
00000000
00000000
,
00001000
00000000
00000100
00000000
,
00000001
00000001
00000001
00000000
,
00000010
00000000
00001000
00000000
,
00010000
00010000
00010000
00000000
,
00001000
00011000
00000000
00000000
,
01000000
00100000
00000000
00000000
,
00100000
00010000
00001000
00000100
,
00000000
00000000
00000000
00000000
;

//---------------dance-double - ----------------
#NOTES:
     dance-double:
     :
     Medium:
     9:
     0.352552,0.423156,0.034881,0.087204,0.004360,269.000000,4.000000,10.000000,0.000000,0.000000,0.000000,0.352552,0.423156,0.034881,0.087204,0.004360,269.000000,4.000000,10.000000,0.000000,0.000000,0.000000:
00000000
00000000
00000000
00000000
,
00000000
00000000
00000000
00000000
,
00000000
00000000
00000000
00000000
,
00000000
00000000
00000000
00000000
,
00000000
00000000
00000000
00000000
,
01000000
00100000
00010000
00001000
,
00010000
00000100
00000000
00000100
,
00000010
00000001
00000100
00001000
,
00010000
00001000
00000000
00001000
,
00010000
01000000
00100000
00010000
,
01000000
00100000
00000000
00100000
,
00010000
00000000
00001000
00010000
00000000
00000010
00010000
00001000
,
00000000
00000000
00000000
00000000
,
00010000
00100000
10000000
01000000
,
00010000
00001000
00010000
00001000
,
00000010
00000001
00000100
00001000
,
00010000
00001000
00010000
00001000
,
00000200
00000000
00001300
00000000
,
00020000
00000000
01030000
00000000
,
10000000
01000000
00010000
00001000
,
00010000
00001000
00000100
00000000
,
00000020
00000000
00000000
00000030
,
00000200
00000000
00000000
00000300
,
00001000
00000000
00000000
00000000
00000000
00100000
00000000
00001000
,
00010000
00000000
00000000
00000000
,
00001000
01000000
00001000
00010000
,
00010000
00000100
00010000
00001000
,
00000010
00000000
00000001
00000000
,
00000010
00001000
00010000
00001000
,
01000000
00000000
00000000
00100000
00000000
00000000
00010000
00000000
00001000
00000000
00000000
00000000
00000000
00000000
00000000
00000000
,
00010000
00000000
00001000
00000000
00000100
00000000
00000010
00000100
,
00000010
00000001
00000010
00000100
,
00001000
00000000
00010000
00000000
00100000
00000000
01000000
00100000
,
01000000
10000000
01000000
00010000
,
00100000
00000000
01000000
00000000
00010000
00000000
00001000
00010000
,
00001000
00000010
00001000
00010000
,
00001000
00000000
00010000
00000000
01000000
00000000
10000000
00010000
,
00000000
01000000
00100000
00000000
00000000
00000000
00000000
00000000
,
10000000
00000000
00100000
00000000
00010000
00000000
00001000
00010000
,
00001000
00000100
00000010
00000001
,
00000010
00000000
00000100
00000000
00001000
00000000
00010000
00001000
,
00010000
00001000
00010000
01000000
,
00100000
01100000
00000000
10000000
,
00100000
01100000
00000000
00010000
,
00001000
00000000
00010000
00000000
00001000
00000000
00000100
00000010
,
00000000
00001000
00000001
00000000
00000000
00000000
00000000
00000000
,
00000200
00000310
00000200
00001300
,
00020000
00031000
00020000
00130000
,
10000000
00100000
00010000
00001000
,
00010000
01000000
10000000
00000000
,
00010000
00100000
00000000
00010000
00100000
00000000
00001000
00020000
,
00000000
00000000
00030000
00000000
,
00001000
00000000
00010000
00000000
00100000
00000000
01000000
00100000
,
01000000
10000000
01000000
00010000
,
00100000
00000000
01000000
00000000
00010000
00000000
00001000
00010000
,
00001000
00000010
00001000
00010000
,
00001000
00000000
00010000
00000000
01000000
00000000
10000000
00010000
,
00000000
01000000
00100000
00000000
00000000
00000000
00000000
00000000
,
10000000
00000000
00100000
00000000
00010000
00000000
00001000
00010000
,
00001000
00000100
00000010
00000001
,
00000010
00000000
00000100
00000000
00001000
00000000
00010000
00001000
,
00010000
00001000
00010000
01000000
,
00100000
01100000
00000000
10000000
,
00100000
01100000
00000000
00010000
,
00001000
00000000
00010000
00000000
00001000
00000000
00000100
00000010
,
00000000
00001000
00000001
00000000
00000000
00000000
00000000
00000000
,
00000200
00000000
00000000
00000000
,
00000000
00000000
00000000
00000300
,
00000010
00000001
00000100
00001000
,
00010000
00001000
00000000
00001000
,
00010000
01000000
00100000
00010000
,
01000000
00100000
00000000
00100000
,
00010000
00000000
00001000
00010000
00000000
00000010
00010000
00001000
,
00000000
00000000
00000000
00000000
,
01000000
00100000
00010000
00001000
,
00010000
00000100
00000000
00000100
,
00000010
00000001
00000100
00001000
,
00010000
00001000
00000000
00001000
,
00010000
00001000
00010000
00000000
00000000
00000000
00010000
00000000
,
01000000
00100000
01000000
00000000
00000000
00000000
01000000
00000000
,
00010000
00000000
00001000
00010000
00000000
00000010
00010000
00001000
,
00000000
00000000
00000000
00000000
;

//---------------dance-double - ----------------
#NOTES:
     dance-double:
     :
     Hard:
     12:
     0.553121,0.499786,0.200569,0.052322,0.061043,415.000000,23.000000,6.000000,0.000000,0.000000,0.000000,0.553121,0.499786,0.200569,0.052322,0.061043,415.000000,23.000000,6.000000,0.000000,0.000000,0.000000:
00000000
00000000
00000000
00000000
,
00000000
00000000
00000000
00000000
,
00000000
00000000
00000000
00000000
,
00000000
00000000
00000000
00000000
,
00000000
00000000
00000000
00011000
,
00001000
00000100
00000001
00000000
00000100
00000000
00001000
00000000
,
00010000
00001000
00000000
00010000
00000000
00010000
00100000
01000000
,
00100000
00010000
00001000
00000000
00010000
00000000
00100000
00000000
,
01000000
00100000
00000000
10000000
00000000
10000000
01000000
00100000
,
01000000
00010000
00001000
00000000
00010000
00000000
00001000
00000000
,
00010000
00001000
00000000
00000100
00000000
00000010
00000100
00001000
,
00010000
00000000
00001000
00010000
00001000
00100000
01000000
00010000
,
00000000
00011000
00000000
00010100
00000000
00001000
00010000
00001000
,
00000100
00000000
00000010
00000000
00000100
00000000
00001000
00010000
,
00001000
00000000
00010000
00000000
01000000
00000000
10000000
00010000
,
01000000
00000000
00100000
00000000
00010000
00000000
00001000
01000000
,
00100000
00010000
00001000
00010000
,
00011000
00000000
00001000
00010000
00001000
00000000
00000100
00000000
,
00000110
00000000
00001000
00000100
00000010
00000000
00001000
00000000
,
00011000
00010000
00100000
01000000
,
00100000
00010000
00001000
00010000
00100000
00000000
00000000
00000000
,
10010000
00000000
00000000
00000000
00000000
00000000
00000000
01000000
,
00100000
00000000
00000000
00000000
,
00011000
00000000
00000000
00000000
00000000
00000010
00000000
00010000
,
00001000
00000000
00000000
00011000
,
00001000
00000100
00000010
00000000
00000001
00000000
00001010
00000000
,
00000100
00000010
00001000
00000000
00010000
00000000
00011000
00000000
,
00010000
00000000
00000000
01000000
00000000
00000000
00100000
00000000
00010000
00000000
00000000
01000000
00000000
00000000
00100000
00000000
,
00010000
00001000
00010000
00001000
00000100
00001000
00000100
00000010
,
00000001
00000000
00000000
00000010
00000000
00000000
00000100
00000000
00001000
00000000
00000000
00000000
00000000
00000000
00000000
00000000
,
00010000
00000000
00001000
00000000
00010000
00000000
00000000
00000000
00010000
00000000
00000000
00100000
00000000
00000000
01000000
00000000
,
00010000
10000000
01000000
00100000
00010000
00100000
01000000
00010000
,
00001000
00000000
00010000
00000000
00001000
00000000
00000000
00000000
00001000
00000000
00000000
00000100
00000000
00000000
00000010
00000000
,
00001000
00000001
00001000
00000100
00000010
00001000
00010000
00001000
,
00010000
00000000
00100000
00000000
00010000
00000000
00000000
00000000
00001000
00000000
00000000
00010000
00000000
00000000
01000000
00000000
,
00100000
01000000
00010000
00001000
01000000
00100000
00010000
00001000
,
00010000
00000000
00010000
00001000
00000100
00000010
00000100
00000010
,
00000000
00001001
00001001
00000000
00000000
00000000
00000000
00000000
,
00000001
00000000
00000010
00000000
00000001
00000000
00000000
00000000
00000001
00000000
00000000
00000100
00000000
00000000
00001000
00000000
,
00010000
00001000
00010000
00100000
00010000
00100000
01000000
00010000
,
10000000
00000000
01000000
00000000
00100000
00000000
00000000
00000000
01000000
00000000
00000000
00010000
00000000
00000000
00001000
00000000
,
00010000
00001000
00010000
00001000
00000100
00000001
00000100
00000010
,
00001000
00000000
00000100
00000000
00000010
00000000
00000000
00000000
00001000
00000000
00000000
00010000
00000000
00000000
00001000
00000000
,
00010000
01000000
00100000
01000000
00010000
00001000
00010000
00001000
,
00000010
00001000
00010000
00001000
01000000
00001000
00010000
00001000
,
00000000
00000100
00000010
00000000
00000000
00000000
00000000
00000000
,
00002000
00013000
00200000
01300000
,
20000000
31000000
00020000
00031000
,
00010010
00011000
00101000
00011000
,
00000010
00001000
00000100
00001000
00000010
00000000
00000100
00000000
,
00001000
00010000
00000000
00100000
00010000
00000000
00001000
00020000
,
00000000
00000000
00030000
00000000
,
00001000
00000000
00010000
00000000
00001000
00000000
00000000
00000000
00001000
00000000
00000000
00000010
00000000
00000000
00000100
00000000
,
00001000
00000001
00001000
00000010
00000100
00001000
00010000
00001000
,
00010000
00000000
01000000
00000000
00010000
00000000
00000000
00000000
00001000
00000000
00000000
00010000
00000000
00000000
00100000
00000000
,
01000000
00100000
00010000
00001000
00100000
01000000
00010000
00001000
,
00010000
00000000
00010000
00001000
00000010
00000100
00000010
00000100
,
00000000
00001001
00001001
00000000
00000000
00000000
00000000
00000000
,
00000001
00000000
00000100
00000000
00000001
00000000
00000000
00000000
00000001
00000000
00000000
00000010
00000000
00000000
00001000
00000000
,
00010000
00001000
00010000
01000000
00010000
01000000
00100000
00010000
,
10000000
00000000
00100000
00000000
01000000
00000000
00000000
00000000
00100000
00000000
00000000
00010000
00000000
00000000
00001000
00000000
,
00010000
00001000
00010000
00001000
00000010
00000001
00000010
00000100
,
00001000
00000000
00000010
00000000
00000100
00000000
00000000
00000000
00001000
00000000
00000000
00010000
00000000
00000000
00001000
00000000
,
00010000
00100000
01000000
00100000
00010000
00001000
00010000
00001000
,
00000100
00001000
00010000
00001000
00100000
00001000
00010000
00001000
,
00000000
00000010
00000100
00000000
00000000
00000000
00000000
00000000
,
00002000
00000000
00000000
00000000
,
00003000
00000000
00000000
00000000
,
01000000
00010000
00001000
00000000
00010000
00000000
01000000
00000000
,
00100000
01000000
00000000
10000000
00000000
10000000
00100000
01000000
,
00100000
00010000
00001000
00000000
00010000
00000000
00001000
00000000
,
00010000
00001000
00000000
00000010
00000000
00000100
00000010
00001000
,
00010000
00000000
00001000
00010000
00001000
01000000
00100000
00010000
,
00000000
00011000
00000000
00010010
00000000
00001000
00000000
00010000
,
00001000
00000010
00000100
00000000
00000010
00000000
00001000
00000000
,
00010000
00001000
00000000
00010000
00000000
00010000
01000000
00100000
,
01000000
00010000
00001000
00000000
00010000
00000000
01000000
00000000
,
00100000
01000000
00000000
10000000
00000000
10000000
00100000
01000000
,
00100000
00010000
00001000
00000000
00010000
00000000
00001000
00000000
,
00010000
00001000
00000000
00000010
00000000
00000100
00000010
00001000
,
00010000
00000000
00001000
00010000
00001000
01000000
00100000
00010000
,
00000000
00011000
00000000
00010010
00000000
00001000
00010000
01000000
,
00000000
00000000
00000000
00000000
;

//---------------dance-single - ----------------
#NOTES:
     dance-single:
     :
     Challenge:
     15:
     0.913148,0.895201,0.601706,0.104644,0.606066,652.000000,69.000000,12.000000,0.000000,0.000000,0.000000,0.913148,0.895201,0.601706,0.104644,0.606066,652.000000,69.000000,12.000000,0.000000,0.000000,0.000000:
// measure 0
0000
0000
0000
0000
,  // measure 1
0000
0000
0000
0000
,  // measure 2
0000
0000
0000
0000
,  // measure 3
1001
1001
0110
0110
,  // measure 4
0001
0000
0010
0000
0100
0000
1000
0000
0001
1000
0001
0000
0101
0000
0000
0000
,  // measure 5
0010
1000
0010
0000
0100
0000
0010
0000
1000
0100
1000
0000
0001
0000
0000
0000
,  // measure 6
0001
0000
0010
0001
0010
0000
0100
1000
0100
0000
1000
0001
1000
0000
0010
0000
,  // measure 7
0001
0000
0010
0000
1000
0000
0100
0000
0010
0000
0001
0100
0001
0000
1000
0010
,  // measure 8
0000
0000
0010
1000
0000
0000
1000
0000
0001
0000
0100
0000
0010
1000
0010
0000
,  // measure 9
0100
0001
0100
0001
0000
0000
1000
0000
0010
0100
0010
0000
0100
0000
0001
0000
,  // measure 10
0000
0000
0001
1000
0000
0000
1000
0010
0000
0000
0010
0100
0001
0000
0010
0000
,  // measure 11
1000
0010
0001
0101
0000
0110
0000
1010
,  // measure 12
0000
0000
1010
0000
0000
0000
1000
0000
0100
0010
0100
0010
0001
1000
0001
1000
,  // measure 13
0010
0100
0001
0100
0020
0000
1030
0010
,  // measure 14
0002
0000
0013
1000
0100
0010
0001
0100
,  // measure 15
2000
0000
3100
0001
0020
0100
0130
1000
,  // measure 16
0001
0000
1001
0000
1000
0010
0001
0010
,  // measure 17
1000
0000
1000
0001
0010
0001
0100
0010
,  // measure 18
1000
0000
0000
0000
1001
0000
0000
0000
0001
0000
0100
0000
0010
1000
0010
0000
,  // measure 19
0100
0000
0001
1000
0010
1000
0200
0000
,  // measure 20
0310
0000
0001
0000
1000
0000
0010
0000
0100
0001
0100
0001
0100
0000
0010
0000
,  // measure 21
1000
0100
0001
0100
1000
0001
0000
0010
,  // measure 22
0001
0100
0010
0100
0001
1000
0000
0010
,  // measure 23
0100
0000
0000
0101
0000
0000
0001
0000
0010
0000
0000
1010
0000
0000
0010
0000
,  // measure 24
0001
0000
1000
0001
0000
0100
0001
0000
0010
0000
0100
1000
0000
0001
1000
0000
,  // measure 25
0010
0000
0100
0000
0001
0000
0010
0000
0001
0000
0000
1001
0000
0000
1000
0000
,  // measure 26
0100
0000
0001
0000
0100
0000
1000
0000
0010
0000
0000
0110
0000
0100
0001
0100
,  // measure 27
0010
0000
0000
1010
0000
0000
1100
0000
0110
0000
0000
0011
0000
0000
1001
0000
,  // measure 28
0010
0100
0010
0100
0010
1000
0001
1000
0001
1000
0010
1000
0010
1000
0010
0000
,  // measure 29
1001
0000
0000
0101
0000
0000
0110
0000
1010
0000
0000
0000
1000
0000
0100
0000
,  // measure 30
0010
0001
0010
0000
0001
0000
0100
0000
0010
1000
0000
0001
1000
0000
0010
0000
,  // measure 31
0100
0001
0000
0000
0001
0010
0001
0000
0010
0100
1000
0000
0010
0000
0100
0000
,  // measure 32
0101
0000
0000
0001
1000
0000
0010
0000
1000
0100
0010
0000
0001
0000
0100
0000
,  // measure 33
0001
1000
0001
0000
0000
0100
0001
0000
1000
0001
1000
0000
0010
0100
0010
0100
,  // measure 34
0001
0000
1000
0000
0001
0000
0000
0000
1000
0010
0000
0100
0010
0000
1000
0000
,  // measure 35
0100
0010
0001
0000
0100
0010
1000
0000
1000
0001
0100
0000
0100
0010
1000
0001
,  // measure 36
1000
0010
0001
0010
1000
0001
0100
0110
,  // measure 37
0000
0000
1010
0000
1100
0000
0000
0000
0100
0010
0100
0010
0001
1000
0001
1000
,  // measure 38
0010
0100
0001
0000
0010
1000
0010
0001
,  // measure 39
0100
0010
0000
0000
0010
1000
0000
0000
1000
0001
1000
0000
0100
0000
0010
0000
,  // measure 40
0011
0001
0100
0010
0100
0001
0010
0100
,  // measure 41
1000
0001
0000
0000
0001
0100
0000
0000
0100
0010
0000
0000
0010
1000
0001
0000
,  // measure 42
1000
0100
0001
0100
1000
0010
0001
0001
,  // measure 43
0011
0000
0010
0000
1010
0000
0000
0000
1000
0100
1000
0000
0010
0000
0100
0000
,  // measure 44
0001
0001
0010
0010
1000
1000
0010
0101
,  // measure 45
0000
0000
1001
0000
1001
0000
0000
0000
1000
0001
1000
0001
1000
0000
0000
0000
,  // measure 46
2001
3001
0102
0103
,  // measure 47
2100
3010
0012
0103
,  // measure 48
0101
1100
1010
0101
,  // measure 49
0001
0000
0010
0000
0100
0000
1000
0000
0001
0010
0100
0000
1001
0000
0000
0000
,  // measure 50
0110
0110
0000
1100
1100
0000
0011
0011
,  // measure 51
0100
0001
0000
1000
0001
1000
0000
0010
0100
0010
0100
0000
0001
0010
0001
0010
,  // measure 52
0100
1000
0001
0000
0100
0001
0010
0001
,  // measure 53
1000
0000
0000
1000
0010
0000
0100
0000
0001
0000
0010
0000
0001
1000
0001
1000
,  // measure 54
0100
0010
0001
0000
0010
1000
0010
0001
,  // measure 55
0100
0010
1000
0000
0001
1000
0010
0000
0100
0001
0100
0000
0001
1000
0001
0000
,  // measure 56
0010
1000
0010
0001
0100
0010
1000
1000
,  // measure 57
0000
0000
0101
0000
0101
0000
0000
0000
0010
1000
0010
1000
0010
1000
0010
0000
,  // measure 58
0100
0000
0001
0000
0010
1000
0000
0000
1000
0000
0010
0000
0001
0000
0100
0000
,  // measure 59
0010
1000
0010
0000
0100
0001
0100
0000
0001
0010
0001
0000
1000
0100
1000
0000
,  // measure 60
0010
0100
0001
0010
0001
1000
0010
0100
,  // measure 61
0001
1000
0001
0000
1000
0100
1000
0000
0001
0010
0001
0000
0100
0010
0100
0010
,  // measure 62
1000
0000
1100
0000
0100
0001
0100
1000
,  // measure 63
0010
0100
0101
0000
0011
0000
0010
0100
,  // measure 64
1000
0100
1000
0100
0010
0001
0010
0001
0100
0010
0100
0010
0100
0010
0100
0000
,  // measure 65
0000
1001
2002
0000
0000
3003
0000
1000
,  // measure 66
0001
0010
0000
0001
0100
0010
0000
1010
,  // measure 67
0000
0000
1100
0000
0000
0000
0100
0010
0000
0000
0001
0010
0001
0010
0100
0000
,  // measure 68
1000
0100
0001
0000
0100
1000
0010
0001
,  // measure 69
0010
0000
1000
0000
0000
0000
0100
0000
1000
0001
0010
0001
0010
0000
0001
0000
,  // measure 70
0100
0000
0010
1000
0000
0000
1000
0000
0010
0000
0100
0001
0000
0000
0001
0000
,  // measure 71
0010
0000
0100
1000
0000
0000
0001
1000
0000
0000
0001
0010
0001
0000
0010
0000
,  // measure 72
1000
0010
0001
0100
0010
1000
0010
0110
,  // measure 73
0000
0000
0101
0000
0000
0000
0001
0000
0010
0100
0010
0100
1000
0001
1000
0001
,  // measure 74
0100
0000
0001
0000
0000
0000
0010
0000
1000
0000
0010
0001
0000
0000
0100
0010
,  // measure 75
0000
0000
0010
1000
0001
0000
0100
0001
1000
0000
0001
0000
0010
0000
0001
0000
,  // measure 76
0100
0000
0010
0100
0000
0000
0001
0000
0010
0000
1000
0010
0000
0000
0001
0000
,  // measure 77
0100
0000
0010
1000
0010
0000
1000
0000
0100
0010
0100
0010
0001
0000
0100
0000
,  // measure 78
1010
0000
1010
0000
0000
0000
1000
0000
0001
0000
0010
0100
0010
0000
0001
0000
,  // measure 79
1001
0000
1100
0000
0100
0000
0010
0001
1000
0000
0010
1000
0010
1000
0001
0000
,  // measure 80
0100
0001
0010
1010
0000
0011
0000
0101
,  // measure 81
0000
1100
0000
0101
0000
0001
0010
0200
,  // measure 82
0000
0300
0000
0000
0000
0000
0000
0000
;
