#TITLE:Sand Blow;
#SUBTITLE:;
#ARTIST:肥塚良彦;
#TITLETRANSLIT:;
#SUBTITLETRANSLIT:;
#ARTISTTRANSLIT:Yoshihiko Koezuka;
#GENRE:;
#CREDIT:;
#BANNER:Sand Blow.png;
#BACKGROUND:Sand Blow-bg.png;
#LYRICSPATH:;
#CDTITLE:;
#MUSIC:Sand Blow.ogg;
#OFFSET:0.000000;
#SAMPLESTART:79.625999;
#SAMPLELENGTH:15.000000;
#SELECTABLE:YES;
#DISPLAYBPM:83.000000:165.000000;
#BPMS:0.000000=165.000000
,64.500000=82.500000
,65.500000=165.000000
,192.500000=82.500000
,193.500000=165.000000
;
#STOPS:
;
#BGCHANGES:;
#KEYSOUNDS:;
#ATTACKS:;

//---------------dance-single - ----------------
#NOTES:
     dance-single:
     :
     Beginner:
     3:
     0.177032,0.228736,0.009045,0.099500,0.000000,137.000000,136.000000,1.000000,11.000000,0.000000,0.000000,0.177032,0.228736,0.009045,0.099500,0.000000,137.000000,136.000000,1.000000,11.000000,0.000000,0.000000:
0000
0000
0000
0000
,
0000
0000
0000
0000
,
0000
0000
0000
0000
,
0000
0000
0000
0000
,
0000
0000
0000
0000
,
0020
0000
0000
0000
,
0000
0000
0030
0000
,
0200
0000
0000
0000
,
0000
0000
0300
0000
,
0001
0001
0001
0000
,
0010
0010
0010
0000
,
1000
1000
1000
0000
,
0100
0100
0100
0000
,
1000
1000
1000
0000
,
0001
0001
0001
0000
,
0010
0010
0010
0010
,
0000
0020
0000
0030
0000
0000
0010
0000
,
0000
0001
0000
0100
,
0000
0001
0000
0010
,
0000
1000
0000
0100
,
0000
1000
0000
0001
,
0000
0100
0000
0010
,
0000
1000
0000
0100
,
0000
0010
0000
0001
,
0000
0000
0000
1000
,
1000
1000
0000
0001
,
0001
0001
0000
0010
,
0010
0010
0000
1000
,
1000
1000
0000
0100
,
0100
0100
0000
0010
,
0010
0010
0000
0001
,
0001
0001
0000
0000
,
0000
0000
0000
0002
,
0000
0003
0000
2000
,
0000
3000
0000
0002
,
0000
0003
0000
2000
,
0000
3000
0000
0020
,
0000
0030
0000
0200
,
0000
0300
0000
0020
,
0000
0030
0000
0200
,
0000
0300
0000
0001
,
0000
0010
0000
0100
,
0000
1000
0000
1000
,
0000
0010
0000
0100
,
0000
0001
0000
1000
,
0000
0000
0000
0001
,
0000
0000
0000
1000
,
0000
0000
0000
0010
,
0000
0000
1000
0000
,
0001
0000
1000
1000
,
1000
1000
1000
0000
,
0001
0000
1000
0000
,
0001
0000
0000
0000
,
0000
0000
0000
0000
,
0000
0000
0010
0001
,
1000
0000
0010
1000
,
0001
0000
0001
0000
,
0010
0000
0100
0000
,
1000
0000
0001
0001
,
0001
0000
0100
0100
,
0100
0000
1000
0000
,
0010
0000
0001
0000
,
0100
0000
0010
1000
,
0001
0000
0010
0001
,
1000
0000
1000
0000
,
0010
0000
0100
0000
,
0001
0000
1000
1000
,
1000
0000
0100
0100
,
0100
0000
0001
0000
,
0010
0000
1000
0000
,
0100
0000
0001
0000
,
0010
0000
1000
1000
,
0000
1001
0000
0000
,
0000
0000
0000
0000
;

//---------------dance-single - ----------------
#NOTES:
     dance-single:
     :
     Easy:
     7:
     0.325636,0.400261,0.162818,0.117591,0.000000,252.000000,234.000000,18.000000,13.000000,0.000000,0.000000,0.325636,0.400261,0.162818,0.117591,0.000000,252.000000,234.000000,18.000000,13.000000,0.000000,0.000000:
0000
0000
0000
0000
,
0000
0000
0000
0000
,
0000
0000
0000
0000
,
0000
0000
0000
0000
,
0000
0000
0000
0000
,
0001
0000
0000
0200
0000
0000
0000
0000
,
0000
0000
0000
0300
,
1000
0000
0000
0200
0000
0000
0000
0000
,
1000
1300
0010
1001
,
0010
0000
0010
0000
0010
0100
0010
0000
,
1000
0010
0001
1000
,
0010
0000
0010
0000
0010
0100
0010
0000
,
0100
0001
0010
1000
,
0010
0000
0010
0000
0010
0100
0010
0000
,
1000
0010
0001
0100
,
1000
0001
1000
0001
1000
0001
1000
0001
,
0000
0020
0000
0030
0000
0100
0000
0000
,
0010
0100
0001
0100
,
0010
0000
1000
0010
1000
0000
0010
0000
,
0001
0010
0001
1000
,
0100
0000
0010
0000
0010
0100
0000
0100
,
0010
0001
1000
0100
,
0010
0001
1000
0010
,
0100
0100
0100
0000
,
0000
0000
0010
0000
1000
0100
0000
1000
,
0100
1000
0001
0010
,
0001
0100
0010
0010
,
1000
0100
0010
0001
,
1000
0000
0010
0000
1000
0010
0000
0010
,
1000
0001
0001
0010
,
0100
1000
0010
0001
,
0100
0010
1000
0001
,
0000
0000
0000
1000
,
0100
0110
0000
0001
,
0100
0110
0000
1000
,
0001
0110
0000
0001
,
1000
0110
0000
0001
,
0100
1000
0010
1000
,
0100
0001
1000
0001
,
0100
1000
0100
0001
,
0100
0001
0000
1000
,
0010
1010
0000
0001
,
0010
0011
0000
0001
,
0100
0101
0000
1000
,
0100
1100
0000
1000
,
0000
0010
0000
0001
,
0000
0100
0000
1000
,
0000
0010
0000
0001
,
1000
2000
0000
3000
0100
0000
0000
0000
,
0010
1000
0001
0011
,
1000
1010
0001
0000
,
1000
0000
0001
0000
,
1000
0000
0000
0000
,
0000
0000
0000
0000
,
0000
0000
1000
0010
,
0001
0010
0001
0000
0010
0000
0100
0000
,
0001
0100
0001
0000
0010
0000
0100
0000
,
1000
0010
0100
0001
,
0010
0001
1000
0100
,
1100
0000
0010
0001
,
1000
0000
1000
0000
0020
0000
0000
2030
,
0000
0000
3002
0000
0000
0023
0000
0000
,
0130
0100
0001
0010
,
1000
0010
1000
0000
0010
0000
0100
0000
,
1000
0100
1000
0000
0010
0000
0001
0000
,
0100
1000
0010
0100
,
0010
1000
0001
1000
,
0100
0100
0010
0001
,
1001
0000
0000
0000
0020
0000
0000
2030
,
0000
0000
3200
0000
0000
0310
0000
0000
,
0011
0000
0000
1100
0000
0000
1010
0000
,
0000
0101
0000
0000
0010
0000
1000
0000
,
0001
2002
0000
0000
,
0000
0000
0000
3003
,
0000
0000
0000
0000
;

//---------------dance-single - ----------------
#NOTES:
     dance-single:
     :
     Medium:
     12:
     0.549187,0.733811,0.271363,0.099500,0.117591,425.000000,395.000000,30.000000,11.000000,0.000000,0.000000,0.549187,0.733811,0.271363,0.099500,0.117591,425.000000,395.000000,30.000000,11.000000,0.000000,0.000000:
0000
0000
0000
0000
,
0000
0000
0000
0000
,
0000
0000
0000
0000
,
0000
0000
0000
0000
,
0000
0000
0000
0000
,
1000
0000
0000
0010
0000
0000
0200
0000
0000
0000
0000
0000
0000
0000
0000
0000
,
0000
0000
0000
0000
0000
0300
0000
0001
,
1000
0000
0000
0100
0000
0000
0020
0000
0100
0000
0000
0000
0000
0000
0001
0000
,
0001
0000
0031
0000
0010
0100
1001
0000
,
0010
0000
0010
0000
0010
0100
0010
1000
,
0001
0010
0001
0100
1000
0100
0001
0000
,
0010
0000
0010
0000
0010
0100
0010
0001
,
0100
0010
1000
0010
0001
0010
1000
0000
,
0010
0000
0010
0000
0010
0001
0100
1000
,
0001
1000
0001
0000
1000
0001
1000
0000
,
0001
0001
0010
0010
0100
1000
0010
0100
,
0000
0220
0000
0330
0100
0010
0000
0001
,
0010
1000
0100
0010
1000
0010
0100
0100
,
0010
0001
0010
0100
0001
0100
0010
0001
,
1000
0001
0010
0001
1000
0001
0001
1000
,
0100
1000
0010
0001
0010
0110
0000
1000
,
0010
0001
0010
0100
0001
0010
0100
0100
,
0010
1000
0010
0100
1000
0010
0100
0001
,
0100
1000
0100
0001
0100
1000
0000
0000
,
0000
0000
0010
1000
0001
1001
0000
0010
,
0100
0010
0001
0001
1000
0001
0010
0001
,
1000
0001
0100
1000
0010
0100
0010
0010
,
0001
0001
0100
0100
0010
0010
1000
1000
,
0001
2000
3020
0230
0302
2003
0000
3100
,
0001
0010
1000
0100
1000
0010
1000
0001
,
1000
0001
1000
0100
0010
0001
1000
1000
,
0100
0000
0100
0000
0010
0000
0010
0000
0001
0000
0001
0000
1000
0000
0000
1000
,
0000
0000
1000
0000
0000
0100
0000
0000
0010
0000
0000
0000
0001
0000
0000
0000
,
0100
0000
0110
0000
0000
1000
0000
0001
,
0000
1000
0100
0000
0010
0000
0001
0000
,
1000
0000
0110
0000
0000
0001
0000
1000
,
0000
0001
0100
0000
0010
0000
1000
0000
,
0100
0001
0010
0001
,
0100
0000
1000
0010
0001
0000
1000
0010
,
0100
0010
0001
0010
0100
0010
1000
0000
,
0100
0010
0000
0001
1000
0000
0001
0000
,
0010
0100
0010
0000
1000
0100
0001
0100
,
1000
0100
0010
0000
0001
0000
1000
0000
,
0010
0100
0010
0000
0001
0100
1000
0100
,
0001
0000
0100
0000
0010
0000
0000
0000
1000
0000
0000
0000
0001
0000
0000
0001
,
0000
0000
0010
0000
0000
0010
0000
0000
1000
0000
0000
1000
0000
0000
0100
0000
,
0000
0100
0000
0000
0001
0000
0000
0001
0000
0000
0010
0000
0001
0000
0000
0001
,
0000
0000
0100
0000
0000
0100
0000
0000
1000
0000
0000
1000
0000
0000
0010
0000
,
1000
0002
0000
0003
0100
0000
0000
0000
,
0010
0001
1000
1010
,
0001
0000
0011
0000
1000
0100
0001
0000
,
1000
0100
0001
0000
1000
0010
0100
0001
,
0010
0100
1000
0001
0000
0000
0000
0000
,
0000
0000
0000
0000
,
0000
0000
0001
0010
0001
0010
0010
0001
,
1000
1000
1010
0000
0010
0100
0100
0001
,
1000
1000
1100
0000
0010
1000
0100
0000
,
0010
0001
0100
0000
0010
1000
0100
0000
,
0010
0001
1000
0000
0001
0010
1000
0010
,
0001
0000
1000
0100
0001
0100
1000
0000
,
1000
0000
0000
1000
0000
0000
0010
0000
0001
0000
0000
0110
0000
0000
1000
0000
,
0000
0110
0000
0000
0001
0000
0000
0110
0000
0000
1000
0000
0000
0110
0000
0000
,
0001
0000
1000
0010
1000
0010
0010
1000
,
0001
0001
0011
0000
0010
0100
0100
1000
,
0001
0001
0101
0000
0010
0001
0100
0000
,
0010
1000
0100
0000
0010
0001
0100
0000
,
0010
1000
0001
0000
1000
0010
0001
0010
,
1000
0000
0001
0100
1000
0100
0001
0000
,
0001
0000
0000
0001
0000
0000
0010
0000
1000
0000
0000
0110
0000
0000
0001
0000
,
0000
0110
0000
0000
1000
0000
0000
0110
0000
0000
0001
0000
0000
0110
0000
0000
,
1010
0000
0000
1010
0000
0000
0011
0000
0000
0011
0000
0000
0101
0000
0000
0101
,
0000
0000
1100
0000
0000
1100
0000
0000
1010
0000
0000
0000
0101
0000
0000
0000
,
0010
0001
2000
0000
0000
0000
0000
0000
,
0000
0000
0000
3000
;

//---------------dance-single - ----------------
#NOTES:
     dance-single:
     :
     Hard:
     15:
     0.745602,0.933941,0.452272,0.271363,0.601521,577.000000,527.000000,50.000000,30.000000,0.000000,0.000000,0.745602,0.933941,0.452272,0.271363,0.601521,577.000000,527.000000,50.000000,30.000000,0.000000,0.000000:
0000
0000
0000
0000
,
0000
0000
0000
0000
,
0000
0000
0000
0000
,
0000
0000
0000
0000
,
0000
0000
0000
0000
,
0001
0000
0000
0010
0000
0000
0200
0000
0000
0000
0000
0000
0000
0000
2000
0000
,
3000
0020
0030
0002
0000
0303
0000
1000
,
0001
0000
0000
0100
0000
0000
0010
0000
0100
0000
0000
0000
0000
0000
0001
0000
,
1000
0000
0100
0000
0010
0100
1001
0000
,
0010
0000
0000
0000
0010
0000
0000
0000
0010
0000
0100
0010
0100
0000
0010
1000
,
0001
0000
0010
0001
1000
0000
0100
1000
0001
0000
0100
0001
1000
0000
0001
0000
,
0010
0000
0000
0000
0010
0000
0000
0000
0010
0000
0100
0010
0100
0000
0010
0001
,
0100
0000
0010
1000
0001
0000
0010
0100
1000
0000
0001
0100
0010
0000
0100
0000
,
0010
0000
0000
0000
0010
0000
0000
0000
0010
0000
1000
0001
0100
0000
0001
0010
,
1000
0000
1000
0010
0001
0000
0001
0100
1000
0000
1000
0100
0001
0000
0001
0000
,
1010
0000
1001
0000
0011
0000
1001
0000
0001
0100
0010
1000
0100
0010
0001
0100
,
0000
0000
0220
0000
0000
0000
0330
0000
0100
0000
1010
0000
0000
0000
1000
0100
,
0010
0000
0001
0100
0010
1000
0100
0010
0001
0000
0010
0000
0100
1000
0100
0000
,
0010
0001
1000
0001
0010
0000
0100
0000
1000
0001
0100
0000
0010
1000
0010
0000
,
0010
0100
0010
0000
0010
0001
0010
0000
0010
0100
0010
0000
1000
0000
0001
1000
,
0100
1000
0001
0100
0010
0000
1000
0000
0010
0000
0110
0000
0000
0000
0001
0100
,
0010
0000
1000
0100
0010
0001
0100
0010
1000
0000
0010
0000
0100
0001
0100
0000
,
0010
1000
0001
1000
0010
0000
0100
0000
0001
1000
0010
0000
0100
0001
0100
0000
,
0100
0010
0100
0000
0100
1000
0100
0000
0100
0010
0100
0000
0000
0000
0000
0000
,
0000
0000
0000
0000
0011
0000
1001
0000
1100
0000
0101
0000
0000
0000
0010
1000
,
0100
0000
0010
0001
1000
0001
1000
0000
0001
0000
1000
0000
0001
0100
1000
0000
,
0001
0010
1000
0000
0100
0010
0001
0100
0010
0000
0100
0000
0010
0100
0010
0000
,
1000
0010
1000
0000
0100
1000
0100
0000
0010
0100
0010
0000
0001
0010
0001
0000
,
1000
0000
0002
0000
0023
0000
0230
0000
2300
0000
3002
0000
0000
0000
0103
0010
,
1000
0000
0010
0100
0001
1000
0100
1000
0001
0000
0010
0000
0001
0000
1000
0100
,
0001
0000
1000
0010
0001
0000
0100
0000
0010
0000
1000
0000
0001
0010
0001
0010
,
0001
0000
1000
0010
1000
0010
1000
0000
0001
1000
0001
0000
1000
0100
0000
0010
,
0100
0000
0001
0100
0000
0010
0100
0000
0010
0000
0000
0000
0001
0000
0000
0000
,
1000
0100
0110
0000
0000
0001
0000
1000
,
0000
0001
0100
0000
0010
0000
1000
0000
,
0001
0100
0110
0000
0000
1000
0000
0001
,
0000
1000
0100
0000
0010
0000
0001
0000
,
0100
1000
0010
1000
,
0100
0000
0001
0010
1000
0000
0001
0010
,
0100
0010
1000
0010
0100
0010
0001
0000
,
0100
0010
0000
1000
0001
0000
1000
0000
,
0010
0100
0110
0000
0001
0100
1000
0100
,
0001
0100
0110
0000
1000
0000
0001
0000
,
0010
0100
0110
0000
1000
0100
0001
0100
,
1000
0000
0100
0000
0110
0000
0000
0000
0001
0000
0000
0000
2000
0000
0000
3200
,
0000
0000
0302
0000
0000
0023
0000
0000
2030
0000
0000
3200
0000
0000
0302
0000
,
0000
0023
0000
0000
2030
0000
0000
3200
0000
0000
0302
0000
0203
0000
0000
2300
,
0000
0000
3020
0000
0000
0032
0000
0000
0203
0000
0000
2300
0000
0000
3001
0000
,
1000
0020
0000
0030
0100
0000
0000
0000
,
0010
1000
0001
0011
,
1000
0000
1010
0000
0001
0100
1000
0100
,
0001
0100
1000
0100
0001
0010
0100
1000
,
0010
0100
0001
1000
0000
0000
0000
0000
,
0000
0000
0000
0000
,
0000
0000
0000
0000
1000
0100
0010
0001
1000
0000
0010
0100
0010
0000
1000
0000
,
0001
1000
0001
0000
0011
0000
1001
0000
0010
0000
1000
0010
0100
0000
0010
0000
,
0100
0001
0100
0000
0101
0000
1100
0000
0010
0000
0001
0000
0100
0000
0010
0100
,
0010
0000
1000
0000
0100
0000
0010
0100
0010
0000
0001
0000
0100
0000
0010
0100
,
0010
1000
0001
0100
1000
0010
0001
0010
,
1000
0000
0000
0000
0001
0010
0100
1000
0001
0000
1000
0000
1001
0000
0000
0000
,
0011
0000
0000
0011
0000
0000
0110
0000
1000
0100
0000
0011
0000
0000
1000
0010
,
0000
0101
0000
0000
1000
0100
0000
0110
0000
0000
0001
0100
0000
0110
0000
0000
,
1000
0000
0000
0000
0001
0100
0010
1000
0001
0000
0010
0100
0010
0000
0001
0000
,
1000
0001
1000
0000
1010
0000
1001
0000
0010
0000
0001
0010
0100
0000
0010
0000
,
0100
1000
0100
0000
1100
0000
0101
0000
0010
0000
1000
0000
0100
0000
0010
0100
,
0010
0000
0001
0000
0100
0000
0010
0100
0010
0000
1000
0000
0100
0000
0010
0100
,
0010
0001
1000
0100
0001
0010
1000
0010
,
0001
0000
0000
0000
1000
0010
0100
0001
1000
0000
0001
0000
1001
0000
0000
0000
,
1010
0000
0000
1010
0000
0000
0110
0000
0001
0100
0000
1010
0000
0000
0001
0010
,
0000
1100
0000
0000
0001
0100
0000
0110
0000
0000
1000
0100
0000
0110
0000
0000
,
0001
0010
0000
1100
0000
0000
1000
0010
0000
0101
0000
0000
0010
0001
0000
1001
,
0000
0000
0010
1000
0000
1001
0000
0000
0011
0000
0000
0000
1100
0000
0000
0000
,
1000
0010
0100
0001
2000
0000
0000
0000
0000
0000
0000
0000
0000
0000
0000
0000
,
0000
0000
0000
3000
;

//---------------dance-double - ----------------
#NOTES:
     dance-double:
     :
     Easy:
     7:
     0.307545,0.400261,0.045227,0.045227,0.000000,238.000000,233.000000,5.000000,5.000000,0.000000,0.000000,0.307545,0.400261,0.045227,0.045227,0.000000,238.000000,233.000000,5.000000,5.000000,0.000000,0.000000:
00000000
00000000
00000000
00000000
,
00000000
00000000
00000000
00000000
,
00000000
00000000
00000000
00000000
,
00000000
00000000
00000000
00000000
,
00000000
00000000
00000000
00000000
,
00000001
00000100
00001000
00000000
,
00010000
00000000
00010000
00000000
,
00100000
10000000
01000000
00000000
,
00010000
00000000
00001000
00000000
,
00001000
00000010
00001000
00010000
,
00100000
00000000
00100000
00000000
01000000
00100000
01000000
00000000
,
00100000
10000000
01000000
00010000
,
00001000
00000000
00001000
00000000
00000010
00000100
00000010
00000000
,
00000001
00000100
00000001
00001000
,
00000010
00001000
00010000
01000000
,
00100000
00010000
00001000
00010000
,
00000000
00022000
00000000
00033000
00000000
00010000
00000000
00000000
,
00100000
00100000
00010000
00001000
,
00000100
00000010
00001000
00010000
,
00001000
00100000
00010000
00100000
,
10000000
00000000
01000000
00000000
10000000
00010000
00000000
00000000
,
00100000
00010000
00001000
00000100
,
00000010
00000010
00000001
00000100
,
00001000
00010000
00001000
00000000
,
00000000
00000000
00001000
00000000
00100000
01000000
00000000
00000000
,
01000000
10000000
00100000
10000000
,
00010000
01000000
00001000
00010000
,
00000010
00000100
00000010
00001000
,
00001000
00000000
00000100
00000000
00000010
00000001
00000000
00000000
,
00000100
00001000
00010000
00100000
,
10000000
00010000
10000000
00100000
,
01000000
10000000
00010000
00010000
,
00000000
00000000
00000000
10000000
,
01000000
00010000
00000000
00001000
,
00000100
00000001
00000000
00000001
,
00000010
00001000
00000000
00010000
,
00100000
10000000
00000000
01000000
,
00100000
00010000
00000000
01000000
,
00001000
00000100
00000001
00001000
,
00000010
00001000
00000100
00000010
,
00000001
00000100
00000000
00000010
,
00001000
00100000
00010000
00100000
,
10000000
01000000
00010000
10000000
,
00100000
00010000
00100000
00010000
,
00001000
00000010
00000001
00001000
,
00000000
00000001
00000000
00000100
,
00000000
00001000
00000000
00010000
,
00000000
00100000
00000000
10000000
,
00000000
00020000
00000000
00030000
01000000
00000000
00000000
00000000
,
00001000
00010000
00100000
10000000
,
01000000
00010000
00100000
01000000
,
00010000
00001000
00000100
00000010
,
00000001
00000100
00000000
00000000
,
00000000
00000000
00000000
00000000
,
00000000
00011000
00100000
00010000
,
01000000
00010000
01000000
00000000
00001000
00000000
00010000
00000000
,
00000100
00001000
00000100
00000000
00000010
00000000
00001000
00000000
,
00010000
01000000
10000000
00100000
,
00010000
00001000
00000100
00000001
,
00000100
00000100
00001000
00010000
,
00011000
00000000
00000000
00000000
00010000
00000000
00000000
00100000
,
00000000
00000000
10000000
00000000
00000000
01000000
00000000
00000000
,
00100000
00001000
00010000
00001000
,
00000100
00001000
00000100
00000000
00001000
00000000
00010000
00000000
,
01000000
00010000
01000000
00000000
00100000
00000000
00010000
00000000
,
00001000
00000100
00000001
00000010
,
00001000
00010000
01000000
10000000
,
01000000
01000000
00010000
00001000
,
00011000
00000000
00000000
00000000
00001000
00000000
00000000
00000010
,
00000000
00000000
00000001
00000000
00000000
00000100
00000000
00000000
,
00001000
00000000
00000000
00010000
00000000
00000000
00100000
00000000
,
00000000
10000000
00000000
00000000
01000000
00000000
00100000
00000000
,
00000000
20020000
00000000
00000000
,
00000000
00000000
00000000
30030000
,
00000000
00000000
00000000
00000000
;

//---------------dance-double - ----------------
#NOTES:
     dance-double:
     :
     Medium:
     12:
     0.533681,0.567036,0.126636,0.072363,0.117591,413.000000,399.000000,14.000000,8.000000,0.000000,0.000000,0.533681,0.567036,0.126636,0.072363,0.117591,413.000000,399.000000,14.000000,8.000000,0.000000,0.000000:
00000000
00000000
00000000
00000000
,
00000000
00000000
00000000
00000000
,
00000000
00000000
00000000
00000000
,
00000000
00000000
00000000
00000000
,
00000000
00000000
00000000
00000000
,
00100000
00000000
00000000
00010000
00000000
00000000
02000000
00000000
00000000
00000000
00000000
00000000
00000000
00000000
03002000
00000000
,
00000000
00023000
00000000
00030020
00000000
00000030
00000000
00000100
,
00000001
00000000
00000000
00001000
00000000
00000000
00000100
00000000
00000010
00000000
00000000
00000000
00000000
00000000
00001000
00000000
,
00010000
00000000
01000000
00000000
00100000
01000000
00100000
00000000
,
00010000
00000000
00010000
00000000
10000000
01000000
00100000
01000000
,
00010000
00001000
00000010
00000100
00000010
00000001
00000100
00000000
,
00000010
00000000
00000010
00000000
00001000
00000001
00000010
00000100
,
00010000
00001000
00100000
00010000
10000000
01000000
00100000
00000000
,
01000000
00000000
01000000
00000000
10000000
00100000
00010000
00001000
,
00000100
00000001
00000010
00000100
00000010
00000001
00001000
00000000
,
00000010
00000010
00001000
00001000
00010000
01000000
00100000
10000000
,
00000000
20020000
00000000
30030000
01000000
00010000
00000000
00001000
,
00000010
00000001
00000010
00000100
00010000
00001000
01000000
01000000
,
00100000
10000000
00100000
01000000
00010000
00100000
00001000
00001000
,
00010000
00010000
00000010
00000010
00001000
00001000
00000010
00000100
,
00000001
00000010
00000100
00001000
00000001
00001000
00000000
00000001
,
00000010
00001000
00001000
00010000
00100000
10000000
01000000
01000000
,
00100000
10000000
00100000
01000000
10000000
01000000
00010000
00010000
,
00001000
00001000
00000010
00000001
00001000
00000100
00000000
00000000
,
00000000
00000000
00010000
00001000
00000010
00000001
00000000
00001000
,
00000100
00000010
00000001
00000100
00000010
00000100
00000001
00000010
,
00001000
00000010
00001000
00010000
00001000
01000000
00100000
00100000
,
10000000
10000000
01000000
01000000
00100000
00100000
00001000
00010000
,
00001000
00000100
00000010
00001000
00000100
00000010
00000000
00001000
,
00001000
00010000
00100000
10000000
00010000
00100000
00010000
01000000
,
00100000
00010000
00001000
00000010
00000001
00000100
00000010
00000010
,
00000100
00000000
00000100
00000000
00000001
00000000
00000100
00000000
00001000
00000000
00010000
00000000
00001000
00000000
00000000
00001000
,
00000000
00000000
00010000
00000000
00000000
00010000
00000000
00000000
00100000
00000000
00000000
00000000
10000000
00000000
00000000
00000000
,
00010000
00000000
00100000
00000000
00000000
00010000
00000000
10000000
,
01000000
00010000
00001000
00000000
00000000
00000000
00000010
00000000
,
00000001
00000000
00001000
00000000
00000000
00000001
00000000
00000100
,
00001000
00010000
00100000
00000000
10000000
00000000
00010000
00000000
,
01000000
00000000
00100000
00000000
00000000
10000000
00000000
01000000
,
00010000
00001000
00000010
00000000
00000001
00000000
00000100
00000010
,
00001000
00000010
00010000
00001000
01000000
00100000
10000000
00000000
,
01000000
00100000
00000000
00010000
10000000
00000000
00100000
00000000
,
00010000
00001000
00000010
00000000
00001000
00010000
00000010
00001000
,
00000001
00001000
00000100
00000000
00001000
00000000
00000001
00000000
,
00000010
00000100
00001000
00000000
00000010
00001000
00010000
01000000
,
00100000
00000000
10000000
00000000
00010000
00000000
00000000
00000000
00100000
00000000
00000000
00000000
01000000
00000000
00000000
01000000
,
00000000
00000000
00100000
00000000
00000000
00100000
00000000
00000000
00010000
00000000
00000000
00001000
00000000
00000000
00000100
00000000
,
00000000
00000100
00000000
00000000
00000010
00000000
00000000
00000010
00000000
00000000
00000001
00000000
00000100
00000000
00000000
00000100
,
00000000
00000000
00001000
00000000
00000000
00010000
00000000
00000000
00100000
00000000
00000000
00100000
00000000
00000000
10000000
00000000
,
00010000
00200000
00000000
00300000
01000000
00000000
00000000
00000000
,
00010000
00001000
00000010
00000001
,
00000100
00000000
00001000
00000000
00000010
00000001
00000100
00000010
,
00001000
00000100
00010000
00001000
01000000
00010000
00100000
01000000
,
10000000
00100000
01000000
00100000
00000000
00000000
00000000
00000000
,
00000000
00000000
00000000
00000000
,
00000000
00000000
00011000
00000000
00000100
00000010
00001000
00000001
,
00000100
00001000
00000100
00000000
00001000
00100000
01000000
00100000
,
00010000
10000000
00010000
00000000
00100000
00001000
00010000
00000000
,
00000010
00001000
00000100
00000000
00000010
00001000
00010000
00000000
,
00001000
01000000
00010000
00000000
10000000
00100000
01000000
00100000
,
10000000
00000000
01000000
00000000
00010000
00001000
00010000
00000000
,
00000010
00000000
00000000
00001000
00000000
00000000
00000001
00000000
00001000
00000000
00000000
00000110
00000000
00000000
00001000
00000000
,
00000000
00011000
00000000
00000000
00100000
00000000
00000000
00110000
00000000
00000000
10000000
00000000
00000000
11000000
00000000
00000000
,
00010000
00000000
00001000
00010000
01000000
00100000
00010000
10000000
,
01000000
00010000
01000000
00000000
00010000
00000010
00000100
00000010
,
00001000
00000001
00001000
00000000
00000010
00010000
00001000
00000000
,
00100000
00010000
01000000
00000000
00100000
00010000
00001000
00000000
,
00010000
00000100
00001000
00000000
00000001
00000010
00000100
00000010
,
00000001
00000000
00000100
00000000
00001000
00010000
00001000
00000000
,
00100000
00000000
00000000
00010000
00000000
00000000
10000000
00000000
00010000
00000000
00000000
01100000
00000000
00000000
00010000
00000000
,
00000000
00011000
00000000
00000000
00000010
00000000
00000000
00001010
00000000
00000000
00000001
00000000
00000000
00000101
00000000
00000000
,
00001000
00000000
00000000
00001100
00000000
00000000
00010000
00000000
00000000
00011000
00000000
00000000
00100000
00000000
00000000
00110000
,
00000000
00000000
10000000
00000000
00000000
10100000
00000000
00000000
00010000
00000000
00000000
00000000
10000000
00000000
00000000
00000000
,
01000000
00010000
00002000
00000000
00000000
00000000
00000000
00000000
,
00000000
00000000
00000000
00003000
,
00000000
00000000
00000000
00000000
;

//---------------dance-double - ----------------
#NOTES:
     dance-double:
     :
     Hard:
     16:
     0.708128,0.933941,0.144727,0.226136,0.574385,548.000000,532.000000,16.000000,25.000000,0.000000,0.000000,0.708128,0.933941,0.144727,0.226136,0.574385,548.000000,532.000000,16.000000,25.000000,0.000000,0.000000:
00000000
00000000
00000000
00000000
,
00000000
00000000
00000000
00000000
,
00000000
00000000
00000000
00000000
,
00000000
00000000
00000000
00000000
,
00000000
00000000
00000000
00000000
,
00000010
00000000
00000000
00001000
00000000
00000000
00000200
00000000
00000000
00000000
00000000
00000000
00000000
00000000
00020300
00000000
,
00000000
00032000
00000000
00203000
00000000
00300000
00000000
01000000
,
10000000
00000000
00000000
00010000
00000000
00000000
01000000
00000000
00100000
00000000
00000000
00000000
00000000
00000000
00010000
00000000
,
00001000
00000000
00000100
00000000
00000010
00000100
00001001
00000000
,
00000010
00000000
00000000
00000000
00000010
00000000
00000000
00000000
00000010
00000000
00010000
00001000
00010000
00000000
00001000
01000000
,
00010000
00000000
10000000
01000000
00100000
00000000
00010000
00100000
01000000
00000000
10000000
00010000
01000000
00000000
00100000
00000000
,
00010000
00000000
00000000
00000000
00010000
00000000
00000000
00000000
00010000
00000000
00001000
00000010
00001000
00000000
00000010
00000001
,
00001000
00000000
00000010
00000100
00000001
00000000
00001000
00000100
00010000
00000000
00001000
00100000
00010000
00000000
10000000
00000000
,
00100000
00000000
00000000
00000000
00100000
00000000
00000000
00000000
00100000
00000000
01000000
00100000
10000000
00000000
01000000
00100000
,
00010000
00000000
00100000
00010000
00001000
00000000
00010000
00001000
00000100
00000000
00001000
00000100
00000010
00000000
00000001
00000000
,
00000011
00000000
00001001
00000000
00001100
00000000
00011000
00000000
00000010
00010000
00001000
00100000
00010000
10000000
01000000
00100000
,
00000000
00000000
02200000
00000000
00000000
00000000
03300000
00000000
01000000
00000000
10000000
00000000
00000000
00000000
00010000
01000000
,
00100000
00000000
10000000
01000000
00100000
00000000
00001000
00010000
00001000
00000000
00010000
00000000
00000100
00000010
00000100
00000000
,
00000010
00000001
00001000
00000001
00000010
00000000
00000100
00000000
00001000
00000001
00000100
00000000
00000010
00001000
00000010
00000000
,
00010000
00001000
00010000
00000000
00000010
00001000
00000010
00000000
00010000
00001000
00010000
00000000
00100000
00000000
10000000
01000000
,
00100000
00010000
01000000
00100000
10000000
00000000
00100000
00000000
01000000
00000000
00010000
00000000
00000000
00000000
10000000
01000000
,
00100000
00000000
00010000
00001000
00010000
00000000
00001000
00000100
00000010
00000000
00000001
00000000
00000100
00000010
00000100
00000000
,
00000010
00001000
00000001
00001000
00000010
00000000
00000100
00000000
00000001
00001000
00000100
00000000
00010000
00001000
00010000
00000000
,
00000010
00001000
00000010
00000000
00010000
00001000
00010000
00000000
00000010
00001000
00000010
00000000
00000000
00000000
00000000
00000000
,
00000000
00000000
00000000
00000000
00000001
00000000
00000100
00000000
00001000
00000000
00010000
00000000
00000000
00000000
00001000
00100000
,
00010000
00000000
10000000
00010000
01000000
00000000
00100000
00000000
10000000
00000000
00010000
00000000
10000000
01000000
00100000
00000000
,
00010000
01000000
00100000
00000000
00010000
00001000
00010000
00001000
00010000
00000000
00000100
00000000
00000010
00000100
00000010
00000000
,
00000001
00001000
00000001
00000000
00000100
00000010
00000100
00000000
00000010
00001000
00000010
00000000
00010000
00000000
00001000
00100000
,
00010000
00000000
01000000
00000000
00100000
00000000
10000000
00000000
01000000
00000000
00100000
00000000
00000000
00000000
00010000
00001000
,
00010000
00000000
00001000
00000100
00000010
00000000
00000001
00000000
00001000
00000000
00000010
00000000
00001000
00000001
00000100
00000000
,
00000010
00000000
00001000
00000000
00010000
01000000
00100000
00000000
10000000
00000000
01000000
00000000
00100000
00010000
00100000
00000000
,
01000000
10000000
01000000
00000000
10000000
00010000
01000000
00000000
00001000
00010000
00001000
00000000
00010000
00000010
00000000
00000100
,
00000010
00000000
00000001
00000010
00000000
00000100
00000010
00000000
00001000
00000000
00000000
00000000
00000001
00000000
00000000
00000000
,
00000010
00000000
00000100
00000000
00000000
00001000
00000000
00000001
,
00000100
00001000
00010000
00000000
00000000
00000000
00100000
00000000
,
10000000
00000000
00010000
00000000
00000000
10000000
00000000
01000000
,
00010000
00001000
00000010
00000000
00000001
00000000
00001000
00000000
,
00000100
00000000
00000010
00000000
00000000
00000001
00000000
00000100
,
00001000
00010000
00100000
00000000
10000000
00000000
01000000
00100000
,
00010000
00100000
00001000
00010000
00000100
00000010
00000001
00000000
,
00000100
00000010
00000000
00001000
00000001
00000000
00000010
00000000
,
00001000
00010000
00100000
00000000
00010000
00001000
00100000
00010000
,
00001000
00010000
00100000
00000000
00010000
00000000
10000000
00000000
,
00100000
01000000
00010000
00000000
00100000
00010000
00001000
00010000
,
00100000
00000000
00001000
00000000
00010000
00000000
00000000
00000000
00000010
00000000
00000000
00000000
00000200
00000000
00000000
00000302
,
00000000
00000000
00000023
00000000
00000000
00002030
00000000
00000000
00023000
00000000
00000000
00230000
00000000
00000000
20300000
00000000
,
00000000
32000000
00000000
00000000
03020000
00000000
00000000
00032000
00000000
00000000
00023000
00000000
02030000
00000000
00000000
23000000
,
00000000
00000000
30200000
00000000
00000000
00320000
00000000
00000000
00032000
00000000
00000000
00003020
00000000
00000000
00000031
00000000
,
00001000
00000020
00000000
00000030
00000100
00000000
00000000
00000000
,
00001000
00010000
00100000
10010000
,
01000000
00000000
10010000
00000000
00100000
10000000
01000000
00100000
,
00010000
01000000
00001000
00010000
00000100
00001000
00000010
00000100
,
00000001
00000010
00000100
00000010
00000000
00000000
00000000
00000000
,
00000000
00000000
00000000
00000000
,
00000000
00000000
00000000
00000000
00001000
00000010
00010000
00001000
01000000
00000000
00100000
01000000
00010000
00000000
10000000
00000000
,
01000000
00100000
00010000
00000000
01000000
00000000
00001000
00000000
00010000
00000000
00000010
00001000
00000100
00000000
00000010
00000000
,
00000001
00000010
00000001
00000000
00001000
00000000
00000100
00000000
00000010
00000000
00001000
00000000
00010000
00000000
00001000
01000000
,
00010000
00000000
10000000
00000000
01000000
00000000
00100000
01000000
00100000
00000000
00001000
00000000
00010000
00000000
00000010
00000100
,
00000010
00001000
00000100
00000010
00000001
00000010
00001000
00000010
,
00000001
00000000
00000000
00000000
00000100
00000010
00010000
00001000
00100000
00000000
00010000
00000000
01000000
00000000
00000000
00000000
,
10100000
00000000
00000000
10100000
00000000
00000000
01100000
00000000
10000000
01000000
00100000
00010000
00000000
00000000
00001000
00000100
,
00000010
00000001
00000000
00000000
00000001
00000100
00000010
00001000
00000000
00000000
00010000
01000000
00100000
10000000
00000000
00000000
,
00010000
00000000
00000000
00000000
00010000
00100000
00001000
00010000
00000100
00000000
00000010
00000100
00001000
00000000
00000001
00000000
,
00000100
00000010
00001000
00000000
00000100
00000000
00010000
00000000
00001000
00000000
00100000
00010000
01000000
00000000
00100000
00000000
,
10000000
00100000
10000000
00000000
00010000
00000000
01000000
00000000
00100000
00000000
00010000
00000000
00001000
00000000
00010000
00000100
,
00001000
00000000
00000001
00000000
00000100
00000000
00000010
00000100
00000010
00000000
00010000
00000000
00001000
00000000
00100000
01000000
,
00100000
00010000
01000000
00100000
10000000
00100000
00010000
00100000
,
10000000
00000000
00000000
00000000
01000000
00100000
00001000
00010000
00000010
00000000
00001000
00000000
00000100
00000000
00000000
00000000
,
00000011
00000000
00000000
00000011
00000000
00000000
00000110
00000000
00000001
00000100
00000010
00001000
00000000
00000000
00010000
01000000
,
00100000
10000000
00000000
00000000
10000000
01000000
00100000
00010000
00000000
00000000
00001000
00000100
00000010
00000001
00000000
00000000
,
00001000
00000010
00000100
00000001
00000000
00000000
00000010
00000100
00010000
00001000
00000000
00000000
00100000
00010000
10000000
00100000
,
00000000
00000000
01000000
00100000
10000000
00100000
00000000
00000000
11000000
00000000
00000000
00000000
01010000
00000000
00000000
00000000
,
00100000
00001000
00010000
00000100
00002000
00000000
00000000
00000000
00000000
00000000
00000000
00000000
00000000
00000000
00000000
00000000
,
00000000
00000000
00000000
00003000
,
00000000
00000000
00000000
00000000
;

//---------------dance-single - ----------------
#NOTES:
     dance-single:
     :
     Challenge:
     16:
     0.887745,0.967296,0.587953,0.370863,0.872885,687.000000,622.000000,65.000000,41.000000,0.000000,0.000000,0.887745,0.967296,0.587953,0.370863,0.872885,687.000000,622.000000,65.000000,41.000000,0.000000,0.000000:
// measure 0
0000
0000
0000
0000
,  // measure 1
0000
0000
0000
0000
,  // measure 2
0000
0000
0000
0000
,  // measure 3
0000
0000
0000
0000
,  // measure 4
0000
0000
0000
0000
,  // measure 5
1001
0000
0000
0110
0000
0000
0200
0000
0001
0000
0001
0000
0000
0000
0020
0000
,  // measure 6
0030
2000
3000
0020
0000
0330
1001
1000
,  // measure 7
0010
0000
0000
0100
0000
0000
0001
0000
1001
0000
1000
0000
0000
0000
0010
0000
,  // measure 8
1000
0000
0100
0000
0010
0001
0202
0303
,  // measure 9
0010
0000
1000
0000
0001
0000
0000
0000
0001
0000
1000
0010
1000
0000
0001
1000
,  // measure 10
0010
0000
1000
0001
0100
0000
0010
1000
0001
0000
0100
0010
1000
0000
0001
0000
,  // measure 11
0010
0100
0010
0000
0001
0100
0001
0000
1000
0000
0100
0010
0100
0000
0010
0001
,  // measure 12
1000
0000
0010
1000
0100
0000
0010
0100
1000
0000
0001
0010
0100
0000
0010
0000
,  // measure 13
0001
0000
0010
1000
0010
0000
0001
0100
0010
0000
1000
0001
0100
0000
0001
0100
,  // measure 14
1000
0000
1000
0100
0001
0000
1000
0100
0001
0000
0001
0100
1000
0000
0001
0000
,  // measure 15
1100
0000
0101
0000
0011
0000
1010
0000
0001
1000
0010
0100
0010
1000
0001
0100
,  // measure 16
0000
2002
0000
3003
0100
1010
0000
1000
,  // measure 17
0010
0000
0100
0010
1000
0100
0010
0001
0100
0000
0010
0000
1000
0010
0100
0010
,  // measure 18
0001
0010
1000
0010
0100
0000
0100
0001
1000
0010
0100
0000
0100
1000
0100
0000
,  // measure 19
0100
0010
0100
0000
0100
0001
0100
0010
1000
0100
0010
0001
1000
0000
0001
0010
,  // measure 20
0100
0010
0001
1000
0010
0000
1000
0000
0010
0000
0110
0000
0100
0000
0001
0010
,  // measure 21
1000
0000
0010
0100
0010
0001
0100
0010
1000
0010
0100
0000
0001
0010
0100
0000
,  // measure 22
1000
0010
0100
1000
0100
0010
0100
0001
0010
0100
0010
0000
0100
1000
0100
0000
,  // measure 23
0100
0010
0100
0000
0100
0001
0100
1000
0100
0010
0100
0000
0000
0000
2002
0000
,  // measure 24
0000
0000
3003
0000
0101
0000
0110
0000
1010
0000
0001
1000
0010
0000
0010
1000
,  // measure 25
0100
0000
0010
0001
1000
0001
1000
0100
0010
0000
0001
0000
1000
0100
1000
0000
,  // measure 26
0001
0010
1000
0000
0010
0001
0100
0010
1000
0000
0100
0000
0010
0001
0010
0100
,  // measure 27
1000
0000
0001
0010
0100
1000
0100
0000
1000
0000
0001
0100
0001
0010
0001
1000
,  // measure 28
0010
0000
1002
0000
0023
0000
2030
0000
3020
0000
0032
0000
0000
0000
1003
0010
,  // measure 29
0001
0000
0010
1000
0001
0100
0001
0010
0100
0000
1000
0000
0001
0000
0010
0100
,  // measure 30
1000
0000
0001
0010
0001
0010
0100
0010
0100
0010
0001
0000
1000
0010
1000
0010
,  // measure 31
0100
0000
0001
0010
0001
0010
0100
1000
0001
1000
0001
0000
1000
0100
0000
0010
,  // measure 32
0001
0000
0100
0001
0000
0010
0100
0000
1000
0010
0000
0000
1001
0000
0000
0000
,  // measure 33
1000
0100
0210
0000
0310
0001
1001
2000
,  // measure 34
0000
0000
3001
0000
0101
0000
0000
0000
0020
0000
0000
0000
1030
0100
1000
0100
,  // measure 35
0010
0001
0010
0001
0100
0010
0100
0010
1000
0100
1000
0100
1000
0000
0002
0000
,  // measure 36
0000
1003
1100
0000
0110
0000
0012
0000
,  // measure 37
0203
0000
0010
0000
0320
0000
0000
0000
1030
0000
0010
0000
1000
0000
0000
1100
,  // measure 38
0000
0010
0001
0010
0100
0100
0010
0001
,  // measure 39
0010
0001
0010
0000
0100
0010
0100
0000
1000
0100
0010
0000
1000
0010
0100
0000
,  // measure 40
0010
0000
0001
0000
0001
0100
0001
1000
0001
0000
0100
0000
0010
0000
1000
0000
,  // measure 41
0001
0000
0100
0000
0010
0100
0001
0000
1000
0000
0010
1000
0010
0000
0100
0000
,  // measure 42
0001
0100
0010
0000
0110
0000
0100
0001
0010
0100
1000
0000
0001
0000
0001
0000
,  // measure 43
0101
0100
1100
1000
1000
0010
0001
0010
,  // measure 44
1000
0000
0001
0000
0101
0000
0000
0000
0100
0000
0000
0000
0020
0000
0000
2030
,  // measure 45
0000
0000
3200
0000
0000
0302
0000
0000
2003
0000
0000
3020
0000
0000
0032
0000
,  // measure 46
0000
0023
0000
0000
1030
0100
1000
0200
0000
0000
0320
0000
0032
0000
0000
2003
,  // measure 47
0000
0000
3200
0000
0000
0302
0000
0000
0203
0000
0000
2300
0000
0000
3001
0000
,  // measure 48
1000
0020
0000
0030
1001
0000
0000
0000
,  // measure 49
0110
0000
1010
0000
1001
0001
0011
0000
,  // measure 50
1010
0000
1000
0000
1100
0000
0000
0000
0001
0000
0100
0000
1000
0000
0100
0001
,  // measure 51
0100
0000
0100
0000
1000
0000
0100
0001
0010
0000
0010
0000
0100
0000
1000
0000
,  // measure 52
0100
0010
0001
0010
0100
1000
0002
0000
0003
0000
0000
0000
0000
0000
0000
0000
,  // measure 53
0000
0000
0000
0000
,  // measure 54
0000
0000
0000
0000
0001
0010
0100
1000
0001
0000
0010
0100
0010
0000
0001
0000
,  // measure 55
1000
0001
0100
0000
0110
0000
1001
0000
0001
0000
0010
0001
0100
0000
1000
0000
,  // measure 56
0100
0001
0100
0000
0110
0000
1010
0000
1000
0000
0100
0000
0010
0000
0001
0100
,  // measure 57
0010
0000
1000
0010
0100
0000
0010
1000
0001
0000
0001
0100
0010
0000
0010
0100
,  // measure 58
0001
0000
1000
0000
0001
0000
0010
0000
0100
1000
0100
0000
1000
0001
0010
0001
,  // measure 59
0010
0000
0100
0000
1000
0010
0100
0001
1000
0000
0010
0000
0110
0000
0000
0000
,  // measure 60
1100
0000
0000
0110
0000
0000
0011
0000
0001
0100
0000
0110
0000
0000
1000
0010
,  // measure 61
0000
0110
0000
0000
0001
0010
0000
1010
0000
0000
0001
1000
0000
1010
0000
0000
,  // measure 62
0100
0000
0001
1000
0001
0100
0010
1000
0100
0000
1000
0100
0010
0000
0001
0000
,  // measure 63
1000
0100
1000
0010
0100
0000
0101
0000
0010
0000
0100
0001
1000
0000
1001
0000
,  // measure 64
0001
0010
0100
0000
1100
0000
1000
0000
0001
0000
0100
0000
0010
0000
1000
0100
,  // measure 65
1000
0000
0001
0010
0001
0000
1000
0010
1000
0000
0001
0000
0100
0000
0001
1000
,  // measure 66
0001
0000
1000
0100
0010
0100
1000
0000
0001
0010
0001
0010
0100
1000
0100
1000
,  // measure 67
0010
0000
0000
0000
1000
0010
0100
0001
1000
0000
0010
0000
0110
0000
0000
0000
,  // measure 68
1100
0000
0000
0110
0000
0000
0011
0000
0001
0100
0000
1100
0000
0000
1000
0010
,  // measure 69
0000
0011
0000
0000
0001
0100
0000
1010
0000
0000
1000
0100
0000
0101
0000
0000
,  // measure 70
0001
0010
0000
1010
0000
0000
1000
0010
0000
0110
0000
0000
0100
0001
0000
0011
,  // measure 71
0000
0000
0010
1000
0000
1100
0000
0000
0101
0000
0000
0000
1010
0000
0000
0000
,  // measure 72
1000
0100
0010
0001
2000
0000
0000
0000
0000
0000
0000
0000
0000
0000
0000
0000
,  // measure 73
0000
0000
0000
3000
;
