#TITLE:SUPER SUMMER SALE;
#SUBTITLE:;
#ARTIST:BEMANI Sound Team "U1 overground";
#TITLETRANSLIT:;
#SUBTITLETRANSLIT:;
#ARTISTTRANSLIT:;
#GENRE:;
#CREDIT:;
#BANNER:;
#BACKGROUND:;
#LYRICSPATH:;
#CDTITLE:;
#MUSIC:SUPER SUMMER SALE.ogg;
#OFFSET:0.000000;
#SAMPLESTART:20.109024;
#SAMPLELENGTH:15.000000;
#SELECTABLE:YES;
#BPMS:0.000000=155.000000
;
#STOPS:
;
#BGCHANGES:;
#KEYSOUNDS:;
#ATTACKS:;

//---------------dance-single - ----------------
#NOTES:
     dance-single:
     :
     Beginner:
     2:
     0.104792,0.214880,0.000000,0.000000,0.000000,92.000000,92.000000,0.000000,0.000000,0.000000,0.000000,0.104792,0.214880,0.000000,0.000000,0.000000,92.000000,92.000000,0.000000,0.000000,0.000000,0.000000:
0000
0000
0000
0000
,
0000
0000
0000
0000
,
0000
0000
0000
0000
,
0000
0000
0000
0000
,
0000
0000
0000
0000
,
1000
0000
0000
0000
,
1000
0000
0000
0000
,
0001
0000
0000
0000
,
0001
0000
0000
0000
,
1000
0000
0000
0000
,
1000
0000
0000
0000
,
0001
0000
0000
0000
,
0001
0000
0000
0000
,
0010
0000
0000
0000
,
0010
0000
0000
0000
,
0100
0000
0100
0000
,
0100
0000
0100
0000
,
0001
0000
0000
0000
,
0001
0000
0000
0000
,
1000
0000
1000
0000
,
1000
0000
1000
0000
,
0100
0000
0000
0000
,
0100
0000
0000
0000
,
0010
0000
0010
0000
,
0010
0000
0010
0000
,
1000
0000
0000
0000
,
1000
0000
0000
0000
,
0001
0000
0001
0000
,
0001
0000
0001
0000
,
0010
0000
0000
0000
,
0000
0000
0000
0000
,
0001
0000
0000
0000
,
0000
0000
0000
0000
,
1000
0000
0000
0000
,
0000
0000
0000
0000
,
0100
0000
0000
0000
,
0000
0000
0000
0000
,
0010
0000
0000
0000
,
0010
0000
0000
0000
,
0001
0000
0000
0000
,
0001
0000
0000
0000
,
1000
0000
0000
0000
,
1000
0000
0000
0000
,
0100
0000
0000
0000
,
0100
0000
0000
0000
,
0010
0000
0000
0000
,
0001
0000
0000
0000
,
1000
0000
0000
0000
,
0001
0000
0000
0000
,
1000
0000
0000
0000
,
0010
0000
0000
0000
,
0100
0000
0000
0000
,
0010
0000
0000
0000
,
0100
0000
0100
0000
,
0001
0000
0001
0000
,
1000
0000
1000
0000
,
0010
0000
0010
0000
,
1000
0000
1000
0000
,
0001
0000
0001
0000
,
0100
0000
0100
0000
,
0010
0000
0000
0000
,
0100
0000
0000
0000
,
0001
0000
0000
0000
,
1000
0000
0000
0000
,
0010
0000
0000
0000
,
1000
0000
0000
0000
,
0100
0000
0000
0000
,
0010
0000
0000
0000
,
0001
0000
0000
0000
,
1000
0000
1000
0000
,
0001
0000
0000
0000
,
0001
0000
0001
0000
,
1000
0000
0000
0000
,
0010
0000
0010
0000
,
0100
0000
0100
0000
,
0010
0000
0010
0000
,
0100
0100
0100
0100
,
0100
0000
0000
0000
;

//---------------dance-single - ----------------
#NOTES:
     dance-single:
     :
     Easy:
     8:
     0.408915,0.559724,0.430557,0.079733,0.000000,359.000000,305.000000,54.000000,10.000000,0.000000,0.000000,0.408915,0.559724,0.430557,0.079733,0.000000,359.000000,305.000000,54.000000,10.000000,0.000000,0.000000:
0000
0000
0000
0000
,
0000
0000
0000
0000
,
0000
0000
0000
0000
,
0000
0000
0000
0000
,
0000
0000
0000
0000
,
0001
0010
0000
0010
,
0001
0100
0010
1000
,
0100
1000
0000
0100
,
1000
0010
0100
0001
,
0010
0001
0000
1000
,
0001
0100
0010
1000
,
0001
1000
0000
0001
,
0010
0100
1000
0010
,
0100
0100
1010
0101
,
0001
0010
0200
0300
,
0010
1001
0100
1001
,
0010
0000
0010
0000
1000
0001
1000
0000
,
0010
0000
0010
1000
0020
0000
0030
0000
,
0100
0100
1100
1100
,
0001
1010
0100
0101
,
0110
1001
0110
0000
,
0001
0010
1100
0001
,
0010
1000
0101
1000
,
0010
0001
0010
0000
0100
0000
0100
0000
,
1000
0010
1000
0000
0100
0000
1000
0000
,
0001
1000
0001
0000
1000
0000
0001
0000
,
0100
0001
0100
0000
0001
0000
0100
0000
,
0010
0100
0010
0100
0010
0000
0100
0000
,
1010
0101
2002
3003
,
0010
0001
0110
1000
,
0010
0001
1000
0110
,
0001
0010
0200
0000
,
0010
0001
1000
0001
,
1300
0100
0001
0101
,
1000
0100
1000
1100
,
1001
0010
0100
0010
,
1000
0001
0100
1001
,
0010
0100
0011
0101
,
0010
0100
1010
1100
,
1000
0001
1010
0011
,
0001
1000
1100
0101
,
0100
0000
0001
0000
0100
0001
0100
0000
,
0001
0000
0010
0000
0001
0010
0001
0000
,
1000
0000
0010
0000
1000
0010
1000
0000
,
0100
0000
1000
0000
0100
1000
0001
0000
,
0200
0000
0000
0000
0000
0000
0000
0310
,
1000
0001
1000
0001
,
1010
0101
0011
1100
,
0110
1100
0101
0011
,
1100
0000
0110
0000
1000
0001
1000
0000
,
0011
0110
1100
0011
,
1001
0110
1100
0101
,
0011
0000
1010
0000
0010
0100
0010
0000
,
1000
0000
1000
0000
1000
0100
1000
0000
,
0001
0000
0001
0000
0001
0100
0001
0000
,
0010
0000
0010
0000
0010
0100
0010
0000
,
0100
0000
0100
0000
0100
0010
0100
0000
,
1000
0000
0010
0000
0100
0001
0100
0000
,
0001
0000
0010
0000
0100
1000
0100
0000
,
0010
0000
0100
0000
0010
0001
1000
0000
,
0020
0000
0000
0000
0100
0100
0130
0000
,
1001
0010
1000
0100
,
0010
0001
0100
0010
,
0200
0310
1000
0001
,
0100
0100
0010
0010
,
1000
1001
0000
0110
,
0010
1000
0001
0100
,
0010
1000
0010
0000
0100
0000
0100
0000
,
0001
0100
0001
0000
0010
0000
0010
0000
,
0001
0010
1000
0100
,
0001
0010
1000
0100
,
0001
0001
0010
0010
,
0100
0000
0100
0000
1000
0001
1000
0000
,
0010
0100
0010
0000
0100
0000
0010
0000
,
1000
0001
1000
0000
0001
0000
1000
0000
,
0010
0100
0010
0000
0100
0010
0100
0000
,
0001
0100
1000
0010
,
2002
0000
0000
0000
,
3003
0000
0000
0000
;

//---------------dance-single - ----------------
#NOTES:
     dance-single:
     :
     Medium:
     11:
     0.566102,0.590820,0.199332,0.159465,0.003987,497.000000,472.000000,25.000000,20.000000,0.000000,0.000000,0.566102,0.590820,0.199332,0.159465,0.003987,497.000000,472.000000,25.000000,20.000000,0.000000,0.000000:
0000
0000
0000
0000
,
0000
0000
0000
0000
,
0000
0000
0000
0000
,
0000
0000
0000
0000
,
0000
0000
0000
0000
,
0110
0000
1001
0000
0001
0010
0100
0000
,
0110
0000
1001
0000
1000
0010
0100
0000
,
0110
0000
1001
0000
0001
1000
0100
0000
,
0110
0000
1001
0000
1000
0001
0100
0000
,
0010
0100
0001
1000
0000
0010
0100
0000
,
0001
1000
0100
0010
0000
0100
0010
0000
,
0100
0010
0001
1000
0000
0001
1000
0000
,
0100
0010
0001
1000
0100
0010
0100
0000
,
0010
0000
0010
0000
0001
0100
0001
1000
,
0100
0010
0220
0330
,
2000
0000
3100
0100
0002
0000
0103
0100
,
1000
0000
0010
0000
0100
0100
0100
0000
,
0001
0100
0001
1000
0020
0000
0130
0000
,
0001
0010
0001
0001
1000
0100
1000
1000
,
0010
1000
0100
0100
0010
0001
0010
0010
,
0200
0000
0320
0000
0130
0100
0100
0000
,
0001
0100
0010
0100
0001
0010
0100
0000
,
1000
0010
0100
0010
1000
0100
0010
0000
,
0001
0100
1000
0100
0001
0100
1000
0000
,
0001
0010
1000
0010
0001
0010
1000
0000
,
0001
0100
0010
1000
0100
0010
0010
0000
,
1000
0001
0100
0010
1000
0100
0100
0000
,
0001
0001
0100
0010
1000
0100
0010
0000
,
1000
1000
0001
0100
0010
1000
0100
0000
,
1000
0010
0100
0001
0010
0000
0100
0000
,
1000
0001
0100
0010
1000
0000
0100
0000
,
0002
0023
0230
0000
,
0010
0000
0001
0000
1000
1000
1300
0000
,
0001
0100
0001
0100
0001
0001
0010
0010
,
0100
1000
0100
1000
0100
0100
0020
0000
,
0230
0000
1300
0010
0001
0010
1000
0100
,
0001
0100
1000
0010
0100
0001
1000
0100
,
0010
0100
0010
0100
,
1100
0101
1100
0101
,
1000
0001
1000
0001
,
1010
0011
1010
0011
,
0001
0010
0100
0010
0000
1000
0010
0100
,
0010
0100
0001
0010
0000
0100
0010
0000
,
1000
0100
0010
0100
0000
1000
0010
0100
,
0001
0010
0100
0010
0000
0100
1001
0000
,
1000
1000
0010
0110
,
0001
0010
0001
0001
0010
0100
0010
0010
,
0001
0100
0010
0010
1000
0100
1000
1000
,
0001
0010
0100
0100
1000
0010
0100
0100
,
0001
1000
0001
0001
1000
0010
1001
0000
,
0001
0010
1000
1000
0010
0001
0100
0100
,
0010
1000
0100
0100
0010
0001
0100
0000
,
0001
0001
1000
1000
0010
0010
0010
0000
,
1000
0100
1000
0100
0010
0010
0010
0000
,
0001
0100
0001
1000
0010
0010
0010
0000
,
1000
0100
1000
0001
0100
0100
0100
0000
,
0001
0010
0100
1000
0100
0100
0100
0000
,
0001
0010
0100
0001
0100
0100
0100
0000
,
0010
0010
0001
1000
0100
0100
0100
0000
,
1000
0010
0100
1000
0100
0100
0100
0000
,
0010
0010
0100
0100
0110
0110
0110
0000
,
1001
0000
0001
0010
0100
0010
0001
0000
,
1000
0100
0010
0100
1000
0100
0010
0000
,
0110
0000
0010
0001
1000
0001
0100
0010
,
1000
0000
0100
0000
0010
0000
0000
0001
0000
0000
0010
0000
0100
0000
1000
0000
,
0010
0100
0020
0000
0000
1030
0001
0010
,
0100
1000
0010
0100
0010
1000
0001
0100
,
0010
1000
0001
0010
0100
1000
0100
0010
,
0001
0100
1000
0100
0001
0010
1000
0010
,
0200
0000
0310
0001
0010
1000
0010
0001
,
0100
1000
0100
0001
0010
0100
2000
0000
,
3010
0020
1000
2030
0100
3200
0010
0320
,
0031
0100
0010
1000
0001
0010
1000
0000
,
1000
0010
0001
0010
1000
0010
0100
1000
,
0010
0001
0010
1000
0010
0001
0010
0100
,
0001
0010
1000
0001
0100
1000
0001
0010
,
1000
0001
1000
0010
0001
1000
0010
0100
,
0200
0000
0000
0000
,
0300
0000
0000
0000
;

//---------------dance-single - ----------------
#NOTES:
     dance-single:
     :
     Hard:
     15:
     0.758600,0.901777,0.398664,0.127572,0.458463,666.000000,616.000000,50.000000,16.000000,0.000000,0.000000,0.758600,0.901777,0.398664,0.127572,0.458463,666.000000,616.000000,50.000000,16.000000,0.000000,0.000000:
0000
0000
0000
0000
,
0000
0000
0000
0000
,
0000
0000
0000
0000
,
0000
0000
0000
0000
,
0000
0000
0000
0000
,
1000
0100
0010
0100
0000
0010
0001
0100
,
0010
1000
0100
0020
0000
0001
0031
0000
,
0001
0100
0010
1000
0000
0010
1000
0100
,
0010
0001
0100
0020
0000
1000
1030
0000
,
0001
0010
1000
0010
0000
1000
0010
0001
,
0010
1000
0010
0200
0000
0010
0310
0000
,
0001
0100
1000
0100
0010
1000
0001
0100
,
0001
0010
0100
1000
0010
0100
0001
0100
0010
2000
0000
0000
,
3001
0000
0100
0010
0100
0010
0000
0000
1000
0100
1000
0000
0001
0100
0001
0000
,
1000
0000
1000
0000
0001
0100
0000
0001
0100
0010
1000
0001
1000
0000
0000
0000
,
0001
0100
0001
0100
0010
0000
0010
0000
1000
0100
1000
0100
0010
0000
0010
0000
,
0001
0010
0001
0000
1000
0010
1000
0000
0001
0100
0010
1000
0001
0000
0000
0000
,
0001
0010
0100
1000
0001
0000
1000
0000
0001
0010
0100
0000
0010
0000
0000
0000
,
0001
0000
0100
0000
0001
0100
0000
0000
1000
0000
0100
1000
0100
0000
1100
0000
,
1000
1000
0011
1100
0001
0001
1010
0101
,
1000
0010
0000
0100
0001
0010
0000
0100
1000
0000
0001
0100
0010
0000
0000
0000
,
1000
0000
0010
0000
1000
0100
0000
1000
0010
0000
0100
0000
1001
0000
0000
0000
,
0001
0010
0001
0000
0100
0010
0100
0000
0001
0000
1000
0000
1001
0000
0000
0000
,
0010
0000
0100
0000
0001
0000
1000
0000
0001
0100
0010
0000
1001
0000
0000
0000
,
1000
0100
0010
0100
1000
0000
0001
0100
0001
0000
0010
0000
1001
0000
0000
0000
,
0001
0000
0100
0000
1000
0000
0100
0000
0001
0010
0100
0000
0110
0000
0000
0000
,
0001
0000
0001
0000
1000
0000
1000
0000
0100
1000
0010
0000
0110
0000
0000
0000
,
0001
0000
0100
0000
0010
0000
1000
0000
0010
0100
0001
0000
0110
0000
0000
0000
,
1000
0010
0000
0100
0010
0000
0100
0000
0001
0100
0010
0000
0110
0000
0000
0000
,
1000
0000
0100
0000
1000
0000
0100
0000
0020
0000
0000
0031
1000
0000
0010
0000
,
0100
0001
0010
0100
2000
0000
0000
3100
,
1000
0010
0001
0010
0220
0000
0030
0301
,
0010
0100
1000
0010
0100
0001
0010
0100
,
1000
0100
1000
0100
0010
0010
0100
0100
,
1000
0010
0100
0001
1000
0100
0020
0000
,
0032
0000
0013
0001
0010
0100
0010
0001
,
1000
0100
1000
0010
0100
0001
0100
0010
,
1000
0001
1010
1100
,
0001
1000
0011
0101
,
0010
0100
1100
0101
,
0100
0010
1010
0011
,
0001
0000
1000
0000
0001
0100
0000
0001
0100
0000
0010
0000
1000
0000
0100
0000
,
1000
0000
0001
0000
1000
0100
0000
1000
0100
0000
0010
0000
0001
0000
0100
0000
,
0001
0000
0100
0000
0010
1000
0000
0010
1000
0000
0100
0000
0010
0001
0000
0010
,
0001
0000
1000
0000
0001
0100
0000
0010
1000
0000
0001
0000
0001
0000
0000
0000
,
1000
0001
0000
1000
0001
0000
0100
0000
0010
0000
1000
0000
0001
0000
1001
0000
,
0010
0010
0001
0011
0100
0100
1000
1100
,
1000
1000
0010
0110
0001
0001
0010
0110
,
1000
0100
1000
1100
0001
0100
0001
0101
,
0001
0000
0100
0000
0001
0100
0000
0010
1000
0100
0000
0010
0000
0000
0110
0000
,
0001
0010
0100
0110
1000
0010
0100
0110
,
0001
1000
0000
1000
0001
0000
0010
0000
0100
0000
1000
0000
0010
0000
0110
0000
,
0100
0010
0000
0010
0100
0001
0000
0010
0100
0000
1000
0000
0001
0000
0110
0000
,
1000
0000
1000
0000
0001
0100
0010
0000
0100
0010
1000
0000
0100
0000
1001
0000
,
1000
0001
0100
0000
0001
1000
0100
0000
1000
0001
0010
0000
0100
0000
1001
0000
,
0001
0010
0100
0000
1000
0100
0010
0000
0001
0100
0010
0000
0100
0000
1001
0000
,
0001
0100
0010
0000
1000
0100
0010
0000
0001
1000
0100
0000
0010
0000
1001
0000
,
0010
0000
0100
0000
1000
0001
0010
0000
0001
1000
0100
0000
0010
0000
1001
0000
,
0100
0000
0010
0000
1000
0100
0010
0000
0001
0100
0010
0000
0100
0000
1001
0000
,
0100
0010
0001
0000
0100
0010
1000
0000
0001
0010
0100
1000
0010
0000
0110
0000
,
1000
0100
1000
0000
1010
0000
0101
0000
0001
0010
0100
1000
0001
0000
1001
0000
,
0200
0000
0310
1000
0100
0010
0001
0100
,
0010
1000
0010
0100
0001
1000
0100
0010
,
0002
0000
1003
0100
0010
0001
0100
0010
,
1000
0000
0100
0000
0010
0000
0000
0001
0000
0100
0010
0000
1000
0000
0001
0000
,
1000
0100
0010
0001
1000
0000
0000
0000
0001
0000
0100
0000
0010
0000
1000
0000
,
0001
0010
0100
1000
0010
0100
0010
0001
,
1000
0100
0010
0100
0010
0100
0001
1000
,
0001
0100
0001
0000
1000
0100
1000
0000
0010
0100
0010
1000
0001
0000
0100
0000
,
1001
0000
0000
0000
1000
0000
0100
0000
1000
0000
0010
0000
1000
0100
1000
0000
,
0010
0000
1000
0000
0001
0100
0001
0000
0010
0000
0100
0000
2000
0000
0000
0000
,
3010
1100
0100
0011
0100
1010
0100
0011
,
0001
0010
0001
0000
1000
0100
1000
0000
0100
0000
0010
0000
2002
0000
3003
0000
,
0001
0010
0001
0000
0100
0000
0010
0000
1000
0100
1000
0000
0010
0000
0100
0000
,
0001
1000
0100
0000
0010
0000
0100
0000
1000
0001
0100
0000
0010
0000
0100
0000
,
0001
0010
0100
0000
1000
0010
0100
0000
0010
0100
0001
0000
1000
0010
0100
0000
,
0001
0000
0100
0000
0010
0000
1000
0000
0001
0010
0001
0100
0010
1000
0100
1000
,
0002
0000
0000
0000
,
0003
0000
0000
0000
;

//---------------dance-double - ----------------
#NOTES:
     dance-double:
     :
     Easy:
     8:
     0.419166,0.559724,0.518263,0.127572,0.000000,368.000000,303.000000,65.000000,16.000000,0.000000,0.000000,0.419166,0.559724,0.518263,0.127572,0.000000,368.000000,303.000000,65.000000,16.000000,0.000000,0.000000:
00000000
00000000
00000000
00000000
,
00000000
00000000
00000000
00000000
,
00000000
00000000
00000000
00000000
,
00000000
00000000
00000000
00000000
,
00000000
00000000
00000000
00000000
,
00010000
00001000
00000000
00010000
,
01000000
10000000
00100000
01000000
,
00001000
00010000
00000000
00001000
,
00000100
00000001
00000010
00000100
,
00010000
00001000
00000000
00010000
,
00100000
01000000
00010000
00100000
,
00001000
00010000
00000000
00001000
,
00000010
00000100
00000110
00000000
,
00000001
00000001
00000100
00000100
,
00000110
00001100
00022000
00033000
,
01000000
10010000
01000000
10010000
,
00001000
00000000
00010000
00000000
00001000
00010000
00001000
00000000
,
00000010
00000100
00000020
00000030
,
00000001
00000001
00000110
00000110
,
00001000
00011000
01000000
01010000
,
00110000
00011000
00001100
00000000
,
00000010
00000100
00000110
00001001
,
00000100
00010000
00011000
00110000
,
01000000
10000000
11000000
00110000
,
01000000
00000000
00001000
00000000
00010000
00001000
00010000
00000000
,
00011000
00000000
00001100
00000000
00000100
00000010
00000100
00000000
,
00001100
00000000
00011000
00000000
00100000
00010000
00100000
00000000
,
00001000
00000100
00000010
00001000
,
00000011
00001100
00022000
00033000
,
01000000
00100000
10000000
00100000
,
01000000
00001000
00010000
00001000
,
00001100
00000110
00000012
00000000
,
00001000
00000010
00000100
00001003
,
00000100
00010000
00011000
01010000
,
10000000
01000000
11000000
10010000
,
10010000
00100000
00001000
00010000
,
00000100
00000010
00000001
00001000
,
00000110
00001000
00000010
00000100
,
00000001
00000010
00000001
00000000
00001000
00000100
00001000
00000000
,
00000100
00010000
00011000
00110000
,
00010000
00100000
00010000
00000000
10000000
01000000
10000000
00000000
,
11000000
10010000
00100000
01000000
,
00001000
00010000
00001000
00000000
00010000
00001000
00010000
00000000
,
00000100
00000010
00000011
00000101
,
00000010
00000000
00001000
00000000
00000100
00010000
00001000
00000000
,
00020000
00000000
00000000
00000000
00000000
00000000
00000000
00031000
,
00000100
00000010
00000100
00000010
,
00000011
00000101
00000110
00001100
,
00000110
00001010
00011000
00110000
,
01100000
00000000
11000000
00000000
10000000
00010000
10000000
00000000
,
00110000
01100000
01010000
00011000
,
00001100
00000110
00000011
00001100
,
00000011
00000000
00001100
00000000
00000001
00001000
00000100
00000000
,
00010000
00000000
00010000
00000000
00001000
00010000
01000000
00000000
,
10000000
00000000
10000000
00000000
00010000
00100000
00001000
00000000
,
00010000
00000000
00010000
00000000
00001000
00000100
00000001
00000000
,
00000010
00000000
00000010
00000000
00000100
00010000
00001000
00000000
,
01000000
00000000
01000000
00000000
00100000
10000000
01000000
00000000
,
00100000
00000000
00100000
00000000
01000000
00010000
00001000
00000000
,
00100000
00000000
01000000
00000000
00100000
00010000
10000000
00000000
,
00002000
00000000
00000000
00000000
00100000
00100000
00103000
00000000
,
00011000
00100000
01000000
00100000
,
10000000
00100000
01000000
00010000
,
00001000
00010000
00001000
00000100
,
00000010
00000010
00000100
00000100
,
00000001
00001001
00000000
00011000
,
00001000
00100000
00010000
01000000
,
00100000
10000000
00100000
00000000
00010000
00000000
00001000
00000000
,
00010000
00001000
00010000
00000000
00000100
00000000
00000010
00000000
,
00000001
00000100
00000010
00001000
,
00000100
00010000
00001000
00100000
,
00020000
02030000
03200000
20300000
,
32000000
00000000
23000000
00000000
30010000
10000000
00010000
00000000
,
00100000
00001000
00010000
00000000
00001000
00000000
01000000
00000000
,
00001000
00010000
00001000
00000000
00100000
00000000
00001000
00000000
,
00000100
00000010
00000100
00000000
00000001
00000100
00001000
00000000
,
00010000
01000000
10000000
00100000
,
20020000
00000000
00000000
00000000
,
30030000
00000000
00000000
00000000
;

//---------------dance-double - ----------------
#NOTES:
     dance-double:
     :
     Medium:
     11:
     0.542183,0.559724,0.271091,0.103653,0.003987,476.000000,442.000000,34.000000,13.000000,0.000000,0.000000,0.542183,0.559724,0.271091,0.103653,0.003987,476.000000,442.000000,34.000000,13.000000,0.000000,0.000000:
00000000
00000000
00000000
00000000
,
00000000
00000000
00000000
00000000
,
00000000
00000000
00000000
00000000
,
00000000
00000000
00000000
00000000
,
00000000
00000000
00000000
00000000
,
00000001
00000010
00000100
00000000
00000100
00001000
00000010
00000000
,
00001000
00010000
01000000
00010000
,
10000000
01000000
00100000
00000000
00100000
00010000
01000000
00000000
,
00010000
00001000
00000010
00001000
,
00000001
00000010
00000100
00001000
00000000
00000100
00000010
00000000
,
00000001
00001000
00000100
00010000
,
00001000
00010000
01000000
00100000
00000000
01000000
10000000
00000000
,
10000000
01000000
00100000
10010000
,
00001000
00010000
00001000
00000000
00001000
00100000
00010000
10000000
,
01000000
00010000
00022000
00033000
,
00001000
00000000
01000000
01000000
00010000
00000000
00100000
00100000
,
00001000
00000000
00000100
00000000
00000010
00000010
00000010
00000000
,
00000001
00000100
00000010
00001000
00000200
00000000
00010300
00000000
,
00001000
00100000
00010000
00010000
01000000
00001000
00010000
00010000
,
00001000
00000100
00000010
00000010
00001000
00000100
00010000
00010000
,
00002000
00000000
00023000
00000000
00030100
00000100
00000100
00000000
,
00000001
00000010
00000100
00000010
00000001
00001000
00000100
00000000
,
00000100
00010000
00000100
00001000
00010000
00100000
00010000
00000000
,
10000000
00100000
01000000
00010000
00100000
00010000
01000000
00000000
,
00010000
00100000
00001000
00010000
00001000
00000100
00000010
00000000
,
00000100
00000001
00000010
00000100
00010000
00001000
00000010
00000000
,
00000001
00000100
00001000
00010000
00001000
00010000
00100000
00000000
,
10000000
10000000
00100000
01000000
00010000
00010000
00100000
00000000
,
00001000
00001000
00010000
00000100
00000010
00000001
00000100
00000000
,
00000001
00000100
00001000
00010000
00100000
00000000
10000000
00000000
,
00010000
00100000
00001000
00010000
00000100
00000000
00001000
00000000
,
00000020
00020030
00032000
00000000
,
00000010
00000000
00010000
00000000
01000000
01000000
01003000
00000000
,
00001000
00000100
00000001
00000010
00001000
00010000
00100000
01000000
,
00010000
00010000
00100000
00100000
01000000
01000000
20000000
00000000
,
32000000
00000000
13000000
00100000
00010000
00100000
01000000
00010000
,
00100000
00001000
00010000
00000100
00000010
00000001
00001000
00000100
,
00000010
00000001
00000100
00000010
,
00001001
00001100
00001001
00000101
,
00000010
00010000
00001000
01000000
,
10010000
11000000
10010000
01010000
,
10000000
01000000
00100000
00000000
00100000
00010000
01000000
00000000
,
00010000
00001000
00000010
00001000
,
00000001
00000010
00000100
00000000
00000100
00001000
00000010
00000000
,
00001000
00010000
01000000
00010000
,
00001000
00001000
00100000
01100000
,
00001000
00010000
00001000
00001000
00000100
00000010
00001000
00001000
,
00000100
00010000
00001000
00001000
00100000
00010000
01000000
01000000
,
00001000
00010000
00000100
00000100
00000010
00000001
00000100
00000100
,
00000010
00010000
00001000
00001000
00100000
00010000
00110000
00000000
,
10000000
00100000
00010000
00010000
00001000
00010000
00000010
00000010
,
00000100
00001000
00000100
00000100
00000001
00000010
00001000
00000000
,
00010000
00010000
00001000
00001000
01000000
01000000
01000000
00000000
,
00011000
00000000
00110000
00000000
00001000
00001000
00001000
00000000
,
00000110
00000000
00001001
00000000
00000001
00000001
00000001
00000000
,
00001100
00000000
00010100
00000000
00001000
00001000
00001000
00000000
,
00110000
00000000
01100000
00000000
00010000
00010000
00010000
00000000
,
00101000
00000000
00011000
00000000
00000100
00000100
00000100
00000000
,
00011000
00000000
01100000
00000000
00100000
00100000
00100000
00000000
,
11000000
00000000
00110000
00000000
00001000
00001000
00001000
00000000
,
00010000
00010000
00001000
00001000
00011000
00011000
00011000
00000000
,
00100000
00000000
00100000
00010000
10000000
00100000
00010000
00000000
,
00001000
00000100
00000010
00000100
00000001
00000010
00000100
00000000
,
00000110
00000000
00000001
00000010
00000001
00000100
00001000
00010000
,
00100000
00000000
01000000
00000000
00100000
00000000
00000000
10000000
00000000
00000000
00100000
00000000
01000000
00000000
00010000
00000000
,
00100000
00001000
00020000
00000000
00000000
00031000
00010000
00000100
,
00000010
00000001
00001000
00000100
00000010
00000001
00000100
00001000
,
00010000
00100000
10000000
01000000
00010000
00001000
00100000
00010000
,
00001000
00000100
00000010
00000001
00000100
00000010
00001000
00000100
,
00000020
00000000
00000130
00001000
00000010
00000001
00000010
00001000
,
00010000
01000000
10000000
01000000
00010000
00100000
01000000
00000000
,
00110000
00011000
00001100
00000110
,
00000001
00000100
00000010
00010000
00000100
00001000
00000100
00000000
,
00000100
00010000
00001000
00100000
00010000
10000000
00100000
00000000
,
00100000
10000000
01000000
00100000
00001000
00010000
00001000
00000000
,
00000010
00000100
00000001
00000010
00000100
00010000
00001000
00100000
,
00010000
10000000
01000000
00010000
00001000
00000100
00000001
00000010
,
00000200
00000000
00000000
00000000
,
00000300
00000000
00000000
00000000
;

//---------------dance-double - ----------------
#NOTES:
     dance-double:
     :
     Hard:
     15:
     0.749488,0.901777,0.318931,0.119599,0.450490,658.000000,618.000000,40.000000,15.000000,0.000000,0.000000,0.749488,0.901777,0.318931,0.119599,0.450490,658.000000,618.000000,40.000000,15.000000,0.000000,0.000000:
00000000
00000000
00000000
00000000
,
00000000
00000000
00000000
00000000
,
00000000
00000000
00000000
00000000
,
00000000
00000000
00000000
00000000
,
00000000
00000000
00000000
00000000
,
00000001
00000010
00000001
00000100
00000000
00001000
00000100
00010000
,
00001000
00100000
00010000
02000000
00000000
00010000
03010000
00000000
,
10000000
00100000
10000000
01000000
00000000
00010000
01000000
00001000
,
00010000
00000100
00001000
00000020
00000000
00001000
00001030
00000000
,
00000001
00000100
00000001
00001000
00000000
00000100
00010000
00001000
,
00100000
00010000
00100000
02000000
00000000
00100000
03100000
00000000
,
00010000
00100000
01000000
00010000
00000000
00001000
00000100
00000001
,
00000001
00000010
00000100
00001000
00000010
00010000
00001000
01000000
00100000
20000000
00000000
00000000
,
30010000
00000000
10000000
01000000
10000000
00100000
00000000
00000000
01000000
00010000
01000000
00000000
00001000
00010000
00001000
00000000
,
00010000
00000000
00000100
00000000
00000010
00000001
00000000
00000001
00001000
00000100
00000010
00000001
00001000
00000000
00000000
00000000
,
00000001
00000100
00000001
00000100
00000010
00000000
00001000
00000000
00000100
00010000
00000100
00010000
00001000
00000000
00010000
00000000
,
00001000
00100000
00001000
00000000
00100000
01000000
00100000
00000000
00010000
01000000
00100000
10000000
00010000
00000000
00000000
00000000
,
10000000
00100000
01000000
00010000
01000000
00000000
00100000
01000000
00001000
01000000
00100000
00000000
01000000
00000000
00000000
00000000
,
00010000
00000000
00100000
00000000
00001000
00010000
00000000
00000000
00001000
00000000
00010000
00000100
00000010
00000000
00000110
00000000
,
00000001
00000001
00000100
00001000
00010000
00010000
01000000
10000000
,
10000000
00100000
00000000
01000000
00001000
00100000
00000000
00001000
00010000
00000000
00001000
00010000
00000100
00000000
00000000
00000000
,
00000010
00000000
00000001
00000000
00000010
00000001
00000000
00000010
00000001
00000000
00000100
00000000
00000010
00000000
00000000
00000000
,
00001000
00000100
00001000
00000000
00000100
00010000
00001000
00000000
00010000
00000000
00100000
00000000
01000000
00000000
00000000
00000000
,
01000000
00000000
00100000
00000000
10000000
00000000
00010000
00000000
00100000
00001000
00010000
00000000
00001000
00000000
00000000
00000000
,
00010000
00000100
00010000
00000010
00010000
00000000
00001000
00100000
00001000
00000000
00010000
00000000
00001000
00000000
00000000
00000000
,
00010000
00000000
00000100
00000000
00000010
00000000
00000001
00000000
00001000
00000010
00000100
00000000
00000001
00000000
00000000
00000000
,
00000100
00000000
00000100
00000000
00000010
00000000
00000010
00000000
00001000
00000100
00010000
00000000
00001000
00000000
00000000
00000000
,
00010000
00000000
01000000
00000000
00100000
00000000
00001000
00000000
00010000
00001000
01000000
00000000
00010000
00000000
00000000
00000000
,
10000000
00100000
00000000
01000000
00001000
00000000
00010000
00001000
00100000
00001000
00010000
00000000
00011000
00000000
00000000
00000000
,
00010000
00000000
00000010
00000000
00001000
00000000
00000100
00000000
00000020
00000000
00000000
00000031
00001000
00000000
00000100
00000000
,
00010000
00001000
00100000
01000000
20000000
00000000
00000000
31000000
,
10000000
00100000
00010000
00001000
00000100
00000001
00000010
00001000
,
00010000
01000000
10000000
00100000
00010000
00001000
00000100
00000001
,
00000010
00000001
00000010
00000001
00001000
00001000
00000100
00000100
,
00010000
00001000
00010000
00100000
10000000
01000000
00200000
00000000
,
00320000
00000000
00130000
00010000
00001000
00000100
00000001
00000100
,
00001000
00010000
00100000
10000000
00100000
00010000
01000000
00100000
,
10000000
00010000
00110000
00011000
,
00000100
00001000
00000011
00000101
,
00000010
00010000
00010100
00011000
,
00100000
00010000
10100000
00110000
,
00001000
00000000
00010000
00000000
00000100
00000010
00000000
00000100
00000010
00000000
00000100
00000000
00001000
00000000
00010000
00000000
,
00100000
00000000
01000000
00000000
00100000
01000000
00000000
00010000
00001000
00000000
00100000
00000000
00010000
00000000
01000000
00000000
,
00100000
00000000
00100000
00000000
10000000
01000000
10000000
00000000
00010000
00000000
00010000
00000000
01000000
00010000
01000000
00000000
,
00010000
00000000
00010000
00000000
00100000
00001000
00100000
00000000
00001000
00000000
00010000
00000000
00000100
00000000
00000000
00000000
,
00000010
00000100
00000000
00001000
00000100
00000000
00010000
00000000
00001000
00000000
00100000
00000000
00010000
00000000
10010000
00000000
,
00100000
00100000
00010000
00110000
01000000
01000000
10000000
11000000
,
00100000
00001000
00010000
00011000
00001000
00000100
00000010
00000110
,
00000010
00010000
00001000
00001100
00000010
00000001
00000100
00000101
,
00000001
00000000
00001000
00000000
00000100
00001000
00000000
00000100
00010000
00001000
00000000
00100000
01000000
00000000
01100000
00000000
,
00100000
01000000
10000000
11000000
01000000
00100000
00010000
00110000
,
00100000
00001000
00000000
00001000
01000000
00000000
00100000
00000000
00010000
00000000
00001000
00000000
00010000
00000000
00011000
00000000
,
00001000
00000100
00000000
00000100
00000001
00000010
00000000
00000010
00000100
00000000
00001000
00000000
00000100
00000000
00001100
00000000
,
00001000
00000000
00000100
00000000
00010000
00001000
00100000
00000000
00001000
01000000
00100000
00000000
01000000
00000000
10010000
00000000
,
10000000
00010000
01000000
00000000
00001000
00100000
00010000
00000000
00100000
00001000
00010000
00000000
00001000
00000000
00011000
00000000
,
00001000
00010000
00000100
00000000
00001000
00000100
00000010
00000000
00000001
00000100
00000010
00000000
00001000
00000000
00000110
00000000
,
00000010
00010000
00001000
00000000
00010000
00000100
00001000
00000000
00000100
00000000
00010000
00000000
00001000
00000000
00110000
00000000
,
00100000
00000000
01000000
00000000
10000000
00010000
00100000
00000000
00010000
00100000
00001000
00000000
00010000
00000000
00011000
00000000
,
00000100
00000000
00000010
00000000
00000001
00001000
00000100
00000000
00001000
00000001
00000010
00000000
00000100
00000000
00001001
00000000
,
00000001
00000100
00000010
00000000
00000100
00000010
00001000
00000000
00000100
00010000
00001000
00100000
00010000
00000000
01100000
00000000
,
10000000
01000000
10000000
00000000
01100000
00000000
00110000
00000000
00001000
00010000
00000010
00001000
00000001
00000000
00000110
00000000
,
00000002
00000000
00000013
00000001
00000010
00001000
00000010
00000001
,
00000100
00001000
00010000
01000000
10000000
01000000
00010000
01000000
,
20000000
00000000
30010000
01000000
00100000
00010000
00001000
00000100
,
00000010
00000000
00001000
00000000
00000100
00000000
00000000
00000010
00000000
00000001
00000100
00000000
00000010
00000000
00001000
00000000
,
00000100
00010000
00001000
00010000
00000100
00000000
00000000
00000000
00011000
00000000
00000000
00000000
00100000
00000000
00010000
00000000
,
00001000
00000100
00001000
00010000
01000000
10000000
00100000
00010000
,
10000000
01000000
00010000
00001000
00000010
00000001
00000010
00001000
,
00000010
00001000
00000010
00000000
00010000
00000100
00010000
00000000
00001000
00100000
00010000
01000000
00100000
00000000
01000000
00000000
,
10010000
00000000
00000000
00000000
10000000
00000000
01000000
00000000
00100000
00000000
00010000
00000000
00100000
00001000
00010000
00000000
,
00001000
00000000
00010000
00000000
00000100
00001000
00000010
00000000
00000100
00000001
00000010
00000000
00000200
00000000
00000000
00000000
,
00000310
00000011
00000100
00000110
00001000
00001100
00000100
00011000
,
00100000
00001000
00010000
00000000
00001000
00100000
01000000
00000000
00100000
00000000
01000000
00000000
22000000
00000000
33000000
00000000
,
10000000
00100000
10000000
00000000
01000000
00000000
00100000
00000000
00010000
00100000
00010000
00000000
00100000
00000000
00001000
00000000
,
00010000
00001000
00000100
00000000
00000010
00000000
00000100
00000000
00000001
00000010
00000100
00000000
00000001
00000000
00000100
00000000
,
00000010
00000001
00000100
00000000
00000010
00010000
00001000
00000000
00010000
00001000
00100000
00000000
00010000
00100000
01000000
00000000
,
10000000
00000000
00100000
00000000
00010000
00000000
00001000
00000000
00000010
00000100
00001000
00000010
00000100
00000001
00000100
00000000
,
00000202
00000000
00000000
00000000
,
00000303
00000000
00000000
00000000
;

//---------------dance-single - ----------------
#NOTES:
     dance-single:
     :
     Challenge:
     17:
     0.971600,1.013004,0.398664,0.127572,1.080379,853.000000,803.000000,50.000000,16.000000,4.000000,0.000000,0.971600,1.013004,0.398664,0.127572,1.080379,853.000000,803.000000,50.000000,16.000000,4.000000,0.000000:
// measure 0
0000
0000
0000
0000
,  // measure 1
0000
0000
0000
0000
,  // measure 2
0000
0000
0000
0000
,  // measure 3
0000
0000
0000
0000
,  // measure 4
0000
0000
0000
0000
,  // measure 5
1001
0000
0000
0000
1000
0000
0010
0000
0001
0000
0010
0000
1000
0001
1000
0000
,  // measure 6
0100
0010
0001
0100
0010
0100
0002
0000
,  // measure 7
1003
0000
0010
0000
0100
0000
0001
0000
1000
0000
0100
0000
0010
0001
0010
0000
,  // measure 8
0100
0000
0010
0000
1000
0001
2000
0000
0000
0000
0010
0000
3010
0000
0100
0001
,  // measure 9
0100
0001
1000
0000
0010
0000
1000
0000
0100
0010
0001
0000
1000
0001
0100
0001
,  // measure 10
0010
0000
0001
1000
0100
0000
1000
0000
0010
0100
0001
0000
0100
0000
0010
0000
,  // measure 11
1010
0000
1000
0000
0001
0000
0100
0000
1000
0100
0001
0000
0010
0100
0010
0100
,  // measure 12
1000
0100
0000
0001
0100
0000
1000
0010
0000
0001
0010
0000
1000
0010
0000
0100
,  // measure 13
1000
0100
0001
0100
0001
0100
0010
0000
0011
0000
1000
0000
1100
0000
0100
0000
,  // measure 14
0010
0001
0010
0000
0001
1000
0001
0000
1000
0100
0010
0100
0010
0000
0001
0000
,  // measure 15
0100
0001
0100
0010
1000
0010
1000
0000
0001
0010
0001
0010
0100
1000
0100
0000
,  // measure 16
1000
0001
1000
0010
1000
0100
0010
0000
0001
1000
0010
0100
0001
0000
0000
0000
,  // measure 17
0001
1000
0001
0100
0010
0000
1000
0000
1001
0000
0001
0000
0101
0000
0000
0000
,  // measure 18
0010
0000
0100
0000
0001
1000
0001
0000
1000
0000
0010
1000
0010
0100
0001
0000
,  // measure 19
0010
0000
0001
0000
1000
0100
0010
0001
0010
0100
1000
0001
1000
0000
1010
0000
,  // measure 20
0110
0000
0001
0000
0010
0100
0000
1000
0010
0000
0100
0001
0020
0000
0000
0000
,  // measure 21
0130
1000
0100
0000
1100
0000
1001
0000
0001
0100
0010
0100
0001
0000
1000
0000
,  // measure 22
0010
1000
0001
1000
0010
0000
0110
0000
0100
0001
0010
0000
1001
0000
1000
0000
,  // measure 23
1100
0000
0100
0000
0010
0001
0100
0000
0010
1000
0001
1000
0010
0000
1000
0000
,  // measure 24
0100
0010
0001
0010
0100
0000
1100
0000
1000
0001
0010
0001
0100
0000
0000
0000
,  // measure 25
0010
0000
1000
0100
1000
0000
0001
0000
0010
0001
0100
0010
0100
0000
0000
0000
,  // measure 26
0011
0000
0011
0000
1000
0001
1000
0000
0010
1000
0100
1000
0001
0000
0100
0000
,  // measure 27
0001
0000
0010
0000
0001
0100
0010
0000
1000
0010
0100
0000
0110
0000
0000
0000
,  // measure 28
0001
1000
0000
0010
1000
0000
0001
0000
1000
0001
1000
0010
0100
0001
0100
0000
,  // measure 29
1001
0000
0001
0000
0100
0000
0010
0000
1000
0000
0100
0010
0001
1000
0100
1000
,  // measure 30
0010
0010
0100
0110
2001
0000
0000
3001
,  // measure 31
0100
0010
0100
0010
1000
0001
1000
0001
0200
0000
0000
0000
0000
0000
0301
0000
,  // measure 32
0010
0100
1000
0010
0100
0001
1000
0100
,  // measure 33
0010
0000
0001
0100
0001
0100
0010
0000
1000
0010
1000
0010
0100
0001
0100
0001
,  // measure 34
1000
0100
0010
0001
0010
0100
1000
0100
0010
0001
0010
0100
1000
0000
1001
0000
,  // measure 35
0101
0000
0110
0010
1010
1000
0100
0010
,  // measure 36
0001
0000
1000
0001
1000
0000
0100
0000
0010
0001
0010
0001
0100
0010
0100
0010
,  // measure 37
2000
0000
0000
0000
3001
0000
0000
0000
0101
0000
0000
0000
0010
1000
0001
1000
,  // measure 38
0020
0000
0000
0000
0130
0000
0000
0000
0101
0000
0001
0000
0011
0000
0010
0100
,  // measure 39
0010
0000
0000
0000
0100
0000
0000
0000
1100
0000
1000
0000
0001
0000
0010
0001
,  // measure 40
0010
0000
0100
0000
0010
0000
0001
0000
1000
0100
1000
0100
0010
0100
0020
0000
,  // measure 41
0000
0000
0031
0000
1000
0001
0000
1000
0001
0000
0100
0000
0010
1000
0100
1000
,  // measure 42
0001
0000
0010
0000
0001
0000
0100
0000
0010
1000
0010
0000
1000
0000
0001
0010
,  // measure 43
0001
0000
0100
0000
0010
1000
0000
0010
1000
0000
0100
0000
0010
0001
0010
0100
,  // measure 44
0010
0000
0100
0000
1000
0000
0001
0000
1000
0100
0010
0000
0001
0000
1000
0000
,  // measure 45
0010
1000
0010
0000
0100
0001
0010
0000
0100
0000
1100
0000
1000
0000
1001
0000
,  // measure 46
0100
0001
1000
0001
0100
0001
0010
0000
0110
0000
0100
1000
0001
1000
0010
0000
,  // measure 47
1010
1000
1001
0001
0101
0100
0110
0010
,  // measure 48
0010
1000
0010
0000
0100
0001
1000
0000
0100
0010
0100
0000
0001
1000
0010
0000
,  // measure 49
0100
0000
0001
0000
0010
0001
1000
0010
0000
1000
0010
1000
0100
0010
0001
0000
,  // measure 50
0100
0010
1000
0000
0001
1000
0100
0000
0010
0100
1000
0000
0100
1000
0001
0000
,  // measure 51
1000
0000
0001
0100
0001
0000
0010
0000
0001
1000
0100
1000
0010
0000
0100
0000
,  // measure 52
0010
1000
0000
1000
0001
0010
0000
0010
0001
0000
1000
0001
0100
0000
0110
0000
,  // measure 53
0010
1000
0100
0000
1100
0000
1010
0000
0010
0100
0001
0000
0011
0000
0000
0000
,  // measure 54
0010
0100
0010
0100
1000
0000
0001
0000
1000
0001
0100
0000
0110
0000
0010
0000
,  // measure 55
1010
0000
1000
0000
1001
0000
0001
0000
0100
0001
0010
0001
2000
0000
0000
0000
,  // measure 56
3010
1000
0100
0000
0010
0001
0100
0000
0001
0010
0100
1000
0010
0000
1001
0000
,  // measure 57
0100
0000
0010
0000
1000
0001
0100
0000
0010
1000
0100
1000
0001
0000
0011
0000
,  // measure 58
0010
0000
0110
0000
0100
1000
0100
0010
0001
0000
0100
0001
0010
0000
0011
0000
,  // measure 59
0001
1000
0100
0000
1000
0010
0100
0000
0001
0100
0010
0000
0100
0010
1000
0000
,  // measure 60
0001
0010
0001
0000
0011
0000
0101
0000
0100
0010
1000
0100
0010
0001
0100
0000
,  // measure 61
2001
0000
0000
0000
3001
1000
0100
0010
0001
0010
0100
1000
0001
1000
0100
0010
,  // measure 62
0001
0010
0100
1000
0001
1000
0100
0010
0001
0010
0100
1000
0001
0000
0100
0000
,  // measure 63
0020
0000
0000
0000
1030
0001
0010
0100
1000
0100
0010
0001
1000
0001
0010
0100
,  // measure 64
1000
0100
0010
0001
1000
0000
0000
1001
0000
0001
0100
0010
1000
0001
0100
0010
,  // measure 65
1000
0100
0010
0001
0200
0000
0000
0000
0310
0000
0000
0000
1000
0001
0100
0001
,  // measure 66
0010
0001
0100
0001
0010
0001
0100
0000
0001
0010
0100
1000
0001
0010
0100
1000
,  // measure 67
0001
0100
0010
1000
0001
0100
0010
1000
0001
0100
0010
1000
0001
0100
0010
1000
,  // measure 68
0001
0010
0100
0010
0001
1000
0100
1000
0010
0100
0001
0010
0100
0010
0000
0100
,  // measure 69
1000
0000
0001
0000
1000
0000
0010
0000
0100
0001
0010
0001
1000
0100
1000
0010
,  // measure 70
0100
0001
1000
0001
0100
0010
1000
0010
0100
0001
0010
0100
2000
0000
0001
0000
,  // measure 71
3001
0100
0001
0010
0002
0000
2003
0000
3100
0010
0001
0010
0100
1000
0010
0100
,  // measure 72
0001
1000
0100
1000
0010
0100
0001
0100
0010
1000
0100
0010
0002
0000
0000
0000
,  // measure 73
0103
0001
0010
0001
1000
0100
1000
0010
0100
0001
0100
0001
0010
0100
0010
0100
,  // measure 74
1000
0100
0010
0001
0010
0100
1000
0010
0100
0001
0010
0001
1000
0010
1000
0000
,  // measure 75
0001
0100
0000
0100
0001
0000
1000
0000
0010
0100
0000
0100
0010
0000
1000
0000
,  // measure 76
0100
0010
0001
0100
0010
1000
0100
0010
0001
0100
0010
1000
0100
0010
0001
0100
,  // measure 77
MMMM
0000
0000
0000
;
