#TITLE:STERLING SILVER;
#SUBTITLE:;
#ARTIST:TAG;
#TITLETRANSLIT:;
#SUBTITLETRANSLIT:;
#ARTISTTRANSLIT:;
#GENRE:;
#CREDIT:;
#BANNER:STERLING SILVER.png;
#BACKGROUND:STERLING SILVER-bg.png;
#LYRICSPATH:;
#CDTITLE:;
#MUSIC:STERLING SILVER.ogg;
#OFFSET:0.000000;
#SAMPLESTART:90.514000;
#SAMPLELENGTH:15.000000;
#SELECTABLE:YES;
#DISPLAYBPM:175.000000;
#BPMS:0.000000=175.000000
;
#STOPS:
;
#BGCHANGES:;
#KEYSOUNDS:;
#ATTACKS:;

//---------------dance-single - ----------------
#NOTES:
     dance-single:
     :
     Challenge:
     15:
     0.851508,0.958628,0.466331,0.025436,0.563836,703.000000,648.000000,55.000000,3.000000,0.000000,0.000000,0.851508,0.958628,0.466331,0.025436,0.563836,703.000000,648.000000,55.000000,3.000000,0.000000,0.000000:
// measure 0
0000
0000
0000
0000
,  // measure 1
0000
0000
0000
0000
,  // measure 2
0000
0000
0000
0000
,  // measure 3
0000
0000
0000
0000
,  // measure 4
0000
0000
0000
0000
,  // measure 5
1000
0000
0001
0000
0100
0001
0100
0000
0001
0000
0000
1000
0010
0000
0100
0000
,  // measure 6
0010
0000
1000
0000
0001
0010
0001
0000
0100
0000
0000
0100
0010
0000
1000
0000
,  // measure 7
0001
0000
0100
0001
0100
0000
0010
1000
0010
0000
1000
0001
1000
0000
0001
0100
,  // measure 8
0001
0000
0000
1001
0000
0000
1010
0000
0000
0010
0100
0000
0001
0000
0100
0010
,  // measure 9
1000
0000
0000
0000
,  // measure 10
1001
0000
1000
0010
0000
0010
0100
0000
0001
0010
0000
0000
0001
1000
0001
0000
,  // measure 11
1000
0000
0000
1010
0000
0000
0010
0000
0110
0000
0000
0000
0100
0000
0001
0000
,  // measure 12
0011
0000
0010
0100
0000
0100
1000
0000
0001
0000
0010
0000
1000
0000
0100
0000
,  // measure 13
1001
0000
0000
1010
0000
0000
0010
0000
0100
0000
0001
0010
0001
0010
0001
0000
,  // measure 14
1000
0000
0010
0100
0010
0000
0100
0000
0001
1000
0000
0000
1000
0010
1000
0000
,  // measure 15
0001
0100
0001
0100
0001
0000
1000
0000
0010
1000
0000
0000
1001
0000
0011
0000
,  // measure 16
0010
0000
0100
1000
0000
1000
0001
0000
0010
0000
1000
0000
0010
0000
0001
0000
,  // measure 17
0100
0000
0000
0110
0000
0000
1010
0000
0000
1000
0001
0000
0100
0000
0010
1000
,  // measure 18
0001
0001
0100
0100
0010
0010
0000
1000
,  // measure 19
0001
0010
0001
0100
0010
1000
0010
0100
,  // measure 20
0001
0001
1000
1000
0010
0001
0000
0010
,  // measure 21
1000
0001
0010
0100
0010
0100
1000
0000
,  // measure 22
0001
0010
1000
0010
0001
0100
0000
0010
,  // measure 23
1000
0100
0010
0000
0001
1000
0001
0100
,  // measure 24
1000
0010
0001
0010
1000
0100
0001
1000
,  // measure 25
0010
0000
0100
0010
0100
0000
0010
0100
0010
0000
1000
0000
0001
1000
0001
0000
,  // measure 26
0100
0100
0010
0010
1000
1000
0000
0001
,  // measure 27
0100
0010
0100
0000
0001
1000
0010
1000
,  // measure 28
0100
0100
0010
0010
0001
0001
0000
0100
,  // measure 29
0010
1000
0001
0010
0100
0010
0100
1000
,  // measure 30
0001
0001
0010
0010
1000
1000
0000
0010
,  // measure 31
0001
0100
1000
0100
0000
0001
1000
0001
,  // measure 32
0010
0010
0001
0001
0100
0100
0010
1000
,  // measure 33
0001
0000
0100
0001
0100
0000
0001
1000
0001
1000
0001
1000
0001
1000
0001
0000
,  // measure 34
1000
0010
0001
0010
1000
0100
0001
0000
,  // measure 35
0100
1000
0001
0100
0010
0100
0001
0000
,  // measure 36
0010
1000
0100
1000
0010
0001
0100
0000
,  // measure 37
0010
1000
0001
1000
0010
0000
1000
0100
,  // measure 38
0011
1001
1100
0110
,  // measure 39
0010
0001
0100
0010
0100
0001
1000
0000
,  // measure 40
0010
1000
0100
0001
0100
1000
0010
0000
,  // measure 41
0100
0001
0010
1000
0010
0010
0001
0001
,  // measure 42
0100
0000
0000
0000
,  // measure 43
0000
0000
0000
0000
,  // measure 44
1001
0000
1001
0000
0100
0010
0100
0010
,  // measure 45
0001
1000
0001
1000
0001
1000
0001
1000
0001
0000
0000
0000
0000
0000
0000
0000
,  // measure 46
1000
0010
1000
0010
0100
0000
0001
0000
0010
0000
0001
0000
1000
0000
0010
0000
,  // measure 47
0100
0000
0000
0100
0010
0000
1000
0000
0001
0000
0100
0001
0100
0001
0100
0000
,  // measure 48
0001
0010
0001
0000
0010
0100
0010
0000
0100
1000
0100
0000
1000
0001
1000
0000
,  // measure 49
0001
0100
0001
0100
0001
0000
0010
0000
0100
0000
1000
0000
0001
0000
0000
0000
,  // measure 50
1000
0000
0000
1000
0010
0000
0100
0000
0001
0000
0010
0000
1000
0000
0010
0000
,  // measure 51
0001
0000
0000
0000
1000
0000
0001
1000
0001
0000
0100
0010
0100
0010
0100
0000
,  // measure 52
0001
0000
0000
0000
1001
0000
0000
1000
0010
0000
0100
0000
0010
0000
1000
0000
,  // measure 53
0001
0000
0000
0000
0101
0000
0000
0100
0010
0000
1000
0000
0001
0100
0001
0000
,  // measure 54
1000
0010
1000
0000
0001
0000
0001
0000
0101
0000
0000
0000
0100
0010
0100
0000
,  // measure 55
0001
1000
0001
0000
1000
0001
1000
0000
0001
0100
0001
0000
0100
0001
0100
0000
,  // measure 56
0010
0000
0000
0000
0010
1000
0000
0000
1001
0000
1001
0000
1001
0000
0000
0000
,  // measure 57
0001
0010
0001
0000
0010
0100
0010
0000
0100
1000
0100
0000
1000
0001
1000
0000
,  // measure 58
0001
0010
0001
0010
0001
0000
1000
0000
0110
0000
0110
0000
1000
0001
1000
0000
,  // measure 59
0001
0010
0001
0100
0010
0000
1000
0000
0001
0100
0010
0100
0001
0000
0000
0000
,  // measure 60
1000
0000
1000
0001
1000
0000
0010
0000
0100
1000
0001
0000
0100
0000
0000
0000
,  // measure 61
0001
0010
0100
0000
1000
0000
0010
0000
0001
0000
0010
0000
1000
0000
0000
0000
,  // measure 62
0001
0010
0001
0010
0001
0000
0000
0000
0100
0010
0100
0000
0001
0000
0010
0100
,  // measure 63
1000
0000
0001
0000
0100
0010
0100
0000
0001
0010
0001
0000
1000
0000
0000
0000
,  // measure 64
1001
0001
1000
1000
0010
0010
0100
0100
,  // measure 65
0001
1000
0001
1000
0001
1000
0001
1000
0000
0000
0001
0000
0100
0010
0100
0000
,  // measure 66
0002
0000
0000
0000
1003
0000
0010
0100
0010
0000
1000
0000
0001
0000
0000
0000
,  // measure 67
0101
0000
0000
0110
0000
0000
1000
0000
1010
0000
0000
0000
1001
0000
0000
0000
,  // measure 68
0101
0000
0010
0000
1000
0000
0001
1000
0001
0000
0100
0000
0010
0000
1000
0100
,  // measure 69
1000
0000
0000
1001
0000
0000
0101
0000
0100
0000
0010
0000
1000
0010
1000
0010
,  // measure 70
1000
0001
0000
0001
0100
0000
0010
0000
1000
0100
0000
0100
0010
0000
0001
0100
,  // measure 71
0010
0000
0000
1010
0000
0000
1001
0000
0101
0000
0000
0000
0110
0000
0000
0000
,  // measure 72
1010
0000
0100
0000
0010
0000
0001
0100
0001
0000
0100
0000
0010
0000
1000
0001
,  // measure 73
1000
0000
0001
0100
0001
0000
1000
0001
1000
0000
0000
0000
1001
0000
0000
0000
,  // measure 74
0001
0010
0100
0010
0100
0000
1000
0001
1000
0000
0001
0000
0100
0000
0000
0100
,  // measure 75
0010
1000
0010
0100
0001
0000
1001
0000
,  // measure 76
1010
0000
0100
0000
0001
0000
0010
0001
0010
0000
0001
0000
0100
0000
0010
1000
,  // measure 77
0010
0000
0000
1001
0000
0000
0001
0000
0101
0000
0100
0000
0010
1000
0010
1000
,  // measure 78
0010
0000
0100
0000
0001
0000
0010
0100
0010
0000
0100
0000
1000
0000
0001
1000
,  // measure 79
0001
0000
0000
0101
0000
0000
0110
0000
1010
0000
0000
0000
1001
0000
0000
0000
,  // measure 80
0001
0000
0010
0000
1000
0000
0010
0001
1000
0000
0010
0000
0100
0000
0001
1000
,  // measure 81
0001
0000
0100
0010
0100
0000
0010
1000
0010
0000
1000
0001
1000
0001
1000
0000
,  // measure 82
1001
0000
0000
1001
0000
0000
0110
0000
0000
0110
0000
0000
0011
0000
0110
0000
,  // measure 83
1000
0001
1000
0001
1000
0000
2002
0000
0000
0000
0000
0000
3003
0000
0000
0000
;

//---------------dance-single - ----------------
#NOTES:
     dance-single:
     :
     Beginner:
     4:
     0.175631,0.247791,0.008479,0.025436,0.000000,145.000000,144.000000,1.000000,3.000000,0.000000,0.000000,0.175631,0.247791,0.008479,0.025436,0.000000,145.000000,144.000000,1.000000,3.000000,0.000000,0.000000:
0000
0000
0000
0000
,
0000
0000
0000
0000
,
0000
0000
0000
0000
,
0000
0000
0000
0000
,
0000
0000
0000
0000
,
1000
0000
0000
0000
,
0001
0000
0000
0000
,
0100
0000
0001
0000
,
0200
0000
0000
0300
,
0000
0000
0000
0000
,
1000
0000
0001
0000
,
1000
0000
0010
0000
,
0001
0000
1000
0000
,
0001
0000
0001
0000
,
0001
0000
1000
0000
,
0001
0000
0010
0000
,
1000
0000
0001
0000
,
1000
0000
1000
0000
,
0010
0000
0100
0000
,
1000
0000
0000
0000
,
0010
0000
0100
0000
,
0001
0001
0001
0000
,
0010
0000
0100
0000
,
0001
0000
0000
0000
,
0010
0000
0100
0000
,
0010
0010
0010
0000
,
0010
0000
0100
0000
,
0001
0000
0000
0000
,
0010
0000
0100
0000
,
1000
1000
1000
0000
,
0010
0000
0100
0000
,
1000
0000
0000
0000
,
0010
0000
0100
0000
,
0010
0010
0010
0000
,
0001
0000
0000
0000
,
0010
0000
0000
0000
,
1000
0000
0000
0000
,
0100
0000
0000
0000
,
0010
0000
0000
0000
,
1000
0000
0000
0000
,
0100
0000
0000
0000
,
0010
0000
0000
0000
,
2002
0000
0000
3003
,
0000
0000
0000
0000
,
1000
0000
1000
0000
,
0001
0001
0001
0000
,
0001
0000
0000
0000
,
1000
0000
0000
0000
,
1000
0000
1000
0000
,
0001
0000
0001
0000
,
1000
0000
1000
0000
,
0001
0000
0100
0000
,
0001
0000
0001
0000
,
1000
0000
1000
0000
,
0001
0001
0001
0000
,
1000
1000
1000
0000
,
0001
0001
0001
0000
,
1000
1000
1000
0000
,
0001
0000
1000
0000
,
0001
0000
1000
0000
,
1000
0000
0001
0000
,
1000
0000
0001
0000
,
1000
0000
0001
0000
,
0100
0100
0100
0000
,
0010
0000
0000
0000
,
0000
0000
0000
0000
,
1000
0000
0010
0000
,
1000
0000
0010
0000
,
0001
0000
1000
0000
,
0001
0000
0010
0000
,
0001
0000
0010
0000
,
0001
0000
0100
0000
,
0001
0000
1000
0000
,
0001
0000
0000
0000
,
0001
0000
0010
0000
,
0001
0000
0010
0000
,
1000
0000
0001
0000
,
1000
1000
1000
0000
,
1000
0000
0010
0000
,
1000
0000
0010
0000
,
0001
0000
0010
0000
,
1000
1000
1000
0000
,
1000
0000
0001
0000
,
1000
0000
0001
0000
;

//---------------dance-single - ----------------
#NOTES:
     dance-single:
     :
     Easy:
     6:
     0.293122,0.388803,0.050872,0.042394,0.000000,242.000000,236.000000,6.000000,5.000000,0.000000,0.000000,0.293122,0.388803,0.050872,0.042394,0.000000,242.000000,236.000000,6.000000,5.000000,0.000000,0.000000:
0000
0000
0000
0000
,
0000
0000
0000
0000
,
0000
0000
0000
0000
,
0000
0000
0000
0000
,
0000
0000
0000
0000
,
1000
0000
0000
0000
,
0001
0000
0000
0000
,
0110
0000
1001
0000
,
0220
0000
0000
0000
,
0000
0000
0000
0330
,
1000
0000
0001
0000
,
1000
0001
0010
0000
,
0001
0000
1000
0000
,
0001
0010
1000
0010
,
0001
0001
1000
1000
,
0001
1000
0010
0000
,
1000
1000
0001
0001
,
1000
0010
1000
0000
,
0010
0000
0100
0000
,
0001
0100
1000
0000
,
0100
0000
0010
0000
,
0001
0010
1000
0010
,
0010
0000
0100
0000
,
0001
0100
1000
0000
,
0100
0000
0010
0000
,
0010
0100
0010
0000
,
0010
0010
0100
0100
,
0001
0100
1000
0000
,
0100
0100
0010
0010
,
1000
0010
0001
0010
,
0010
0010
0100
0100
,
1000
0100
0001
0000
,
0010
0000
0100
0000
,
1000
0100
0001
0100
,
1000
0000
0100
0000
,
0010
0000
0100
0000
,
1000
0000
0010
0000
,
0100
0000
0001
0000
,
0010
0010
0100
0100
,
1000
1000
0010
0010
,
0100
0000
0001
0000
,
0010
0000
0100
0000
,
2002
0000
0000
0000
,
0000
0000
0000
3003
,
1000
0001
1000
0001
,
0001
1000
0001
0000
,
0001
0010
0001
0010
,
1000
0000
0010
0010
,
0001
0100
1000
0100
,
0001
0010
0100
1000
,
1000
0010
1000
0010
,
0001
0000
0010
0100
,
0001
0100
0001
0100
,
1000
0100
1000
0100
,
0001
0100
0001
0000
,
1000
0100
1000
0000
,
0001
0100
0001
0000
,
1000
0100
1000
0000
,
0001
0001
1000
1000
,
1000
0100
0010
0100
,
1000
0000
0001
0000
,
1000
0000
0001
0000
,
1000
1000
0001
0001
,
0001
0010
0100
1000
,
0020
0000
0000
0000
,
0000
0000
0100
0130
,
1000
0100
0010
0001
,
1000
0100
0010
0000
,
0001
0001
1000
1000
,
0001
0100
0010
0000
,
1000
0100
0010
0100
,
1000
0100
0010
0000
,
0001
0001
1000
1000
,
0001
0100
0110
0110
,
0001
0100
0010
1000
,
0001
0100
0010
0000
,
1000
1000
0001
0001
,
1000
0100
0010
0000
,
0001
0100
0010
0100
,
0001
0100
0010
0000
,
1000
1000
0001
0001
,
1000
0100
0001
0100
,
1000
1000
1000
0001
,
1000
0000
0000
0001
0000
0000
0000
0000
;

//---------------dance-single - ----------------
#NOTES:
     dance-single:
     :
     Medium:
     10:
     0.432416,0.539725,0.161096,0.186532,0.012718,357.000000,338.000000,19.000000,22.000000,0.000000,0.000000,0.432416,0.539725,0.161096,0.186532,0.012718,357.000000,338.000000,19.000000,22.000000,0.000000,0.000000:
0000
0000
0000
0000
,
0000
0000
0000
0000
,
0000
0000
0000
0000
,
0000
0000
0000
0000
,
0000
0000
0000
0000
,
1000
0000
0000
0000
0010
0100
0010
0000
,
0100
0000
0000
0000
0100
0001
0100
0000
,
1100
0000
0011
0000
,
1000
0000
0001
0000
1000
0001
0000
0200
,
0000
0000
0000
0300
,
1000
0000
0101
0000
,
1000
0000
0001
0000
1000
0001
0100
0000
,
0001
0000
0000
0000
1000
0100
1000
0100
,
1000
0000
0001
0000
1000
0000
0001
0010
,
0001
1000
0001
0000
1001
0000
1000
0000
,
0100
0010
0100
0000
0110
0000
0010
0000
,
0100
0100
0010
0010
,
0001
0000
0000
1000
0000
0000
0001
0000
0000
0000
1000
0000
0000
0000
0000
0000
,
1000
0001
0010
0001
,
1000
0100
0000
0000
1000
0000
0100
0000
,
1000
1000
0010
1000
,
0001
0100
0001
0100
0001
1000
0100
0000
,
1000
1000
0010
1000
,
0001
0100
0000
0000
0001
0000
0100
0000
,
0001
0001
0010
0001
,
1000
0100
1000
0100
1000
0100
1000
0000
,
0001
1000
0010
1000
,
0001
0100
0000
0000
0001
0000
0100
0000
,
0001
0001
0010
0001
,
1000
0100
1000
0100
1000
0001
0100
0000
,
0001
0001
0010
0001
,
1000
0100
0000
0000
1000
0000
0100
0000
,
1000
1000
0010
1000
,
0001
0100
0001
0100
0001
0100
0001
0000
,
2000
0000
0200
3000
,
0020
0000
0300
0000
,
0032
0000
0200
0003
,
0301
1000
0100
0000
,
2000
3100
0002
0013
,
0200
0310
0002
0013
,
0200
0310
2000
3100
,
1000
0000
0001
0000
0100
0010
0100
0010
,
0220
0000
0000
0000
,
0000
0000
0330
0000
,
1000
0001
1000
0001
,
1000
0100
0010
0001
0010
0000
0000
0000
,
0001
0010
0001
0000
1000
0000
0100
0000
,
1000
0000
0001
0100
0001
0000
1000
0000
,
1000
0110
0001
1100
,
1000
0000
0001
0000
1000
0001
0100
0000
,
0001
0000
0010
0100
0010
0000
0001
0000
,
1000
0000
0000
0100
0010
0100
0010
0100
,
0010
0000
0100
0000
1000
0010
1000
0000
,
0011
1100
0110
0000
,
0001
0000
0010
0001
0010
0000
0100
0000
,
1000
0100
1000
0000
0100
0000
0001
0000
,
0001
0000
0100
0000
1000
0100
1000
0000
,
0001
0100
0001
0000
0200
0000
0301
0000
,
0100
0010
0100
0000
0010
0100
0010
0000
,
1000
0100
1000
0000
0001
1000
0001
0000
,
1000
0100
0010
0000
0100
0000
1000
0000
,
1000
0100
0001
0000
0100
0000
1000
0000
,
0001
0010
0001
0010
,
0001
0010
0001
0000
1000
0000
0100
0000
,
2002
0000
0000
0000
,
0000
0000
3003
0110
,
1000
0101
1000
0001
,
1000
0000
0001
0010
0001
0000
0100
0000
,
0001
0001
1000
1000
,
0001
0000
0010
0001
0200
0000
0310
0000
,
0010
0100
0010
0000
0100
0000
0001
0000
,
1000
0100
0010
0000
0100
0000
1000
0000
,
0001
0010
0001
0010
,
0001
0010
0001
0000
1000
0000
0100
0000
,
1000
0001
1000
0001
0200
0000
0310
0000
,
1000
0001
0100
0110
,
1000
0101
0001
1100
,
1000
0000
0001
0010
0001
0000
0100
0000
,
0001
0001
1000
1000
,
0001
0000
0010
0001
0200
0000
0310
0000
,
1000
0100
1000
0100
0010
0001
0010
0001
,
1000
0110
0001
0110
,
1000
0000
0000
0001
0000
0000
1000
0000
0000
0001
0000
0000
0100
0000
0001
0000
,
2000
0000
0000
3020
0000
0000
0000
0000
,
0000
0000
0000
0000
0000
0000
0000
0030
;

//---------------dance-single - ----------------
#NOTES:
     dance-single:
     :
     Hard:
     13:
     0.618948,0.647670,0.211969,0.076309,0.169575,511.000000,486.000000,25.000000,9.000000,0.000000,0.000000,0.618948,0.647670,0.211969,0.076309,0.169575,511.000000,486.000000,25.000000,9.000000,0.000000,0.000000:
// measure 0
0000
0000
0000
0000
,  // measure 1
0000
0000
0000
0000
,  // measure 2
0000
0000
0000
0000
,  // measure 3
0000
0000
0000
0000
,  // measure 4
0000
0000
0000
0000
,  // measure 5
1000
0000
0001
0000
1000
0000
0010
0000
0100
0000
0000
0100
0000
0000
0000
0000
,  // measure 6
0001
0000
1000
0000
0001
0000
1000
0000
0100
0000
0000
0001
0000
0000
0000
0000
,  // measure 7
0100
0000
0010
0000
0001
0000
0100
0000
0010
0000
0100
0010
0000
0000
0000
0000
,  // measure 8
1010
0000
0000
0101
0000
0000
1001
0000
0000
0010
0000
0000
0001
0000
0100
0000
,  // measure 9
2000
0000
0000
3000
,  // measure 10
0110
0000
1010
0000
,  // measure 11
1000
0000
0000
0001
0000
0000
0010
0000
0001
0000
0000
0000
0000
0000
0000
0000
,  // measure 12
1000
0000
0000
0000
0001
0010
0100
0010
,  // measure 13
0001
0000
0000
0010
0000
0000
0100
0000
1000
0000
0001
0000
0010
0000
0000
0000
,  // measure 14
0001
0000
1000
0100
1000
0000
0000
0000
0001
0000
0000
0000
0100
0000
0000
0000
,  // measure 15
0001
1000
0001
0000
0100
0000
0000
0000
0001
0000
0000
0000
0010
0000
0000
0000
,  // measure 16
0001
0010
0100
1000
0100
0010
0001
0010
,  // measure 17
0100
0000
0000
0110
0000
0000
1100
0000
0000
1000
0100
0000
1000
0000
0001
0000
,  // measure 18
1000
0100
0001
0100
0010
0100
0000
0010
,  // measure 19
0001
0100
0001
0010
0100
1000
0100
1000
,  // measure 20
0001
0010
1000
0010
0100
0010
0000
0100
,  // measure 21
1000
0010
1000
0100
0010
0001
0010
0000
,  // measure 22
0001
0100
1000
0100
0010
0100
0000
0010
,  // measure 23
1000
0100
1000
0010
0100
0001
0100
0001
,  // measure 24
1000
0010
0001
0010
0100
0010
0000
0100
,  // measure 25
0001
0100
0000
0000
0100
0010
0000
0000
0010
0000
0100
0010
0100
0000
0000
0000
,  // measure 26
0001
0100
1000
0100
0001
0100
0000
0010
,  // measure 27
1000
0100
1000
0010
0001
0010
0100
0001
,  // measure 28
1000
0010
0001
0010
1000
0010
0000
0100
,  // measure 29
0001
0010
0001
0100
0010
1000
0010
0000
,  // measure 30
1000
0100
0001
0100
1000
0100
0000
0010
,  // measure 31
0001
0100
1000
0100
0001
1000
0100
1000
,  // measure 32
0001
0010
1000
0010
0001
0100
0000
0100
,  // measure 33
0001
0100
0000
0000
0010
1000
0000
0000
0010
0000
0100
0010
0100
0000
0000
0000
,  // measure 34
0001
0100
0010
0000
1000
0000
0001
0000
,  // measure 35
0200
0000
1300
0000
0002
0000
0100
0003
,  // measure 36
0100
0010
0100
0001
,  // measure 37
1000
0001
0100
0000
,  // measure 38
0001
0010
1000
0000
0010
0000
0001
0000
,  // measure 39
0100
1000
0100
0000
0010
0000
1000
0000
,  // measure 40
0001
1000
0001
0010
,  // measure 41
0001
0000
1000
0000
0001
0100
0010
1000
,  // measure 42
0220
0000
0000
0330
,  // measure 43
0000
0000
1000
0100
0010
0001
0010
0000
,  // measure 44
0110
1100
0110
1001
,  // measure 45
1000
0100
0001
0100
0010
0000
0000
0000
,  // measure 46
0011
0000
1000
0100
1000
0001
0010
0001
,  // measure 47
0010
0000
0000
0010
0100
0000
0000
0000
0100
0000
1000
0000
0100
0000
0000
0000
,  // measure 48
1000
0100
1000
0000
0100
0000
0010
0000
0001
0000
0100
0000
0010
0000
0100
0000
,  // measure 49
0001
0010
0001
0000
0100
0000
1000
0000
0100
0000
0010
0000
0100
0000
0000
0000
,  // measure 50
0001
0000
0000
1000
0001
0000
0100
0000
0001
0000
1000
0000
0010
0000
1000
0000
,  // measure 51
0010
0000
0000
0000
0000
0000
0100
0000
0010
0000
1000
0000
0001
1000
0001
0000
,  // measure 52
1000
0000
0000
0000
0001
0000
0000
0010
0100
0000
0010
0000
0100
0000
1000
0000
,  // measure 53
0001
0000
0000
0000
0001
0000
0000
1000
0100
0000
0000
0000
0010
0000
0100
0000
,  // measure 54
1000
0100
1000
0000
0100
0000
1000
0000
0100
0000
0000
0000
0001
0000
0000
0000
,  // measure 55
0100
0010
0100
0000
0010
0000
0100
0000
0010
0000
0000
0000
0100
0000
0000
0000
,  // measure 56
1000
0100
1000
0000
0100
0000
0001
0000
0100
0000
0000
0000
1000
0000
0000
0000
,  // measure 57
0001
0010
0001
0000
0010
0000
0001
0000
0010
0000
0000
0000
0100
0000
0000
0000
,  // measure 58
1000
0000
0001
0010
0001
0000
0000
0000
0001
0000
1000
0100
1000
0000
0000
0000
,  // measure 59
1000
0000
0001
0010
0001
0000
0000
0000
0001
0000
1000
0100
1000
0000
0000
0000
,  // measure 60
0001
1000
0100
0010
0100
0001
0100
0000
,  // measure 61
1000
0001
0100
0010
0100
1000
0100
0000
,  // measure 62
0010
0000
0100
0010
0100
0000
0000
0000
0001
0000
1000
0100
1000
0000
0000
0000
,  // measure 63
0001
0100
0010
0100
0001
0100
0010
0000
,  // measure 64
2002
0000
0000
0000
,  // measure 65
0000
0000
0000
3003
0000
0000
0110
0000
,  // measure 66
1000
0100
0010
0001
0010
0001
0100
0010
,  // measure 67
1000
0100
0010
0001
0100
0000
1000
0000
,  // measure 68
0100
0000
0001
0010
1000
0000
0010
0001
,  // measure 69
1000
0000
0000
0001
0000
0000
0100
0000
0010
0000
0000
0000
0100
0000
0000
0000
,  // measure 70
0001
0100
0010
1000
0010
1000
0100
0010
,  // measure 71
0001
0100
0010
1000
0100
0000
0001
0000
,  // measure 72
0100
0000
1000
0010
0001
0000
0010
1000
,  // measure 73
0001
0010
0001
0100
0010
0000
0100
0000
,  // measure 74
0001
0100
0001
0100
0010
0000
1000
0000
0010
0000
1000
0000
0100
0000
0010
0000
,  // measure 75
0001
0100
0010
1000
0001
0000
0100
0000
,  // measure 76
1000
0100
0001
0000
0001
1000
0100
1000
,  // measure 77
0100
0000
0000
0000
0101
0000
0000
0000
1001
0000
0000
0000
1000
0100
1000
0000
,  // measure 78
0001
0100
0010
1000
0010
1000
0100
0010
,  // measure 79
0001
0100
1000
0100
0001
0000
0010
0000
,  // measure 80
1000
0010
0001
0010
0001
0100
1000
0100
,  // measure 81
1100
0110
0011
0100
,  // measure 82
1010
0000
0000
0011
0000
0000
1010
0000
0000
0110
0000
0000
0100
0000
0010
0000
,  // measure 83
0001
0000
0000
0220
0000
0000
0000
0000
,  // measure 84
0000
0000
0000
0000
0000
0000
0000
0330
;

//---------------dance-double - ----------------
#NOTES:
     dance-double:
     :
     Easy:
     6:
     0.279799,0.388803,0.059351,0.042394,0.000000,231.000000,224.000000,7.000000,5.000000,0.000000,0.000000,0.279799,0.388803,0.059351,0.042394,0.000000,231.000000,224.000000,7.000000,5.000000,0.000000,0.000000:
00000000
00000000
00000000
00000000
,
00000000
00000000
00000000
00000000
,
00000000
00000000
00000000
00000000
,
00000000
00000000
00000000
00000000
,
00000000
00000000
00000000
00000000
,
00001000
00000000
00000000
00000000
,
00010000
00000000
00000000
00000000
,
01100000
00000000
00011000
00000000
,
00022000
00000000
00000000
00000000
,
00000000
00000000
00000000
00033000
,
00001000
00000000
00000100
00000000
,
00000001
00000010
00001000
00000000
,
00010000
00000000
01000000
00000000
,
10000000
00100000
00010000
00001000
,
00000100
00000000
00000001
00000001
,
00000100
00000000
00001000
00001000
,
00010000
00100000
00100000
01000000
,
01000000
00001000
00011000
00000000
,
00000100
00000100
00000001
00000000
,
00000010
00001000
00010000
00000000
,
00100000
00000000
01000000
00000000
,
10000000
01000000
00100000
00000000
,
00010000
00000000
00010000
00000000
,
00001000
00000100
00000001
00000000
,
00000001
00000000
00000100
00000000
,
00001000
00010000
00001000
00010000
,
01000000
01000000
10000000
10000000
,
00100000
00010000
00001000
00000000
,
00000010
00000010
00000100
00000100
,
00001000
00000100
00000010
00001000
,
00010000
00000000
00001000
00000000
,
00010000
01000000
10000000
00000000
,
10000000
01000000
00010000
01000000
,
10000000
01000000
00010000
00001000
,
00010000
00000000
00001000
00000000
,
00000100
00000000
00000001
00000000
,
00000010
00000000
00001000
00000000
,
00010000
00000000
01000000
00000000
,
10000000
10000000
01000000
00000000
,
00010000
00010000
00001000
00000000
,
00000100
00000100
00000001
00000000
,
00000001
00000000
00000100
00000000
,
00022000
00000000
00000000
00000000
,
00000000
00000000
00000000
00033000
,
00001000
00010000
00001000
00010000
,
00010000
00001000
00010000
00000000
,
00010000
00100000
10000000
00000000
,
10000000
00000000
01000000
01000000
,
10000000
01000000
00010000
00001000
,
00010000
00000000
00001000
00000000
,
00000010
00000001
00000001
00000000
,
00001000
00000000
00010000
00000000
,
10000000
01000000
10000000
01000000
,
10000000
01000000
10000000
00000000
,
10000000
01000000
00010000
01000000
,
00010000
00001000
00010000
00000000
,
00001000
00000100
00000001
00000010
,
00000001
00000100
00001000
00000000
,
00010000
00001000
00010000
00000000
,
00010000
01000000
10000000
01000000
,
01000000
00000000
01000000
00000000
,
00010000
00000000
00001000
00000000
,
00000010
00000010
00000001
00000001
,
00000001
00000010
00000100
00010000
,
00002000
00000000
00000000
00000000
,
00000000
00000000
00100000
00003000
,
00010000
01000000
00100000
00000000
,
10000000
01000000
00010000
00000000
,
00001000
00001000
00000100
00000100
,
00000001
00000100
00000010
00000000
,
00001000
00000001
00000010
00000000
,
00001000
00010000
01000000
00000000
,
10000000
00100000
00010000
00100000
,
10000000
01000000
00010000
00001000
,
00011000
00000110
00000001
00000000
,
00000001
00000100
00001000
00000000
,
00010000
00010000
01000000
01000000
,
10000000
01000000
00100000
00000000
,
00010000
10000000
00100000
00000000
,
00010000
00001000
00000100
00000000
,
00000001
00000010
00001000
00000010
,
00000001
00000100
00001000
00010000
,
00001000
00000000
00001000
00010000
,
01000000
00000000
00000000
10000000
00000000
00000000
00000000
00000000
;

//---------------dance-double - ----------------
#NOTES:
     dance-double:
     :
     Medium:
     10:
     0.428782,0.467073,0.084787,0.135660,0.008479,354.000000,344.000000,10.000000,16.000000,0.000000,0.000000,0.428782,0.467073,0.084787,0.135660,0.008479,354.000000,344.000000,10.000000,16.000000,0.000000,0.000000:
00000000
00000000
00000000
00000000
,
00000000
00000000
00000000
00000000
,
00000000
00000000
00000000
00000000
,
00000000
00000000
00000000
00000000
,
00000000
00000000
00000000
00000000
,
10000000
00000000
01000000
00000000
00100000
01000000
00010000
00000000
,
00001000
00000000
00000100
00000000
00000001
00000010
00000001
00000000
,
00000100
00000100
00011000
00011000
,
00001000
00000000
00010000
00000000
00100000
00000000
10000000
02000000
,
00000000
00000000
00000000
03000000
,
10000000
00000000
01010000
00000000
,
01000000
00000000
00001000
00000000
00010000
00001000
00000100
00000000
,
00000001
00000000
00000000
00000000
00000001
00000010
00000001
00000010
,
00001000
00000000
00010000
00000000
00100000
00000000
10000000
00100000
,
10000000
01000000
00010000
00000000
00001000
00000000
00010000
00000000
,
00001000
00000100
00000010
00000000
00000100
00000000
00000010
00000000
,
00001000
00000100
00001000
00000000
00000001
00000000
00000001
00000000
,
00000001
00000000
00000100
00000000
00001000
00010000
00001000
00000000
,
00001000
00010000
00100000
00000000
01000000
00000000
00100000
00000000
,
10000000
01000000
10000000
00000000
01000000
00000000
00010000
00000000
,
00001000
00000100
00000010
00000000
00001000
00000000
00000100
00000000
,
00010000
00001000
00010000
00001000
00010000
00001000
00000100
00000000
,
00000001
00000100
00000001
00000000
00001000
00000000
00001000
00000000
,
00000001
00000100
00000001
00000000
00000100
00000000
00001000
00000000
,
00010000
00100000
01000000
00010000
,
10000000
00010000
10000000
00010000
10000000
01000000
00010000
00000000
,
00000010
00001000
00000100
00000000
00000010
00000000
00000010
00000000
,
00000001
00000100
00000001
00000000
00000100
00000000
00001000
00000000
,
00010000
01000000
00100000
00000000
00010000
00000000
01000000
00000000
,
00001000
00010000
00001000
00010000
00001000
00010000
01000000
00000000
,
10000000
01000000
10000000
00000000
00010000
00000000
00010000
00000000
,
10000000
01000000
10000000
00000000
01000000
00000000
00010000
00000000
,
00001000
00000010
00000100
00010000
,
00010000
00001000
00010000
00001000
00010000
00001000
00000100
00000000
,
00002000
00000000
00000200
00003000
,
00000002
00000000
00000300
00000000
,
00000023
00000000
00002000
00000030
,
00013000
00100000
10000000
00000000
,
20000000
31000000
00020000
00031000
,
00002000
00003100
00000002
00000013
,
00000001
00000100
00001000
00010000
,
01000000
00000000
10000000
00000000
01000000
00100000
01000000
00100000
,
02200000
00000000
00000000
00000000
,
00000000
00000000
03300000
00000000
,
10000000
01000000
00010000
00001000
,
00010000
00001000
00000100
00000010
00000100
00000000
00000000
00000000
,
00000001
00000010
00000001
00000000
00000010
00000000
00001000
00000000
,
00000010
00000000
00000001
00000100
00001000
00000000
00010000
00000000
,
00100000
01100000
00010000
00011000
,
00001000
00000000
00010000
00000000
00001000
00010000
00000100
00000000
,
00000010
00000100
00001000
00000100
,
00010000
00000000
00001000
00000000
00100000
01000000
00100000
01000000
,
00100000
00010000
01000000
00001000
,
00010000
00001000
00000110
00000000
,
00000001
00000000
00000010
00000100
00000010
00000000
00000000
00000000
,
00001000
00001000
00010000
00100000
,
10000000
00000000
00100000
00000000
10000000
00100000
10000000
00000000
,
10000000
01000000
00100000
00000000
00001000
00000000
00000000
00000000
,
00001000
00000000
00001000
00000000
00010000
00000100
00010000
00000000
,
00001000
00000000
00001000
00000000
00010000
00100000
01000000
00000000
,
00010000
01000000
00010000
00000000
10000000
00000000
01000000
00000000
,
00010000
00001000
00010000
00000000
00000100
00000000
00000010
00000000
,
00000001
00000100
00001000
00010000
,
01000000
00100000
01000000
00000000
10000000
00000000
01000000
00000000
,
20020000
00000000
00000000
00000000
,
00000000
00000000
30030000
01100000
,
10000000
01000000
00010000
00001000
,
00000100
00000000
00000001
00000010
00000001
00000000
00000100
00000000
,
00001000
00000100
00000001
00000010
,
00001000
00000000
00010000
00100000
01000000
00000000
10010000
00000000
,
10000000
01000000
00100000
01000000
,
10000000
01000000
00100000
00000000
01000000
00000000
00010000
00000000
,
00001000
00000100
00000001
00000010
,
00000001
00000010
00000001
00000000
00000100
00000000
00000001
00000000
,
00000001
00000010
00000001
00000010
00001000
00000000
00010000
00000000
,
01000000
00000000
10000000
00100000
10000000
00000000
01000000
00000000
,
10000000
10000000
01000000
01000000
,
00010000
00000000
00000010
00001000
00000200
00000000
00000300
00000000
,
00000010
00000100
00000010
00000000
00000100
00000000
00001000
00000000
,
00000001
00000100
00000010
00000000
00000100
00000000
00001000
00000000
,
00010000
01000000
10000000
00100000
,
10000000
00100000
10000000
00000000
01000000
00000000
00010000
00000000
,
00010000
00000000
00000000
00001000
00000000
00000000
00010000
00000000
00000000
00001000
00000000
00000000
00000100
00000000
00000001
00000000
,
00000100
00000000
00000000
00000020
00000000
00000000
00000000
00000000
,
00000000
00000000
00000000
00000030
;

//---------------dance-double - ----------------
#NOTES:
     dance-double:
     :
     Hard:
     13:
     0.600780,0.646716,0.169575,0.169575,0.127181,496.000000,476.000000,20.000000,20.000000,0.000000,0.000000,0.600780,0.646716,0.169575,0.169575,0.127181,496.000000,476.000000,20.000000,20.000000,0.000000,0.000000:
00000000
00000000
00000000
00000000
,
00000000
00000000
00000000
00000000
,
00000000
00000000
00000000
00000000
,
00000000
00000000
00000000
00000000
,
00000000
00000000
00000000
00000000
,
00001000
00000000
00000001
00000000
00001000
00000000
00000010
00000000
00000100
00000000
00000000
00001000
00000000
00000000
00000000
00000000
,
00010000
00000000
00001000
00000000
00010000
00000000
00100000
00000000
01000000
00000000
00000000
00010000
00000000
00000000
00000000
00000000
,
10000000
00000000
00100000
00000000
00010000
00000000
00001000
00000000
00000100
00000000
00000010
00000100
00000000
00000000
00000000
00000000
,
00000101
00000000
00000000
00001100
00000000
00000000
00011000
00000000
00000000
00100000
00000000
00000000
00010000
00000000
01000000
00000000
,
20000000
00000000
00000000
30000000
,
01100000
00000000
10100000
00000000
,
10000000
00000000
00000000
00010000
00000000
00000000
00100000
00000000
01000000
00000000
00000000
00000000
00000000
00000000
00000000
00000000
,
00010000
00000000
00000000
00000000
00001000
00000010
00000100
00000010
,
00000001
00000000
00000000
00000010
00000000
00000000
00000100
00000000
00000001
00000000
00000100
00000000
00000010
00000000
00001000
00000000
,
00010000
00000000
00001000
00010000
00001000
00000000
00000000
00000000
00010000
00000000
00000000
00000000
01000000
00000000
00000000
00000000
,
10000000
01000000
10000000
00000000
00010000
00000000
00000000
00000000
10000000
00000000
00000000
00000000
00100000
00000000
00000000
00000000
,
00010000
00100000
01000000
10000000
01000000
00100000
00010000
00001000
,
00000100
00000000
00000000
00000110
00000000
00000000
00000101
00000000
00000000
00000001
00000100
00000000
00000001
00000000
00001000
00000000
,
00000001
00000100
00001000
00010000
00001000
01000000
00000000
00100000
,
10000000
00100000
01000000
00001000
00010000
00001000
00000100
00000000
,
00000001
00000010
00000001
00000010
00000100
00000010
00000000
00000100
,
00001000
00000010
00000100
00001000
00010000
00100000
01000000
00000000
,
00010000
01000000
10000000
01000000
00100000
00010000
00000000
00001000
,
00000010
00000100
00001000
00000010
00000100
00000001
00000100
00000010
,
00001000
00000100
00010000
00001000
00010000
00100000
00000000
01000000
,
00010000
01000000
00000000
00000000
01000000
10000000
00000000
00000000
10000000
00000000
01000000
00000000
10000000
00000000
00100000
00000000
,
10000000
01000000
00010000
00001000
00010000
00000100
00000000
00000010
,
00000001
00000010
00000100
00010000
00001000
00010000
01000000
00000000
,
10000000
00100000
10000000
00100000
01000000
00100000
00000000
01000000
,
00010000
00100000
01000000
00010000
00001000
00000010
00000100
00000000
,
00001000
00000100
00000001
00000100
00000010
00001000
00000000
00010000
,
00100000
01000000
00010000
00100000
01000000
10000000
01000000
00100000
,
00010000
01000000
00001000
00010000
00001000
00000010
00000000
00000100
,
00001000
00000100
00000000
00000000
00000100
00000001
00000000
00000000
00000001
00000000
00000100
00000000
00001000
00000000
00000000
00000000
,
00010000
01000000
00200000
00000000
20300000
00000000
30200000
00000000
,
02300000
23000000
32000000
03200000
,
00320000
00032000
00003200
00000320
,
00000032
00000013
00002000
00000000
,
00003001
00000010
00001000
00000000
00000010
00000000
00000001
00000000
,
00000100
00001000
00010000
00000000
00100000
00000000
10000000
00000000
,
01000000
00010000
01000000
10000000
,
00100000
00000000
00010000
00000000
00010000
00001000
00000100
00000010
,
00000220
00000000
00000000
00000330
,
00000000
00000000
00000001
00000100
00000010
00001000
00000100
00000000
,
00011000
00110000
01100000
10010000
,
10000000
01000000
00010000
01000000
00100000
00000000
00000000
00000000
,
00011000
00000000
00001000
00000100
00000010
00000100
00000010
00000001
,
00000010
00000000
00000000
00001000
00000100
00000000
00000000
00000000
00010000
00000000
00001000
00000000
00100000
00000000
00000000
00000000
,
00010000
01000000
00010000
00000000
01000000
00000000
00100000
00000000
10000000
00000000
01000000
00000000
00100000
00000000
01000000
00000000
,
10000000
01000000
10000000
00000000
01000000
00000000
10000000
00000000
01000000
00000000
00010000
00000000
00001000
00000000
00000000
00000000
,
00010000
00000000
00000000
00001000
00010000
00000000
00000100
00000000
00001000
00000000
00000100
00000000
00000010
00000000
00000001
00000000
,
00000010
00000000
00000000
00000000
00000001
00000000
00000100
00000000
00000010
00000000
00001000
00000000
00000001
00001000
00000001
00000000
,
00001000
00000000
00000000
00000000
00000100
00000000
00000000
00010000
00001000
00000000
00010000
00000000
00001000
00000000
00010000
00000000
,
00100000
00000000
00000000
00000000
00100000
00000000
00000000
10000000
01000000
00000000
00000000
00000000
00100000
00000000
01000000
00000000
,
10000000
01000000
00010000
00001000
00010000
00000000
00000100
00000000
,
00000010
00000100
00000010
00001000
00000100
00000000
00000001
00000000
,
00000100
00000010
00001000
00010000
01000000
00000000
10000000
00000000
,
00010000
01000000
00100000
10000000
00100000
00000000
00010000
00000000
,
00001000
00000100
00000010
00000001
00000010
00000000
00000100
00000000
,
00001000
00010000
00100000
01000000
10000000
00000000
01000000
00000000
,
00010000
10000000
01000000
00100000
01000000
00010000
00001000
00000000
,
00000100
00000001
00000100
00000010
00000100
00001000
00000100
00000000
,
00000010
00000000
00000100
00000010
00000100
00000000
00000000
00000000
00001000
00000000
00010000
00001000
00010000
00000000
00000000
00000000
,
00010000
00100000
10000000
01000000
00010000
01000000
00100000
00000000
,
20020000
00000000
00000000
00000000
,
00000000
00000000
00000000
30030000
00000000
00000000
01100000
00000000
,
10000000
01000000
00100000
00001000
00010000
00001000
00000100
00000010
,
00001000
00000100
00000010
00000001
00000100
00000000
00001000
00000000
,
00000100
00000000
00000001
00000100
00001000
00000000
00010000
00100000
,
10000000
00000000
00000000
00010000
00000000
00000000
01000000
00000000
00100000
00000000
00000000
00000000
10000000
00000000
00000000
00000000
,
00100000
01000000
00100000
00010000
00100000
00010000
00001000
00010000
,
00000100
00000010
00000001
00000010
00000100
00000000
00000001
00000000
,
00000100
00000000
00000010
00001000
00010000
00000000
00100000
10000000
,
00010000
00100000
00010000
01000000
00100000
00000000
00010000
00000000
,
00010000
00001000
00010000
00001000
00010000
00000000
00000100
00000000
00001000
00000000
00000100
00000000
00000010
00000000
00000000
00000000
,
00001000
00010000
00100000
10000000
01000000
00000000
00010000
00000000
,
01000000
00000000
10000000
01000000
00010000
00000000
00001000
00000010
,
00000001
00000000
00000000
00001000
00000000
00000000
00000100
00000000
00000010
00000000
00000000
00000000
00000001
00000000
00000000
00000000
,
00000010
00000100
00000010
00001000
00000010
00001000
00010000
00001000
,
01000000
00100000
10000000
00100000
01000000
00000000
10000000
00000000
,
01000000
00100000
00010000
00001000
00000100
00000010
00000001
00000010
,
00000100
00001000
00010000
00001000
01000000
00000000
00010000
00000000
,
10100000
00000000
00000000
00110000
00000000
00000000
00011000
00000000
00000000
00000110
00000000
00000000
00000100
00000000
00000010
00000000
,
00000001
00000000
00000000
00000220
00000000
00000000
00000000
00000000
,
00000000
00000000
00000000
00000330
;
