#TITLE:STERLING SILVER (U1 overground mix);
#SUBTITLE:;
#ARTIST:TAG;
#TITLETRANSLIT:;
#SUBTITLETRANSLIT:;
#ARTISTTRANSLIT:;
#GENRE:;
#CREDIT:;
#BANNER:STERLING SILVER (U1 overground mix).png;
#BACKGROUND:STERLING SILVER (U1 overground mix)-bg.png;
#LYRICSPATH:;
#CDTITLE:;
#MUSIC:STERLING SILVER (U1 overground mix).ogg;
#OFFSET:0.000000;
#SAMPLESTART:83.824020;
#SAMPLELENGTH:15.000000;
#SELECTABLE:YES;
#DISPLAYBPM:185.000000;
#BPMS:0.000000=185.000000
;
#STOPS:123.937500=1.297000,
183.937500=1.297000
;
#BGCHANGES:;
#KEYSOUNDS:;
#ATTACKS:;

//---------------dance-single - ----------------
#NOTES:
     dance-single:
     :
     Beginner:
     4:
     0.144205,0.185254,0.055060,0.018353,0.000000,102.000000,6.000000,2.000000,0.000000,0.000000,0.000000,0.144205,0.185254,0.055060,0.018353,0.000000,102.000000,6.000000,2.000000,0.000000,0.000000,0.000000:
0000
0000
0000
0000
,
0000
0000
0000
0000
,
0000
0000
0000
0000
,
0000
0000
0000
0000
,
0000
0000
0000
0000
,
0010
0000
0100
0000
,
1000
0000
0010
0000
,
1000
0000
0000
0000
,
0001
0000
0000
0000
,
0010
0000
0000
0000
,
0100
0000
0000
0000
,
1000
0000
0000
0000
,
0010
0000
0000
0000
,
0100
0000
0000
0000
,
0001
0000
0000
0000
,
1001
0000
0000
0000
,
0001
0000
0000
0000
,
0010
0000
0000
0000
,
0001
0000
0000
0000
,
0100
0000
0001
0000
,
1000
0000
0000
0000
,
0010
0000
0000
0000
,
1000
0000
0000
0000
,
0100
0000
1000
0000
,
1001
0000
0000
0000
,
0001
0000
1000
1000
,
1000
0000
0000
0000
,
1000
0000
0001
0001
,
0001
0000
0000
0000
,
0001
0000
1000
1000
,
1000
0000
1001
0000
,
0000
0000
0000
0000
,
0100
0000
0000
0000
,
0001
0000
0010
0000
,
0100
0000
0000
0000
,
1000
0000
0010
0000
,
0100
0000
0000
0000
,
0001
0000
0010
0000
,
0100
0000
0000
0000
,
1000
0000
0000
0000
,
0001
0000
0000
0000
,
0010
0000
0000
0000
,
0001
0000
0000
0000
,
1000
0000
0000
0000
,
0001
0000
0000
0000
,
0010
0000
0000
0000
,
0001
0000
0000
0000
,
0010
0000
0000
0000
,
0100
0000
0000
0000
,
1000
0000
0010
0000
,
1000
0000
0000
0000
,
0010
0000
0000
0000
,
0100
0000
0000
0000
,
0001
0000
0010
0000
,
0001
0000
0000
0000
,
0010
0000
0000
0000
,
0100
0000
0000
0000
,
1000
0000
0010
0000
,
1000
0000
0000
0000
,
0010
0000
0100
0000
,
0001
0000
0000
0000
,
1001
0000
0000
0000
,
0000
0000
0000
0000
,
0001
0000
0010
0000
,
0100
0000
0000
0000
,
1000
0000
0010
0000
,
0100
0000
0000
0000
,
0001
0000
0010
0000
,
0100
0000
0000
0000
,
1000
0000
0010
0000
,
0100
0000
0001
0000
,
1000
0000
0010
0000
,
0100
0000
0000
0000
,
0001
0000
0010
0000
,
0100
0000
0000
0000
,
1000
0000
0010
0000
,
0100
0000
0000
0000
,
0001
0000
0010
0000
,
0100
0000
1000
0000
,
1001
0000
0000
0000
,
2002
0000
0000
3003
;

//---------------dance-single - ----------------
#NOTES:
     dance-single:
     :
     Easy:
     7:
     0.331671,0.300077,0.073413,0.082590,0.004588,236.000000,8.000000,9.000000,0.000000,0.000000,0.000000,0.331671,0.300077,0.073413,0.082590,0.004588,236.000000,8.000000,9.000000,0.000000,0.000000,0.000000:
0000
0000
0000
0000
,
0000
0000
0000
0000
,
0000
0000
0000
0000
,
0000
0000
0000
0000
,
0000
0000
0000
0000
,
0001
0010
0100
1000
,
0001
0000
1001
0000
,
1000
0010
0100
0000
,
0001
0010
0100
0000
,
1000
0010
0100
0000
,
0001
1000
0100
0000
,
1000
0010
0100
0001
,
0010
0100
1000
0000
,
0001
1000
0100
1000
,
0010
0100
0001
0000
,
2002
0000
0000
0000
0000
3003
0000
0000
,
1000
1000
0010
0010
,
1000
0000
0001
0000
,
0010
0100
1000
0010
,
1000
0100
1000
0000
,
0001
0010
0100
0000
,
1000
0010
0100
0000
,
0001
0010
0100
1000
,
0010
1000
1001
0000
,
0001
0010
0100
1000
,
0100
0000
0000
0000
,
1000
0010
0100
0001
,
0100
0100
0100
0000
,
1000
0010
0100
0001
,
0100
0000
0000
1000
,
0001
0010
0100
1000
,
0000
0000
0000
0000
,
0100
1000
1000
0001
,
1000
0010
0100
0001
,
0100
0001
0001
0100
,
0001
0010
0100
1000
,
0100
0100
0100
0001
,
1000
0010
0100
0001
,
1001
0000
0000
0000
,
0002
0000
0010
0000
,
0100
0000
1000
0000
,
0100
0000
0000
0000
1000
0000
0000
0003
,
0200
0000
0000
0000
0001
0300
0000
0000
,
2000
0000
0010
0000
,
0100
0000
0000
0000
0001
0000
0000
3000
,
0100
1000
0010
0100
,
0001
0010
0001
0100
,
0010
1000
0100
0000
,
1000
0000
0010
0000
,
0100
0001
0010
0100
,
1000
0010
0100
0000
,
0001
0010
0100
0000
,
1000
0010
0100
0001
,
0010
0100
1000
0000
,
0001
0010
0001
0100
,
0010
1000
0100
1000
,
1000
0010
0100
0001
,
0001
0010
0100
0000
,
1000
0001
1000
0100
,
0010
0001
0100
0010
,
1000
0001
1000
0001
,
2002
0000
0000
0000
,
0000
0000
0000
0000
0000
3003
0000
0000
,
1000
1000
0001
0001
,
0010
0100
1000
0010
,
1000
0000
0010
0000
,
0100
0001
0100
0000
,
0001
0001
1000
1000
,
0010
0100
0001
0010
,
0001
0001
0010
0010
,
0100
1000
0100
0000
,
1000
1000
0100
0100
,
0010
0100
1000
0010
,
1000
1000
0010
0010
,
0100
0001
0100
0000
,
0001
0001
0100
0100
,
0010
0100
0001
0010
,
0001
0000
0010
0000
,
0100
1000
0100
1000
,
1001
0000
0110
0000
,
0000
0000
0000
0000
0000
0000
0000
0000
0000
0000
0000
0000
0000
0000
0000
0000
0000
2002
0000
0000
0000
0000
0000
0000
,
0000
0000
0000
3003
;

//---------------dance-single - ----------------
#NOTES:
     dance-single:
     :
     Medium:
     11:
     0.504717,0.599848,0.266123,0.073413,0.013765,348.000000,29.000000,8.000000,0.000000,0.000000,0.000000,0.504717,0.599848,0.266123,0.073413,0.013765,348.000000,29.000000,8.000000,0.000000,0.000000,0.000000:
0000
0000
0000
0000
,
0000
0000
0000
0000
,
0000
0000
0000
0000
,
0000
0000
0000
0000
,
0000
0000
0000
0000
,
0001
0000
0010
0000
0100
1000
0100
0000
,
1000
0010
1000
0000
0001
0010
0001
0000
,
1000
0001
0100
0000
0001
0000
0100
0000
,
0001
0000
0010
0000
0100
1000
0000
0100
,
0010
0100
0010
0000
0100
0000
0010
0000
,
0001
0000
0100
0000
0010
1000
0000
0100
,
1000
0100
0010
0000
0100
0000
0010
0000
,
0001
0000
0010
0000
1000
0010
0000
0100
,
1000
0100
0010
0000
0001
0000
0100
0000
,
1000
0000
0100
0000
0010
1000
0000
0100
,
2000
0000
0000
0000
0000
3000
0000
0000
,
1000
0000
0101
0000
0001
0010
0100
1000
,
0100
0000
1000
0000
0010
0000
0100
0001
,
0010
0001
0100
0000
0010
0000
1000
0010
,
1000
0000
0010
0000
0100
0001
0010
0001
,
0011
0011
1100
1100
,
1010
1010
0101
0101
,
0001
0000
1000
0000
1000
0010
0100
0001
,
0100
0001
1100
0000
,
0001
0010
0001
0000
0100
1000
0100
0010
,
1000
0100
1000
0001
,
1000
0010
1000
0000
0100
0010
0100
0000
,
1000
1000
0001
0001
,
1000
0010
1000
0000
0100
0001
0100
0010
,
0001
0100
0001
1000
,
0001
0010
0001
0000
0100
0010
0100
0000
,
0000
0010
0000
1000
0000
0001
0000
0100
,
0000
0001
0000
0100
0000
0010
1000
0000
,
0000
0010
0000
1000
0000
0010
0000
0100
,
0001
0100
1000
0100
,
0001
0010
0001
0000
0100
1000
0100
0010
,
1000
0100
1000
0001
,
1000
0010
1000
0000
0100
0010
0000
0001
,
0000
1000
0000
0000
0000
0000
0000
0000
,
0002
0010
0010
0100
,
0100
1000
1000
0100
,
0100
0000
1000
0003
,
0200
0000
0000
0000
0001
0300
0000
0000
,
2000
0010
0010
3001
,
0001
1000
0000
0000
0001
0000
0100
0000
,
0001
1000
0010
0100
,
0001
0000
0010
0000
0001
0100
0010
0000
,
0100
0000
0001
0100
0010
0000
1001
0000
,
1000
0000
1000
0000
0001
0000
0001
0010
,
0001
0000
0010
0000
0100
1000
0100
0000
,
1000
0000
0010
1000
0100
0000
1000
0000
,
0001
0000
1000
0001
0100
0000
0001
0000
,
0010
0110
1000
0110
,
0010
0100
0010
0000
0001
0000
0110
0000
,
0001
0000
0010
0000
0001
0100
0010
0000
,
0100
0001
0010
0110
,
1000
0010
0100
0000
0010
0001
0000
0000
,
0010
0100
0010
0000
0010
1000
0100
0000
,
1000
0000
0010
1000
0100
0000
1000
0000
,
0001
0010
1000
0000
1000
0010
0001
0000
,
0001
0010
0100
0000
0110
0000
1001
0000
,
2002
0000
0000
0000
,
0000
0000
3003
0000
,
1000
0000
0100
1000
0100
0000
1000
0010
,
0001
0010
1000
0100
,
1000
0100
1000
0000
0001
0100
0001
0000
,
0010
0011
1100
0000
,
0001
0000
0100
0001
0100
0000
0001
0010
,
1000
0010
0001
0100
,
0001
0010
0001
0000
1000
0100
1000
0000
,
0110
1010
0101
1001
,
0001
1000
0001
1000
0100
0000
1000
0000
,
1000
0010
0001
0010
,
1000
0100
0001
0000
0100
0000
1000
0000
,
0010
0011
1100
0000
,
1000
0001
1000
0001
0100
0000
0001
0000
,
0001
0010
1000
0010
,
0001
0010
0100
0000
1000
0010
0100
0000
,
0010
1000
0101
1001
,
1000
0000
0000
0001
0000
0000
1000
0000
0000
0100
0000
0000
0010
0000
0000
0000
,
0000
0000
0000
0000
0000
0000
0001
0000
0000
0000
0000
0000
0000
0000
0000
0000
0000
2002
0000
0000
0000
0000
0000
0000
,
0000
0000
0000
0000
0000
0000
0000
0000
0000
0000
0000
0000
0000
0000
0000
0000
0000
3003
0000
0000
0000
0000
0000
0000
;

//---------------dance-single - ----------------
#NOTES:
     dance-single:
     :
     Hard:
     14:
     0.696116,0.673109,0.091767,0.119297,0.307418,508.000000,10.000000,13.000000,0.000000,0.000000,0.000000,0.696116,0.673109,0.091767,0.119297,0.307418,508.000000,10.000000,13.000000,0.000000,0.000000,0.000000:
0000
0000
0000
0000
,
0000
0000
0000
0000
,
0000
0000
0000
0000
,
0000
0000
0000
0000
,
0000
0000
0000
0000
,
1000
0000
0000
0000
1000
0000
0000
0000
0010
0100
0010
0100
0010
0000
0000
0000
,
1000
0010
1000
0010
1000
0000
0000
0000
0001
0010
0001
0010
0001
0000
0000
0000
,
0100
0000
0001
0000
0010
0000
0100
0000
1000
0000
0001
0010
0000
0000
0001
0000
,
0100
0000
0001
0000
1000
0000
0100
0000
1000
0000
0100
0010
0000
0000
0000
0000
,
0100
0000
1000
0000
0010
0000
0100
0000
0001
0000
1000
0010
0000
0000
1000
0000
,
0100
0000
1000
0000
0001
0000
0100
0000
0001
0000
0100
0010
0000
0000
0100
0000
,
0010
0000
1000
0000
0100
0000
0010
0000
0001
0000
1000
0100
0000
0000
1000
0000
,
0010
0000
1000
0000
0001
0000
0010
0000
0001
0000
0010
0100
0000
0000
0000
0000
,
0010
0001
0100
0010
1000
0001
0100
0001
,
0010
1000
0010
0001
1000
0010
1000
0010
,
0220
0000
0000
0000
0000
0330
0000
0000
,
1000
0000
0001
0010
0000
0100
1000
0000
0100
0000
0010
0000
0100
0000
0000
0000
,
1000
0000
0000
0001
0000
0000
1000
0000
0000
0010
0000
0000
1000
0000
0000
0000
,
1000
0100
0001
0100
1000
0010
0100
0001
,
0100
0000
0000
0001
0000
0000
1000
0000
0010
0000
0100
0000
0001
0000
0100
0000
,
0001
0000
0100
0010
0100
0000
0010
0000
1000
0000
0100
0000
1000
0000
0000
0000
,
1000
0000
0100
0010
0100
0000
0010
0000
0001
0000
0100
0000
0001
0000
1000
0000
,
0100
0000
1000
0100
0000
0010
0100
0000
1000
0000
0100
0000
0010
0000
0001
0000
,
0100
0000
0000
0001
0000
0000
1000
0000
0200
0000
0000
0000
0300
0000
0000
0000
,
1000
0010
0100
0001
0010
0001
0010
0100
,
1000
0100
0000
0000
0100
0001
0100
1000
,
0001
0010
0100
1000
0010
1000
0000
0100
,
0010
0001
0100
0001
1000
0100
0010
0000
,
0001
0010
0001
1000
0010
1000
0010
0100
,
0001
0100
0000
0000
0100
1000
0100
0001
,
1000
0010
0100
0001
0010
0001
0000
0100
,
0010
1000
0100
1000
0001
0100
0010
0100
,
0000
0001
0000
1000
0000
0001
0010
0100
,
1000
0010
1000
0100
0010
0001
0000
0010
,
0001
0100
1000
0100
,
0001
0010
0001
0100
0010
1000
0000
0001
,
0000
1000
0000
0100
0000
0100
0010
0100
,
1000
0010
1000
0100
0010
0001
0000
1010
,
0000
0101
0000
0000
0000
0000
0000
0000
,
2000
0010
0100
3001
,
0002
0010
1000
0103
,
0200
1000
0001
0300
,
0020
0100
1030
0000
,
0002
0010
0100
1003
,
0100
0000
0010
0000
0000
0000
0001
0010
0001
0000
0000
0000
0100
0000
0000
0000
,
1000
0000
0000
0100
0000
0000
0010
0000
0000
0001
0000
0000
0010
0000
1000
0000
0010
0000
0100
0000
0001
0000
0100
0000
,
0001
0010
0100
0000
0010
0000
0100
0000
1000
0000
0010
0000
1000
0000
0100
0000
,
1000
0000
0000
1000
0010
0000
0100
0000
0001
0000
0000
0000
1100
0000
0000
0000
,
0001
0010
0001
0010
0000
0001
0010
0001
,
0100
0001
0010
0100
0000
0000
1000
0010
1000
0100
0000
0000
,
1000
0000
0000
0001
0010
0000
0100
0000
2000
0000
0000
0000
3100
0000
0000
0000
,
0010
0001
0100
0010
1000
0100
0000
0100
,
1000
0000
0000
0010
0000
0000
0100
0000
0010
0000
1000
0000
0001
0000
0100
0000
0001
0000
1000
0000
0100
0000
1000
0000
,
0010
0100
0001
0100
0001
0000
0000
0001
,
1000
0010
0100
0010
0100
0000
0010
0000
1000
0000
0010
0000
1000
0000
0100
0000
,
1000
0000
0000
1000
0010
0000
0100
0000
0001
0000
0000
0000
1000
0000
0000
0000
,
0001
0010
0001
0000
1000
0000
0010
0000
1000
0000
0100
0000
1000
0000
0000
0000
,
0010
0100
1000
0100
0000
0000
0100
0010
0100
0001
0000
0000
,
1000
0000
0000
0001
0010
0000
0100
0000
1000
0000
0010
0000
1000
0000
0100
0000
,
1000
0100
1000
0000
0010
0000
0000
0000
0100
0010
0100
0000
0010
0000
0000
0000
,
1000
0010
0100
0001
0010
0001
1000
0001
,
2002
0000
0000
0000
,
0000
0000
3003
0000
,
1000
0100
0010
0100
1000
0000
0100
0010
,
0001
0010
0001
0100
1000
0000
0110
0000
,
0001
0000
0100
0000
0001
0000
0000
1000
0100
0000
1000
0000
0001
0000
0000
0010
,
0001
0010
0001
0010
1000
0000
0110
0000
,
0001
0100
0010
0100
0001
0000
0100
0010
,
1000
0010
1000
0100
0001
0000
0100
0000
,
1000
0000
0100
0000
1000
0000
0000
0001
0100
0000
0001
0000
1000
0000
0000
0010
,
1000
0010
1000
0010
0001
0000
0010
0000
,
1000
0010
1000
0010
1000
0000
0001
0000
0100
0000
0001
0000
0100
0000
1000
0000
,
0100
0001
0010
1000
0110
0000
1001
0000
,
1000
0000
0100
0000
1000
0000
0001
0000
0100
0000
0001
0000
0000
0000
1000
0100
,
1000
0000
0000
0100
0000
0000
1000
0000
0001
0000
0000
0000
1000
0000
0000
0000
,
1000
0001
1000
0001
0100
0001
0010
0001
,
0010
0100
1000
0100
0010
0100
1000
0100
,
0010
0000
0001
0000
0000
0000
0010
0000
0100
0000
1000
0000
0000
0000
1000
0100
,
1000
0001
1000
0001
0100
1000
0100
0000
,
1000
0000
0000
0000
0000
0000
0000
0000
0000
0010
0000
0000
0000
0000
0000
0000
0000
0000
0100
0000
0000
0000
0000
0000
0000
0000
0000
0001
0000
0000
0000
0000
0010
0000
0000
0000
0100
0000
0000
0000
1000
0000
0000
0000
0010
0000
0000
0000
,
0100
0001
0010
0001
0000
0000
0000
0000
0000
2002
0000
0000
,
0000
0000
3003
0000
;

//---------------dance-double - ----------------
#NOTES:
     dance-double:
     :
     Easy:
     7:
     0.317251,0.300077,0.045883,0.110120,0.000000,225.000000,5.000000,12.000000,0.000000,0.000000,0.000000,0.317251,0.300077,0.045883,0.110120,0.000000,225.000000,5.000000,12.000000,0.000000,0.000000,0.000000:
00000000
00000000
00000000
00000000
,
00000000
00000000
00000000
00000000
,
00000000
00000000
00000000
00000000
,
00000000
00000000
00000000
00000000
,
00000000
00000000
00000000
00001000
,
00010000
00100000
10000000
01000000
,
00010000
00000000
00011000
00000000
,
00001000
00000010
00001000
00000000
,
00010000
00100000
00010000
00000000
,
00001000
00000010
00000001
00000000
,
00000010
00000100
00010000
00000000
,
00001000
00010000
00001000
00010000
,
00001000
00000100
00000001
00000000
,
00000010
00001000
00010000
00100000
,
10000000
00000000
00010000
00000000
,
00022000
00000000
00000000
00000000
00000000
00033000
00000000
00000000
,
00001000
00000000
00000010
00000000
,
00000001
00000010
00001000
00000000
,
00010000
00000000
00100000
00000000
,
10000000
00100000
00010000
00000000
,
00001000
00000010
00001000
00000000
,
00010000
00100000
00010000
00000000
,
00001000
00000000
00010000
00000000
,
00001000
00010000
00011000
00000000
,
00010000
00100000
10000000
00010000
,
01000000
00000000
00000000
00000000
,
00001000
00000010
00000001
00001000
,
00000100
00000000
00000000
00000000
,
00010000
00001000
00010000
00001000
,
00010000
00000000
00000000
00000000
,
00010000
00010000
00001000
00001000
,
00010000
00100000
10000000
01000000
,
00010000
00000000
00100000
00000000
,
00001000
00000010
00000001
00000100
,
00001000
00010000
00010000
00001000
,
00010000
00100000
10000000
01000000
,
00010000
01000000
01000000
00100000
,
00001000
00010000
00000100
00000010
,
00000002
00000000
00000000
00000003
,
00000200
00000000
00000001
00000000
,
00000010
00000000
00001300
00000000
,
00002000
00000000
00013000
00000000
,
00200000
00000000
01300000
00000000
,
02000000
00000000
10000000
00000000
,
00100000
00000000
03010000
00000000
,
00022000
00000000
00033000
00000000
,
00010000
00100000
00010000
00100000
,
00100000
10000000
01000000
00000000
,
10000000
01000000
00010000
00000000
,
00001000
00000100
00000010
00000100
,
00001000
00000100
00000010
00000000
,
00000010
00000100
00001000
00000000
,
00010000
00100000
01000000
00010000
,
00100000
01000000
10000000
00000000
,
01000000
00010000
00001000
00000100
,
00000010
00000001
00000010
00000000
,
00001000
00000010
00000100
00001000
,
00010000
00100000
01000000
00000000
,
00010000
00010000
10000000
01000000
,
00100000
01000000
00010000
00000000
,
00001000
00010000
00001000
00010000
,
00022000
00000000
00000000
00000000
,
00000000
00000000
00033000
00000000
,
00010000
00100000
01000000
10000000
,
10000000
01000000
00100000
00010000
,
00001000
00000000
00000100
00000000
,
00000001
00000010
00001000
00000000
,
00001000
00000010
00000001
00000100
,
00000001
00000010
00001000
00010000
,
00100000
00000000
10000000
00000000
,
01000000
00010000
00001000
00010000
,
00001000
00000010
00000100
00000001
,
00000001
00000100
00000010
00001000
,
00010000
00000000
01000000
00000000
,
10000000
00100000
00010000
00000000
,
00010000
00100000
10000000
01000000
,
10000000
00100000
01000000
00100000
,
00010000
00000000
00001000
00000000
,
00010000
00001000
00000010
00000001
,
00000010
00000001
00000100
00001000
,
00020000
00000000
00000000
00000000
,
00000000
00000000
00000000
00030000
;

//---------------dance-double - ----------------
#NOTES:
     dance-double:
     :
     Medium:
     11:
     0.509961,0.599848,0.238593,0.100943,0.013765,352.000000,26.000000,11.000000,0.000000,0.000000,0.000000,0.509961,0.599848,0.238593,0.100943,0.013765,352.000000,26.000000,11.000000,0.000000,0.000000,0.000000:
00000000
00000000
00000000
00000000
,
00000000
00000000
00000000
00000000
,
00000000
00000000
00000000
00000000
,
00000000
00000000
00000000
00000000
,
00000000
00000000
00000000
00000000
,
00000001
00000000
00000010
00000000
00000100
00001000
00000100
00000000
,
00010000
00001000
00010000
00000000
00010000
01000000
00100000
00000000
,
00010000
01000000
00100000
00000000
01000000
00000000
00100000
00000000
,
00010000
00000000
00100000
00000000
01000000
10000000
00000000
01000000
,
00100000
00010000
00001000
00000000
00000100
00000000
00000001
00000000
,
00000001
00000000
00000010
00000000
00000100
00001000
00000000
00000100
,
00001000
00000100
00000010
00000000
00000100
00000000
00000010
00000000
,
00001000
00000000
00000010
00000000
00000100
00000001
00000000
00000100
,
00000010
00001000
00010000
00000000
01000000
00000000
00100000
00000000
,
10000000
00000000
00100000
00000000
01000000
00010000
00000000
00001000
,
00022000
00000000
00000000
00000000
00000000
00033000
00000000
00000000
,
00001000
00000000
00000110
00000000
00000001
00000010
00000100
00001000
,
00000100
00000000
00001000
00000000
00000010
00000000
00000100
00000001
,
00000100
00001000
00010000
00000000
00100000
00000000
10000000
00100000
,
10000000
00000000
00100000
00000000
01000000
00010000
00100000
00010000
,
00110000
00011000
00000110
00000110
,
00000011
00000011
00001100
00001100
,
00000001
00000000
00000100
00000000
00001000
00100000
01000000
10000000
,
01000000
10000000
11000000
00000000
,
00010000
00100000
00010000
00000000
01000000
10000000
01000000
00100000
,
10000000
01000000
10000000
01000000
,
00010000
00001000
00010000
00000000
00000100
00000010
00000100
00000000
,
00010000
00001000
00000100
00000001
,
00001000
00000010
00001000
00000000
00000100
00000001
00000100
00000010
,
00000001
00000100
00000001
00000100
,
00001000
00010000
00001000
00000000
01000000
00100000
01000000
00000000
,
00000000
00010000
00000000
00001000
00000000
00000100
00000000
00000001
,
00000000
00000010
00000000
00000100
00000000
00001000
00000100
00000000
,
00000000
00000010
00000000
00001000
00000000
00010000
00000000
00100000
,
10000000
01000000
00010000
01000000
,
10000000
00100000
10000000
00000000
01000000
00010000
00001000
00010000
,
00001000
00000100
00000001
00001000
,
00000001
00000010
00000001
00000000
00000100
00000010
00000000
00010000
,
00000000
00001000
00000000
00000000
00000000
00000000
00000000
00000000
,
00020000
00100000
00230000
01000000
,
02000000
00300000
10000000
00000000
13000000
00000000
01000000
00000000
,
02000000
00000000
03100000
00000000
,
00010000
00001000
00000100
00000000
,
00000002
00000010
00000010
00000100
,
00000103
00000100
00000000
00000000
00001000
00000000
00010000
00000000
,
01000000
10000000
00100000
01000000
,
00010000
00000000
00100000
00000000
00010000
01000000
00100000
00000000
,
01000000
00000000
00010000
01000000
00100000
00000000
10000000
00000000
,
01000000
00000000
00010000
00000000
00001000
00000000
00000100
00000010
,
00000001
00000000
00000010
00000000
00000100
00001000
00000100
00000000
,
00001000
00000000
00010000
00100000
01000000
00000000
00010000
00000000
,
00010000
00000000
10000000
00010000
01000000
00000000
00010000
00000000
,
10000000
01100000
00010000
00011000
,
00000010
00000100
00000010
00000000
00000001
00000000
00000110
00000000
,
00000001
00000000
00000010
00000000
00000001
00000100
00000010
00000000
,
00000100
00001000
00010000
01100000
,
10000000
00100000
01000000
00000000
00100000
00010000
00000000
00000000
,
00001000
00010000
00000100
00000000
00000010
00000001
00000100
00000000
,
00001000
00000000
00000100
00000010
00000100
00000000
00001000
00000000
,
00010000
00100000
10000000
00000000
10000000
00100000
00010000
00000000
,
00010000
00100000
01000000
00000000
01100000
00000000
00011000
00000000
,
00022000
00000000
00000000
00003000
,
00000000
00000000
00000000
00000000
,
00031000
00000000
00000100
00001000
00000100
00000000
00000001
00000010
,
00000001
00000010
00001000
00010000
,
00100000
01000000
10000000
00000000
01000000
00100000
01000000
00000000
,
00100000
00010000
00001000
00000100
,
00000001
00000000
00000100
00000001
00000100
00000000
00000001
00000010
,
00001000
00000010
00000001
00000100
,
00001000
00010000
00001000
00000000
00010000
01000000
10000000
00000000
,
01100000
01010000
00011000
00001000
,
00000100
00000010
00000100
00000010
00000100
00000000
00001000
00000000
,
00010000
00100000
00010000
00001000
,
00000010
00000100
00000001
00000000
00000100
00000010
00000100
00000000
,
00000010
00001000
00010000
01000000
,
10000000
00000000
01000000
10000000
01000000
00000000
10000000
00100000
,
00010000
00100000
10000000
01000000
,
00010000
00001000
00010000
00000000
00001000
00000100
00000001
00000000
,
00000110
00000011
00000110
00001100
,
00000100
00000000
00000000
00010000
00000000
00000000
00001000
00000000
00000000
01000000
00000000
00000000
00100000
00000000
00000000
00000000
,
00000000
00000000
00000000
00000000
00000000
00000000
10000000
00000000
00000000
00000000
00000000
00000000
00000000
00000000
00000000
00000000
00000000
20020000
00000000
00000000
00000000
00000000
00000000
00000000
,
00000000
00000000
00000000
00000000
00000000
00000000
00000000
00000000
00000000
00000000
00000000
00000000
00000000
00000000
00000000
00000000
00000000
30030000
00000000
00000000
00000000
00000000
00000000
00000000
;

//---------------dance-double - ----------------
#NOTES:
     dance-double:
     :
     Hard:
     14:
     0.702671,0.674829,0.137650,0.119297,0.312007,508.000000,15.000000,13.000000,0.000000,0.000000,0.000000,0.702671,0.674829,0.137650,0.119297,0.312007,508.000000,15.000000,13.000000,0.000000,0.000000,0.000000:
00000000
00000000
00000000
00000000
,
00000000
00000000
00000000
00000000
,
00000000
00000000
00000000
00000000
,
00000000
00000000
00000000
00000000
,
00000000
00000000
00000000
00000000
,
10000000
00000000
00000000
00000000
10000000
00000000
00000000
00000000
00100000
01000000
00100000
01000000
00100000
00000000
00000000
00000000
,
00010000
00001000
00010000
00001000
00010000
00000000
00000000
00000000
00000010
00001000
00000010
00001000
00000010
00000000
00000000
00000000
,
00000100
00000000
00000010
00000000
00001000
00000000
00000100
00000000
00000010
00000000
00000001
00000010
00000000
00000000
00000001
00000000
,
00000100
00000000
00000010
00000000
00001000
00000000
00010100
00000000
00001000
00000000
01000000
00010000
00000000
00000000
00000000
00000000
,
01000000
00000000
10000000
00000000
01000000
00000000
00100000
00000000
00010000
00000000
00001000
00010000
00000000
00000000
00001000
00000000
,
00000100
00000000
00000010
00000000
00000001
00000000
00000010
00000000
00000100
00000000
00000010
00001000
00000000
00000000
00000110
00000000
,
00000010
00000000
00001000
00000000
00000100
00000000
00010000
00000000
00001000
00000000
00010000
00001000
00000000
00000000
00010000
00000000
,
00100000
00000000
10000000
00000000
00010000
00000000
00100000
00000000
00010000
00000000
00100000
01000000
00000000
00000000
00000000
00000000
,
10000000
00100000
00010000
00001000
00000010
00000100
00000001
00000100
,
00000010
00000001
00000100
00001000
00010000
00001000
00100000
01000000
,
02200000
00000000
00000000
00000000
00000000
03300000
00000000
00000000
,
10000000
00000000
00010000
00100000
00000000
01000000
10000000
00000000
01000000
00000000
00100000
00000000
01000000
00000000
00000000
00000000
,
10000000
00000000
00000000
01000000
00000000
00000000
00010000
00000000
00000000
00001000
00000000
00000000
00000100
00000000
00000000
00000000
,
00001000
00000100
00000001
00000100
00001000
00000100
00000010
00000001
,
00000010
00000000
00000000
00000100
00000000
00000000
00001000
00000000
00010000
00000000
00100000
00000000
01000000
00000000
10000000
00000000
,
01000000
00000000
00100000
01000000
00100000
00000000
01000000
00000000
00100000
00000000
00010000
00000000
00001000
00000000
00000000
00000000
,
00010000
00000000
00001000
00010000
00001000
00000000
00010000
00000000
00001000
00000000
00000100
00000000
00000010
00000000
00001000
00000000
,
00000100
00000000
00010000
00000100
00000000
00010000
00000100
00000000
00001000
00000000
00000100
00000000
00000010
00000000
00001000
00000000
,
00010000
00000000
00000000
01000000
00000000
00000000
10000000
00000000
02000000
00000000
00000000
00000000
03000000
00000000
00000000
00000000
,
10000000
00100000
01000000
00010000
00100000
00001000
00000000
00001000
,
00000100
00000001
00000000
00000000
00000100
00000001
00000100
00000010
,
00000001
00000010
00000100
00001000
00010000
00100000
00000000
01000000
,
00100000
10000000
01000000
00100000
00010000
00100000
00001000
00010000
,
00000100
00000010
00000100
00001000
00000010
00010000
00000000
00010000
,
00001000
00100000
00000000
00000000
01000000
10000000
01000000
00100000
,
10000000
00100000
01000000
00010000
00001000
00000010
00000000
00000001
,
00000010
00000001
00000100
00000010
00000100
00001000
00010000
00100000
,
00000000
01000000
00000000
10000000
00000000
01000000
00100000
10000000
,
01000000
00010000
00001000
00000100
00000010
00000100
00000000
00000010
,
00001000
00000100
00000001
00000100
,
00001000
00000100
00010000
00001000
00100000
00010000
00000000
01000000
,
00000000
10000000
00000000
01000000
00000000
00100000
00010000
00001000
,
00000100
00000010
00001000
00000100
00000010
00000001
00000000
00001010
,
00000000
00000101
00000000
00000000
00000000
00000000
00000000
00000000
,
00000001
00000010
00000200
00010300
,
00201000
00010000
01000000
01300000
,
02000000
10000000
00010000
00000000
,
03002000
00000100
00003100
00000000
,
00000200
00000001
00000010
00001300
,
00010000
00000000
00001000
00000000
00000000
00000000
00100000
00010000
00100000
00000000
00000000
00000000
01000000
00000000
00000000
00000000
,
10000000
00000000
00000000
01000000
00000000
00000000
00100000
00000000
00000000
01000000
00000000
00000000
00010000
00000000
00001000
00000000
00010000
00000000
00000010
00000000
00000100
00000000
00000010
00000000
,
00001000
00000010
00000100
00000000
00000010
00000000
00000100
00000000
00000001
00000000
00000010
00000000
00001000
00000000
00000010
00000000
,
00000001
00000000
00000000
00001000
00000010
00000000
00000100
00000000
00000001
00000000
00000000
00000000
00000110
00000000
00000000
00000000
,
00001000
00010000
00001000
00010000
00000000
01000000
00100000
00010000
,
01000000
00010000
00100000
01000000
00000000
00000000
10000000
00100000
10000000
01000000
00000000
00000000
,
00010000
00000000
00000000
00001000
00010000
00000000
00000100
00000000
00000002
00000000
00000000
00000000
00000103
00000000
00000000
00000000
,
00000010
00000001
00000100
00001000
00010000
00100000
00000000
01000000
,
10000000
00000000
00000000
00100000
00000000
00000000
01000000
00000000
00100000
00000000
10000000
00000000
00010000
00000000
01000000
00000000
00010000
00000000
10000000
00000000
01000000
00000000
10000000
00000000
,
00100000
01000000
00010000
01000000
00001000
00000000
00000000
00010000
,
00001000
00010000
00001000
00010000
00001000
00000000
00010000
00000000
00001000
00000000
00000010
00000000
00000001
00000000
00000100
00000000
,
00001000
00000000
00000000
00000100
00000010
00000000
00000100
00000000
00000001
00000000
00000000
00000000
00000100
00000000
00000000
00000000
,
00001000
00010000
00001000
00000000
00010000
00000000
00100000
00000000
10000000
00000000
01000000
00000000
10000000
00000000
00000000
00000000
,
00100000
01000000
10000000
01000000
00000000
00000000
00100000
00010000
00001000
00000100
00000000
00000000
,
00000010
00000000
00000000
00000100
00000010
00000000
00000100
00000000
00000001
00000000
00000010
00000000
00000001
00000000
00000100
00000000
,
00000010
00000100
00000010
00000000
00001000
00000000
00000000
00000000
00000100
00010000
00000100
00000000
00001000
00000000
00000000
00000000
,
00010000
00100000
01000000
00010000
00100000
00010000
10000000
00010000
,
20020000
00000000
00000000
00000000
,
00000000
00000000
30030000
00000000
,
10000000
01000000
00100000
01000000
00010000
00000000
00001000
00000010
,
00000001
00000010
00000001
00000100
00001000
00000000
00000110
00000000
,
00000100
00000000
00001000
00000000
00010000
00000000
00000000
00100000
01000000
00000000
10000000
00000000
01000000
00000000
00000000
00100000
,
01000000
00100000
00010000
00001000
00010000
00000000
00000110
00000000
,
00000001
00000100
00000010
00000100
00001000
00000000
00010000
00100000
,
10000000
00100000
10000000
01000000
00010000
00000000
01100000
00000000
,
01000000
00000000
00010000
00000000
00001000
00000000
00000000
00000010
00000100
00000000
00000001
00000000
00000100
00000000
00000000
00000010
,
00000100
00000010
00000001
00000010
00000001
00000000
00000100
00000000
,
00000001
00000010
00000001
00000010
00000001
00000000
00000100
00000000
00001000
00000000
00010000
00000000
00001000
00000000
00100000
00000000
,
01000000
00010000
01000000
10000000
01100000
00000000
10010000
00000000
,
01000000
00000000
00010000
00000000
00001000
00000000
00000000
00000010
00000100
00000000
00000001
00000000
00000100
00000000
00000000
00000010
,
00000100
00000010
00001000
00010000
00001000
00000000
01100000
00000000
,
10000000
01000000
10000000
00100000
01000000
00001000
00010000
00000100
,
00001000
00000100
00001000
00000010
00000100
00001000
00010000
00100000
,
01000000
00000000
00100000
00000000
00000000
00000000
10000000
00000000
00100000
00000000
01000000
00000000
00000000
00000000
00100000
01000000
,
00100000
01000000
00001000
00010000
00001000
00000100
00000010
00000000
,
00001000
00000000
00000000
00000000
00000000
00000000
00000000
00000000
00000000
00000010
00000000
00000000
00000000
00000000
00000000
00000000
00000000
00000000
00000100
00000000
00000000
00000000
00000000
00000000
00000000
00000000
00000000
00000001
00000000
00000000
00000000
00000000
00000010
00000000
00000000
00000000
00000100
00000000
00000000
00000000
00000010
00000000
00000000
00000000
00000001
00000000
00000000
00000000
,
00000100
00000000
00001000
00000000
00010000
00000000
00001000
00000000
00000000
00000000
00000000
00000000
00000000
00000000
00000000
00000000
00000000
02200000
00000000
00000000
00000000
00000000
00000000
00000000
,
00000000
00000000
00000000
00000000
00000000
00000000
00000000
00000000
00000000
00000000
00000000
00000000
00000000
00000000
00000000
00000000
00000000
03300000
00000000
00000000
00000000
00000000
00000000
00000000
;

//---------------dance-single - ----------------
#NOTES:
     dance-single:
     :
     Challenge:
     15:
     0.849497,0.745604,0.201887,0.119297,0.587307,613.000000,22.000000,13.000000,0.000000,0.000000,0.000000,0.849497,0.745604,0.201887,0.119297,0.587307,613.000000,22.000000,13.000000,0.000000,0.000000,0.000000:
// measure 0
0000
0000
0000
0000
,  // measure 1
0000
0000
0000
0000
,  // measure 2
0000
0000
0000
0000
,  // measure 3
0000
0000
0000
0000
,  // measure 4
0000
0000
0000
0000
,  // measure 5
0001
0010
0001
0010
0100
1000
0100
1000
0001
0100
0001
0100
0001
0000
0000
0000
,  // measure 6
1000
0100
1000
0100
0010
0000
0000
0000
0001
0010
0001
0010
0100
0000
0000
0000
,  // measure 7
1000
0000
0100
0000
0001
0000
0100
0000
1000
0000
0001
0010
0000
0010
1000
0000
,  // measure 8
0010
0000
0001
0000
0010
0000
0100
0000
1000
0000
0010
0100
0000
0001
0100
0000
,  // measure 9
0010
0000
1000
0000
0100
0000
0001
0000
0010
0000
0001
0100
0000
0000
1000
0000
,  // measure 10
0100
0000
1000
0000
0100
0000
1000
0000
0001
0100
0001
0100
0001
0000
0010
0000
,  // measure 11
0100
0000
1000
0000
0010
0000
0100
0000
0001
0000
1000
0001
0000
1000
0001
0000
,  // measure 12
0100
0000
0010
0000
0100
0000
0001
0000
0010
0000
1000
0010
0000
0000
0001
0000
,  // measure 13
0100
0000
1000
0000
0001
0000
0010
0000
1000
0000
0001
0010
0000
0010
0001
0000
,  // measure 14
0100
0010
1000
0000
0010
0000
0100
0000
0001
1000
0001
1000
0001
0000
0100
0000
,  // measure 15
0220
0000
0000
0000
0000
0330
0000
0000
,  // measure 16
0001
0010
0001
0000
1000
0000
0010
0000
0100
0010
0000
0000
1000
0001
1000
0001
,  // measure 17
0100
0000
0000
0110
0000
0000
0010
0000
0000
1010
0000
0000
1000
0000
0100
0000
,  // measure 18
0001
0000
0100
1000
0000
1000
0001
0000
0100
0000
0010
0000
1000
0000
0010
0000
,  // measure 19
0100
0000
0000
0101
0000
0000
0001
0000
0010
0000
0100
0000
1000
0010
1000
0000
,  // measure 20
0100
0000
0001
0100
1000
0000
0001
0000
0100
0010
1000
0000
0100
0000
0010
0001
,  // measure 21
0010
0000
0001
0100
0001
0000
0010
0000
1000
0000
0010
0000
0001
0000
0100
0000
,  // measure 22
1000
0000
0100
0001
0000
0100
1000
0000
0100
0000
0001
0000
1000
0000
0010
0000
,  // measure 23
0100
0000
0000
0101
0000
0000
0001
0000
2000
0000
0000
0000
3000
0000
0000
0000
,  // measure 24
0010
0100
0001
0100
0010
1000
0100
0010
,  // measure 25
0001
0100
0000
0000
0001
0010
1000
0010
,  // measure 26
0001
0100
1000
0100
0001
1000
0000
0010
,  // measure 27
0100
0001
0010
0100
1000
0100
0001
0100
,  // measure 28
1000
0010
0001
0010
1000
0100
0001
0010
,  // measure 29
0001
0100
1000
0000
0001
0010
1000
0010
,  // measure 30
0001
0100
0010
1000
0100
0010
1000
0010
,  // measure 31
0001
1000
0100
1000
0010
0100
0001
0100
,  // measure 32
0000
1001
0000
1010
0000
0010
0100
0001
,  // measure 33
0100
0010
1000
0100
0001
0100
0000
1000
,  // measure 34
0001
0010
0001
0010
0100
1000
0100
1000
,  // measure 35
0001
0010
0100
0010
0001
0010
0000
0100
,  // measure 36
0000
1100
0000
0011
0000
0001
0010
0100
,  // measure 37
1000
0100
1000
0000
0100
0000
0010
0000
0001
0100
0001
0000
0100
0000
0010
0000
,  // measure 38
1000
0010
1000
0000
0100
0000
0010
0000
0001
0000
1000
0000
0001
0000
0000
0000
,  // measure 39
1010
0000
1000
0000
0001
0000
0001
0100
,  // measure 40
1000
0000
0100
0000
0001
0100
0010
0100
,  // measure 41
0002
0023
2030
3020
,  // measure 42
0031
0000
0000
0001
0100
0000
0010
0000
1000
0000
0000
0000
0001
1000
0001
0000
,  // measure 43
0100
0110
0011
0110
,  // measure 44
1000
0100
0010
1000
0010
0001
1000
0100
,  // measure 45
0001
0000
0000
1000
0000
0000
0100
0000
0000
0010
0000
0000
0001
0000
0010
0000
1000
0000
0001
0000
0100
0000
1000
0000
,  // measure 46
0001
0010
0100
0000
1000
0000
0100
0000
1000
0000
0010
0000
0100
0000
0001
0000
,  // measure 47
0100
0000
0000
0010
1000
0000
0100
0010
0100
0000
0010
0000
0001
0000
0100
0000
,  // measure 48
0010
0000
1000
0000
0010
0000
1000
0000
0001
0000
0100
0010
0100
0000
0010
0000
,  // measure 49
1000
0000
0000
0000
0100
0000
0000
0000
0010
0000
0000
0000
0001
0000
0000
0000
0000
0000
0000
0000
0000
0000
0000
0000
0010
0000
0000
0000
0100
0000
0000
0000
1000
0000
0000
0000
0001
0000
0000
0100
0000
0000
0001
0000
0000
0000
0000
0000
,  // measure 50
1001
0000
0000
1000
0010
0000
0100
0000
0021
0000
0000
0000
0032
0000
0000
0000
,  // measure 51
0103
1000
0100
0000
0001
0000
0010
0000
0001
0000
0100
0000
0000
0000
0110
0000
,  // measure 52
0000
0000
0000
0000
0000
0000
0001
0000
0000
1000
0000
0000
0001
0000
0000
0000
0000
0000
1000
0000
0000
0010
0000
0000
1000
0000
0000
0000
0100
0000
0000
0000
0010
0000
0000
0000
0001
0000
0000
0000
0100
0000
0000
0000
0010
0000
0000
0000
,  // measure 53
1000
1000
0001
0001
0010
0001
0100
0001
,  // measure 54
1000
0010
1000
0001
0100
0000
0001
0000
0010
0000
1000
0000
0010
0000
0001
0000
,  // measure 55
0100
0000
0000
0100
0010
0000
1000
0000
0100
0010
0100
0010
0001
0000
0000
0000
,  // measure 56
1000
0100
1000
0001
1000
0000
0100
0000
0001
0000
0100
0000
1000
0000
0000
0000
,  // measure 57
0010
0001
0010
1000
0000
0000
0100
0001
0100
1000
0000
0000
,  // measure 58
0001
0000
0000
0100
0001
0000
0010
0000
0001
0000
1000
0000
0100
0000
1000
0000
,  // measure 59
0010
0100
0010
0100
0010
0000
0000
0000
1000
0001
1000
0001
1000
0000
0000
0000
,  // measure 60
0100
0010
0100
0010
0001
0000
1000
0001
1000
0010
1000
0000
0100
0000
0010
0000
,  // measure 61
2002
0000
0000
0000
,  // measure 62
0000
0000
0000
0000
0000
0000
0000
0000
3003
0000
0100
0000
0001
0010
0001
0000
,  // measure 63
0100
0000
0010
0000
1000
0000
0010
0100
0010
0000
0000
0000
0100
0000
0001
0010
,  // measure 64
0001
0100
1000
0100
0001
0000
0011
0000
,  // measure 65
0010
0000
0100
0000
1000
0000
0000
0100
1000
0001
1000
0000
0010
0000
0000
0100
,  // measure 66
0001
0010
0001
1000
0010
0100
0010
0000
,  // measure 67
1000
0100
0001
0100
1000
0000
0001
0010
,  // measure 68
1000
0010
0000
0010
0001
0000
0100
0000
0010
1000
0000
1000
0100
0000
0000
0000
,  // measure 69
0010
0000
0001
0000
0100
0000
0000
0010
1000
0000
0010
0000
0100
0000
0000
0001
,  // measure 70
0100
0010
1000
0100
0001
0100
1000
0010
,  // measure 71
0100
0001
0100
0001
0010
0000
0100
0000
0010
1000
0010
0000
0001
0000
0100
0000
,  // measure 72
0010
1000
0000
0100
1000
0000
0100
0000
0010
0001
0000
0100
0001
0000
1000
0000
,  // measure 73
0010
0000
0100
0000
0001
0000
0100
0010
1000
0010
1000
0000
0000
0000
0100
0010
,  // measure 74
0001
0010
0001
1000
0010
0100
0010
1000
,  // measure 75
0001
0100
0000
0001
0010
0000
0100
0000
1000
0100
1000
0000
0000
0000
0100
0000
,  // measure 76
0010
0001
0000
1000
0001
0000
1000
0000
0010
1000
0000
0010
1000
0000
0001
0000
,  // measure 77
0100
0001
0100
0000
0010
0000
0001
0000
0010
0100
1000
0000
0000
0000
0100
0001
,  // measure 78
0100
0001
0100
0000
0010
0000
1000
0000
0100
0000
0010
0000
0001
0000
0100
0000
,  // measure 79
0010
0000
0000
0000
0000
0000
0000
0000
0000
1010
0000
0000
0000
0000
0000
0000
0000
0000
1100
0000
0000
0000
0000
0000
0000
0000
0000
0100
0000
0000
0000
0000
0010
0000
0000
0000
0001
0000
0000
0000
0100
0000
0000
0000
1000
0000
0000
0000
,  // measure 80
0100
0001
0010
0110
0000
0000
0000
0000
0000
2002
0000
0000
,  // measure 81
0000
3003
0000
0000
;
