#TITLE:SABER WING;
#SUBTITLE:;
#ARTIST:TAG;
#TITLETRANSLIT:;
#SUBTITLETRANSLIT:;
#ARTISTTRANSLIT:;
#GENRE:;
#CREDIT:;
#BANNER:SABER WING.png;
#BACKGROUND:SABER WING-bg.png;
#LYRICSPATH:;
#CDTITLE:;
#MUSIC:SABER WING.ogg;
#OFFSET:0.000000;
#SAMPLESTART:2.435000;
#SAMPLELENGTH:15.000000;
#SELECTABLE:YES;
#DISPLAYBPM:74.000000:222.000000;
#BPMS:0.000000=222.222000
,4.000000=221.998001
,102.000000=221.983994
,148.000000=214.076004
,148.666672=214.703995
,149.000000=222.082001
,227.000000=444.444000
,239.000000=73.779999
,254.666672=75.146004
,255.000000=222.046005
;
#STOPS:102.000000=0.540000,
148.000000=0.180000,
148.333328=0.180000,
148.666672=0.180000,
254.666672=1.587000
;
#BGCHANGES:0.000=SABER WING.avi=1.000=0=0=0=StretchNoLoop====,
99999=-nosongbg-=1.000=0=0=0 // don't automatically add -songbackground-
;
#KEYSOUNDS:;
#ATTACKS:;

//---------------dance-single - ----------------
#NOTES:
     dance-single:
     :
     Beginner:
     5:
     0.215184,0.321588,0.009241,0.000000,0.000000,163.000000,162.000000,1.000000,0.000000,0.000000,0.000000,0.215184,0.321588,0.009241,0.000000,0.000000,163.000000,162.000000,1.000000,0.000000,0.000000,0.000000:
0000
0000
0000
0000
,
0000
0000
0000
0000
,
0000
0001
0000
0000
,
0010
0000
0000
1000
,
0000
0000
0100
0000
,
0000
0010
0000
0000
,
0001
0000
0000
1000
,
0000
0000
0100
0000
,
0000
0010
0000
0000
,
0100
0000
0000
0001
,
0000
0000
0010
0000
,
0000
1000
0000
0000
,
0001
0000
0000
1000
,
0000
0000
0000
0000
,
0010
0010
0000
1000
,
1000
0000
0001
0001
,
0001
0001
0001
0000
,
0100
0100
0000
0010
,
0010
0000
1000
1000
,
1000
1000
1000
0000
,
0001
0001
0000
1000
,
1000
0000
0010
0010
,
0010
0010
0010
0000
,
0100
0100
0000
0010
,
0010
0000
1000
1000
,
1000
1000
1000
1000
,
0000
0000
0001
0000
,
0000
0010
0000
0000
,
1000
0000
0000
0100
,
0000
0000
0001
0001
,
0001
0001
0000
0000
,
1000
0000
0000
0010
,
0000
0000
1000
0000
,
0000
0001
0000
0000
,
0100
0000
0000
0010
,
0000
0000
1000
0000
,
0000
0100
0000
0000
,
0010
0000
0000
0000
,
0100
0100
0000
0000
,
0000
0001
0001
0000
,
0000
0000
0100
0100
,
0000
0000
0000
1000
,
1000
0000
0000
0000
,
0100
0100
0000
0000
,
0000
0001
0001
0000
,
0000
0000
0100
0100
,
0000
0000
0000
1000
,
1000
1000
0000
0000
,
0010
0000
0001
0000
,
0000
0010
0000
1000
,
0000
0000
0010
0000
,
0001
0000
0000
0010
,
0000
1000
0000
0000
,
0001
0000
0000
1000
,
0000
0000
0001
0001
,
0001
0001
0000
0000
,
1000
0000
0000
1001
,
0000
0000
0000
0000
,
0000
0000
0000
0000
,
0000
0000
0000
0010
,
0000
0100
0000
0001
,
0000
1000
0000
0010
,
0000
1000
0000
0100
,
0000
0001
0000
1000
,
0000
0000
0100
0000
,
0000
0010
0000
0000
,
0001
0000
0000
0100
,
0000
0000
0010
0000
,
0000
0001
0000
0000
,
0100
0000
0000
0010
,
0000
0000
1000
0000
,
0000
0100
0000
0000
,
0001
0000
0000
0010
,
0000
0000
0001
0000
,
0000
1000
0000
0000
,
0100
0000
0001
0001
,
0000
1000
1000
0000
,
0010
0010
0010
0010
,
0010
0000
0100
0100
,
0000
1000
1000
0000
,
0001
0001
0001
0001
,
0001
0000
0010
0010
,
0000
0001
0001
0000
,
1000
1000
1000
1000
,
1000
0000
0100
0100
,
0000
0010
0010
0000
,
0001
0001
0001
0001
,
0001
0000
0000
0000
,
0000
0000
0000
0000
;

//---------------dance-single - ----------------
#NOTES:
     dance-single:
     :
     Easy:
     8:
     0.361721,0.534594,0.147857,0.295713,0.027723,274.000000,258.000000,16.000000,32.000000,0.000000,0.000000,0.361721,0.534594,0.147857,0.295713,0.027723,274.000000,258.000000,16.000000,32.000000,0.000000,0.000000:
0000
0000
0000
0000
,
0000
0000
0000
0000
,
0000
0001
0000
1000
,
0010
0100
1000
0010
,
0000
0001
0010
0001
,
0100
0010
0000
0001
,
1000
0001
0010
0200
,
0000
0000
0020
0000
,
0330
0100
0000
1000
,
0100
1000
0100
0001
,
0000
0010
0001
0100
,
0001
0010
0000
0100
,
1000
0010
0100
0002
,
0000
0000
2000
3003
,
0010
1000
0000
0001
,
0010
0000
0100
1000
,
0010
1000
0100
0000
,
1000
0010
0000
0001
,
0100
0000
0001
1000
,
0100
0010
2002
3003
,
0010
1000
0000
0010
,
0001
0000
0100
0001
,
1000
0100
0010
0000
,
1000
0001
0000
1000
,
0010
0000
0001
0010
,
1000
0100
0001
1000
,
0000
0001
0100
0010
,
0001
0100
0000
0010
,
0100
1000
0010
0100
,
0000
0010
0001
1000
,
0100
0020
0000
0000
,
0200
0000
0330
0010
,
0000
1000
0010
0001
,
0010
1000
0000
0001
,
1000
0100
0001
0100
,
0000
0100
0001
0100
,
0010
2000
0000
3000
,
0001
0001
0001
0010
0000
0000
0000
0000
0000
0001
0000
0000
,
0100
0100
0010
0000
,
1000
0100
0100
0010
,
0000
0001
0100
0100
,
0010
0000
1000
0100
,
0100
0010
0000
0001
,
0100
0100
0010
0000
,
1000
0100
0100
0010
,
0000
0001
0100
0100
,
0010
0000
1000
0100
,
0100
0022
0000
0033
,
1100
1100
2020
0000
,
3030
0101
0101
0022
,
0000
0033
1100
1100
,
2020
0000
3030
0101
,
0101
0010
0000
1000
,
0010
0000
0001
0010
,
0000
1000
0001
0100
,
1000
0020
0000
0000
,
0200
0000
0330
2002
,
0000
0000
0000
0000
,
0000
0000
0000
0000
,
0000
0000
3003
0010
,
0001
0100
1000
0010
,
1000
0100
0001
0010
,
0001
1000
0100
0010
,
0100
0000
0000
0001
0001
0001
1000
1000
1000
0001
0000
0000
,
0000
1000
0100
0000
,
0010
0001
0100
0001
,
0010
0000
1000
0100
,
0000
1000
0010
0000
,
1000
0001
0010
0100
,
2002
3003
0100
0001
,
0000
0100
1000
0000
,
0010
1000
0001
0010
,
0100
0000
0010
1000
,
0000
0001
0100
0000
,
1000
0100
0001
0010
,
2000
3000
0100
0010
,
0010
0100
1000
1000
,
0010
0100
0001
1000
,
0200
0300
0001
0010
,
0010
0100
1000
1000
,
0010
0100
0001
0010
,
1000
0100
1000
0002
,
0003
0100
0020
0030
,
0100
1000
0010
0100
,
0020
0030
0100
0002
,
0003
0100
2000
3000
,
0100
1000
0001
0010
,
2002
0000
0000
0000
,
0000
0000
0000
0000
,
3003
0000
0000
0000
,
0000
0000
0000
0000
;

//---------------dance-single - ----------------
#NOTES:
     dance-single:
     :
     Medium:
     10:
     0.513537,0.781329,0.397364,0.351159,0.097031,389.000000,346.000000,43.000000,38.000000,0.000000,0.000000,0.513537,0.781329,0.397364,0.351159,0.097031,389.000000,346.000000,43.000000,38.000000,0.000000,0.000000:
0000
0000
0000
0000
,
0000
0000
0000
0000
,
0000
0000
1000
0000
0010
0001
0000
0100
,
0010
0100
0001
0010
,
0001
0100
0000
1000
0010
0000
1000
0000
,
0100
0000
0010
0000
1000
0100
0000
1000
,
0001
1000
0010
0200
,
0000
0000
0020
0000
,
0330
0000
0100
0000
1000
0001
0000
1000
,
0100
0001
0100
1000
,
0001
0010
0000
0001
1000
0000
0110
0000
,
1001
0000
0010
0000
0100
0010
0000
0100
,
0001
0010
0100
2100
,
0000
0000
0002
3003
,
0010
0002
0100
1003
,
0020
1000
0130
0001
,
0010
0001
0200
0001
,
0301
0020
0100
1030
,
0200
0001
1300
0001
,
0100
0010
2002
3003
,
0010
0002
0100
0013
,
2000
0001
3100
1000
,
0001
0100
0020
0001
,
0031
2000
0100
3001
,
0020
0001
1030
0010
,
0001
0100
1001
0001
,
0010
1000
0000
0010
0100
0000
0010
0000
,
1000
0000
0100
0000
0001
0010
0000
0001
,
0100
0001
0010
0100
,
1000
0010
0000
0001
1000
0000
0001
0000
,
0100
0020
0000
0000
,
0200
0000
0330
0010
,
0001
1000
0000
0001
0010
0000
1000
0000
,
0010
0000
0001
0000
1000
0100
0000
1000
,
0001
0110
1001
0100
,
0010
0100
0000
0010
1000
0000
0100
0000
,
0010
0002
0000
0003
,
1000
1000
1000
0001
0000
0000
0100
0000
0000
1000
0000
0000
,
0100
0110
0001
0100
,
1000
0100
0110
0001
,
0100
1000
0100
0110
,
0001
0100
1000
0100
,
0110
0001
0100
1000
,
0100
0110
0001
0100
,
1000
0100
0110
0001
,
0100
1000
0100
0110
,
0001
0100
1000
0100
,
0110
1010
0001
0100
,
1001
0100
1010
0001
,
0100
1001
0100
1010
,
0001
0100
1001
0100
,
1010
0001
0100
1001
,
0100
0011
0001
0100
,
1010
1000
0100
0011
,
0001
0100
1010
0101
,
1100
0010
0010
0010
,
0100
0100
0100
2002
,
0000
0000
0000
0000
,
0000
0000
0000
0000
,
0000
0000
0000
0000
0000
0000
3003
0000
0000
0010
0000
0010
,
1000
0000
1000
0100
1000
0001
0100
0000
0000
0010
0000
0010
,
0100
0000
0100
0001
0000
0001
0010
1000
0100
1000
0000
0001
,
0100
0000
1000
0100
0010
0100
0010
0000
0000
0001
0000
1000
,
0010
0000
0001
0010
0010
0010
0100
0100
0100
2000
0000
0000
,
0010
3001
0200
0001
,
0310
1000
0100
1000
,
0020
1000
1030
0200
,
0010
0301
0020
0100
,
0031
1000
0010
0100
,
2002
3003
0100
2000
,
0010
3100
0002
1000
,
0013
0001
1000
0010
,
0200
0010
0310
0002
,
0010
1003
0200
0010
,
0301
0100
1000
0010
,
2002
3003
0100
0010
,
1000
1100
0010
0001
,
0101
0010
1000
0001
,
0200
1000
1300
0010
,
0001
0101
0010
1000
,
1100
0010
1000
0010
,
1001
0100
0001
1100
,
0010
0100
0010
1000
,
0100
0101
0010
0100
,
0010
0001
0100
1010
,
0001
0100
0011
1000
,
0100
0001
1000
0110
,
2002
0000
0000
0000
,
0000
0000
0000
0000
,
3003
0000
0000
0000
,
0000
0000
0000
0000
;

//---------------dance-single - ----------------
#NOTES:
     dance-single:
     :
     Hard:
     13:
     0.646872,1.192555,0.443570,0.249508,0.138616,490.000000,442.000000,48.000000,27.000000,0.000000,0.000000,0.646872,1.192555,0.443570,0.249508,0.138616,490.000000,442.000000,48.000000,27.000000,0.000000,0.000000:
0000
0000
0000
0000
,
0000
0000
0000
0000
,
0000
0000
0001
0000
0010
1000
0100
1000
,
0020
0100
1030
0010
,
0001
0100
1000
0100
0020
0000
0001
0000
,
0130
0000
0010
0000
1000
0100
0010
0000
,
1000
0000
0001
0100
0010
0000
0200
0000
,
0000
0301
0020
0000
,
0031
0000
0100
0000
0001
1000
0001
0010
,
0200
1000
0310
0001
,
1000
0010
0100
0010
1000
0000
0110
0000
,
1001
0000
0010
0000
0001
0010
0000
0010
,
0100
1000
0010
0102
,
0000
0100
2000
3003
,
0010
0000
1000
0000
0001
0100
1000
0000
,
0001
0000
1000
0100
0001
0000
0011
0000
,
1001
1100
0002
0100
,
0103
0000
0001
0000
1000
0100
0001
0000
,
1000
0000
0001
0100
1000
0000
1010
0000
,
0110
0101
2000
0001
,
3001
0000
0010
0000
1000
0001
0100
0000
,
0010
0000
0001
1000
0100
0000
0101
0000
,
0110
1100
0020
0100
,
0130
0000
0001
0000
1000
0010
0100
0000
,
0001
0000
0010
0001
0100
0000
0001
0010
,
0100
1000
0010
0000
1001
0000
1000
0000
,
0100
0001
0010
0001
0200
0000
0010
0000
,
0301
0000
0100
0000
1000
0010
0001
0010
,
0200
1000
0310
0100
,
0001
0010
0100
0000
0001
0000
1000
0010
,
0100
0020
0000
1030
,
0200
0000
1300
0010
,
1000
0001
1000
0100
0020
0000
0001
0000
,
0130
0000
1000
0000
0001
0100
0010
0100
,
0001
0110
1001
0100
,
1000
0100
0000
0100
0010
0000
0001
0000
,
0100
2002
0000
3003
,
0010
0000
0001
0000
0100
0000
0010
0000
0000
0000
0000
0000
1000
0000
0000
0100
0000
0000
0001
0000
0000
0100
0000
0000
,
1000
0000
1000
0000
0010
0000
1000
0100
,
0001
0100
1000
0000
1000
0000
0010
0000
,
1000
0100
0001
0100
1000
0000
1000
0000
,
0010
0000
1000
0100
0001
0100
1000
0000
,
1000
0000
0010
0000
1000
0100
0001
0100
,
1000
0000
1000
0000
0010
0000
1000
0100
,
0001
0100
1000
0000
1000
0000
0010
0000
,
1000
0100
0001
0100
1000
0000
1000
0000
,
0010
0000
1000
0100
0001
0100
1000
0000
,
1000
0000
0001
0100
0010
1000
0100
0010
,
0100
0000
0100
0000
0001
0100
0010
1000
,
0100
0010
0100
0000
0100
0000
0001
0100
,
0010
1000
0100
0010
0100
0000
0100
0000
,
0001
0100
0010
1000
0100
0010
0100
0000
,
0100
0000
1010
0000
0001
0100
0010
0000
,
0011
0000
1000
0100
0010
0000
1010
0000
,
0001
1000
0100
0000
0011
0000
1100
0000
,
0101
0010
0010
0010
,
0100
0010
0100
0010
0100
0000
2002
0000
,
0000
0000
0000
0000
,
0000
0000
0000
0000
,
0000
0000
0000
0000
0000
0000
3003
0000
0000
0010
0010
0001
,
0100
0100
0001
0100
0001
1000
0200
0000
0000
0310
0010
0100
,
1000
1000
0010
0100
0100
0001
0010
0001
0100
0101
0001
1000
,
1100
1000
0001
0101
0010
0100
1001
0000
0000
1010
0100
0001
,
0011
0100
1000
0010
1000
0100
0010
0100
1000
0001
0000
0000
,
1000
0100
0001
0000
1000
0000
0001
0100
,
1000
1010
1001
0101
,
2000
0100
3100
1000
,
0001
0100
1000
0000
0001
0000
1000
0100
,
0001
0011
0110
1100
,
0002
1000
1003
0010
,
0001
1000
0100
0000
0010
0000
1000
0001
,
0100
1100
0110
0101
,
0020
0100
0130
1000
,
0001
0010
0100
0000
1000
0000
0010
1000
,
0100
0010
0100
1000
,
0001
0100
0010
1000
0100
0010
0001
0000
,
1000
0100
0001
0100
1000
0000
0001
0100
,
1000
0100
0010
0000
1001
0000
0101
0000
,
2000
0000
3100
0010
0100
0000
1000
0000
,
0001
0100
1000
0100
0001
0000
1000
0100
,
0001
0100
0010
0000
1001
0000
1100
0000
,
0012
0100
0013
0101
,
0010
0100
0000
0100
0010
0000
0001
0000
,
0100
0000
1100
0000
0010
0100
0000
0100
,
0010
1000
0100
0011
,
1000
0100
0001
0000
1010
0000
0001
0100
,
1000
0000
0010
1000
0001
0010
0100
0000
,
2002
0000
0000
0000
,
0000
0000
0000
0000
,
3003
0000
0000
0000
;

//---------------dance-single - ----------------
#NOTES:
     dance-single:
     :
     Challenge:
     13:
     0.562383,0.904697,0.341918,0.194062,0.138616,426.000000,389.000000,37.000000,21.000000,236.000000,0.000000,0.562383,0.904697,0.341918,0.194062,0.138616,426.000000,389.000000,37.000000,21.000000,236.000000,0.000000:
// measure 0
0000
0000
0000
0000
,  // measure 1
0000
0000
0000
0000
,  // measure 2
0000
0000
0001
0000
0010
1000
0100
1000
,  // measure 3
0020
0130
MMMM
0010
,  // measure 4
0001
0100
1000
0100
0020
0000
0031
0000
,  // measure 5
MMMM
0000
0010
0000
1000
0100
0010
0000
,  // measure 6
1000
0000
0001
0100
0010
0000
0100
0000
,  // measure 7
MMMM
0001
0010
MMMM
,  // measure 8
0001
0000
0100
0000
0001
1000
0001
0010
,  // measure 9
0200
1300
MMMM
0001
,  // measure 10
1000
0010
0100
0010
1000
0000
0110
0000
,  // measure 11
1001
0000
0010
0000
0001
0010
MMMM
0010
,  // measure 12
0100
1000
0010
0102
,  // measure 13
0000
0100
2000
3003
,  // measure 14
0010
0000
1000
0000
0001
0100
MMMM
0000
,  // measure 15
1000
0000
0100
0010
MMMM
0000
0011
0000
,  // measure 16
1001
1100
0002
0100
,  // measure 17
0103
0000
0001
0000
1000
0100
MMMM
0000
,  // measure 18
0001
0000
0100
0010
MMMM
0000
1010
0000
,  // measure 19
0110
0101
MMMM
0001
,  // measure 20
0001
0000
0010
0000
MMMM
0001
0100
0000
,  // measure 21
0010
0000
MMMM
1000
0100
0000
0101
0000
,  // measure 22
0110
1100
0020
0100
,  // measure 23
0130
0000
0001
0000
MMMM
0010
0100
0000
,  // measure 24
0001
0000
MMMM
0001
0100
0000
0001
0010
,  // measure 25
0100
1000
0010
0000
MMMM
0000
1000
0000
,  // measure 26
0100
0001
MMMM
0001
0200
0000
0010
0000
,  // measure 27
0301
0000
0100
0000
1000
0010
MMMM
0010
,  // measure 28
0200
1000
0310
0100
,  // measure 29
0001
0010
0100
0000
0001
0000
1000
0010
,  // measure 30
0100
0010
MMMM
1000
,  // measure 31
0100
MMMM
1000
0010
,  // measure 32
1000
0001
MMMM
0100
0020
0000
0001
0000
,  // measure 33
0130
0000
1000
0000
0001
0100
MMMM
0100
,  // measure 34
0001
0110
1001
0100
,  // measure 35
1000
0100
MMMM
0100
0010
0000
0001
0000
,  // measure 36
0100
2002
0000
3003
,  // measure 37
0010
0000
0001
0000
0100
0000
0010
0000
0000
0000
0000
0000
1000
0000
0000
0100
0000
0000
0001
0000
0000
0100
0000
0000
,  // measure 38
1000
0000
MMMM
0000
0010
0000
1000
0100
,  // measure 39
0001
0100
1000
0000
MMMM
0000
0010
0000
,  // measure 40
1000
0100
0001
0100
1000
0000
MMMM
0000
,  // measure 41
0010
0000
1000
0100
0001
0100
1000
0000
,  // measure 42
MMMM
0000
0010
0000
1000
0100
0001
0100
,  // measure 43
1000
0000
MMMM
0000
0010
0000
1000
0100
,  // measure 44
0001
0100
1000
0000
MMMM
0000
0010
0000
,  // measure 45
1000
0100
0001
0100
1000
0000
MMMM
0000
,  // measure 46
0010
0000
1000
0100
0001
0100
1000
0000
,  // measure 47
MMMM
0000
0001
0100
0010
1000
0100
0010
,  // measure 48
0100
0000
MMMM
0000
0001
0100
0010
1000
,  // measure 49
0100
0010
0100
0000
MMMM
0000
0001
0100
,  // measure 50
0010
1000
0100
0010
0100
0000
MMMM
0000
,  // measure 51
0001
0100
0010
1000
0100
0010
0100
0000
,  // measure 52
MMMM
0000
1010
0000
0001
0100
0010
0000
,  // measure 53
0011
0000
1000
0100
0010
0000
1010
0000
,  // measure 54
0001
1000
0100
0000
0011
0000
MMMM
0000
,  // measure 55
0101
0010
0010
0010
,  // measure 56
0100
0010
0100
0010
0100
0000
2002
0000
,  // measure 57
0000
0000
0000
0000
,  // measure 58
0000
0000
0000
0000
,  // measure 59
0000
0000
0000
0000
0000
0000
3003
0000
0000
0010
0010
0001
,  // measure 60
0100
0100
0001
0100
0001
1000
0200
0000
0000
0310
0010
0100
,  // measure 61
1000
1000
0010
0100
0100
0001
0010
0001
0100
MMMM
0001
1000
,  // measure 62
MMMM
1000
0001
MMMM
0010
0100
1001
0000
0000
MMMM
0100
0001
,  // measure 63
MMMM
0100
1000
0010
1000
0100
0010
0100
1000
0001
0000
0000
,  // measure 64
1000
0100
MMMM
0000
0001
0000
0100
0010
,  // measure 65
MMMM
1010
1001
0101
,  // measure 66
2000
0100
3100
1000
,  // measure 67
0001
0100
MMMM
0000
1000
0000
0100
0010
,  // measure 68
MMMM
0011
0110
1100
,  // measure 69
MMMM
1000
1000
0010
,  // measure 70
MMMM
1000
0100
0000
0010
0000
MMMM
0001
,  // measure 71
0100
1100
0110
0101
,  // measure 72
0020
0100
0130
1000
,  // measure 73
MMMM
0010
0100
0000
1000
0000
MMMM
1000
,  // measure 74
0100
0010
0100
1000
,  // measure 75
0001
0100
0010
1000
0100
0010
0001
0000
,  // measure 76
1000
0100
MMMM
0100
1000
0000
0001
0100
,  // measure 77
MMMM
0100
0010
0000
1001
0000
0101
0000
,  // measure 78
2000
0000
3100
0010
0100
0000
1000
0000
,  // measure 79
0001
0100
MMMM
0100
0001
0000
1000
0100
,  // measure 80
MMMM
0100
0010
0000
1001
0000
1100
0000
,  // measure 81
0012
0100
0013
MMMM
,  // measure 82
0010
0100
0000
0100
0010
0000
0001
0000
,  // measure 83
0100
0000
MMMM
0000
0010
0100
0000
0100
,  // measure 84
0010
1000
0100
MMMM
,  // measure 85
1000
0100
0001
0000
MMMM
0000
0001
0100
,  // measure 86
1000
0000
0010
1000
0001
0010
MMMM
0000
,  // measure 87
2002
0000
0000
0000
,  // measure 88
0000
0000
0000
0000
,  // measure 89
3003
0000
0000
0000
;

//---------------dance-double - ----------------
#NOTES:
     dance-double:
     :
     Easy:
     8:
     0.377562,0.534594,0.138616,0.101651,0.027723,286.000000,271.000000,15.000000,11.000000,0.000000,0.000000,0.377562,0.534594,0.138616,0.101651,0.027723,286.000000,271.000000,15.000000,11.000000,0.000000,0.000000:
00000000
00000000
00000000
00000000
,
00000000
00000000
00000000
00000000
,
00000000
10000000
00000000
01000000
,
00010000
00001000
00000100
00000001
,
00000000
00000010
00001000
00010000
,
00100000
10000000
00000000
00010000
,
00100000
00100000
01000000
00020000
,
00000000
00000000
00002000
00000000
,
00033000
00000010
00000000
00000001
,
00000100
00001000
00010000
00100000
,
00000000
10000000
01000000
00010000
,
00001000
00000010
00000000
00000010
,
00000100
00010000
00000010
00000200
,
00000000
00000000
00000020
00000330
,
00001000
00010000
00000000
00000100
,
00001000
00000000
00000001
00000100
,
00001000
00010000
01000000
00000000
,
00100000
01000000
00000000
10000000
,
00010000
00000000
01000000
00100000
,
00010000
00001000
00000110
00000000
,
00000001
00000100
00000000
00000010
,
00010000
00000000
00001000
00000100
,
00000001
00000010
00001000
00000000
,
00010000
00100000
00000000
00010000
,
00001000
00000000
00010000
01000000
,
10000000
00010000
01100000
10000000
,
00000000
01000000
00010000
00001000
,
00000100
00000001
00000000
00000010
,
00001000
00010000
00100000
10000000
,
10000000
00010000
00100000
00100000
,
01000000
00020000
00000000
00000000
,
00002000
00000000
00033000
00000010
,
00000000
00000001
00000100
00001000
,
00010000
00100000
00000000
10000000
,
01000000
00010000
00001000
00000010
,
00000100
00000010
00000100
00010000
,
00000010
00000200
00000000
00000300
,
00000001
00000001
00000001
00001000
00000000
00000000
00000000
00000000
00000000
00000100
00000000
00000000
,
00000010
00000010
00001000
00000000
,
00010000
00100000
00100000
10000000
,
00000000
00010000
01000000
01000000
,
00100000
00000000
00010000
00001000
,
00001000
00010000
00000000
01000000
,
10000000
10000000
00010000
00000000
,
00100000
00001000
00001000
00000100
,
00000000
00000001
00000010
00000010
,
00001000
00000000
00010000
00000100
,
00000100
00000010
00001000
00010000
,
00100000
10000000
00100000
00010000
,
00001000
00000100
00000001
00000100
,
00001000
00010000
01000000
10000000
,
01000000
00010000
00001000
00000010
,
00000001
00001001
00000000
00000000
,
00001100
00000000
00000000
00011000
,
00000000
00000000
01100000
10010000
,
01100000
00010000
10000000
01000000
,
00010000
00001000
00000100
00002002
,
00000000
00000000
00000000
00000000
,
00000000
00000000
00000000
00000000
,
00000000
00000000
00003003
00000100
,
00000010
00001000
00010000
00100000
,
10000000
00010000
01000000
00100000
,
00010000
00001000
00000100
00000001
,
00001000
00000000
00000000
00000100
00000100
00000100
00000010
00000010
00000010
00010000
00000000
00000000
,
00000000
00000100
00001000
00000000
,
00000001
00000100
00001000
00010000
,
01000000
00000000
00100000
01000000
,
00000000
10000000
00010000
00000000
,
01000000
00100000
00010000
00001000
,
00000110
00000000
00000001
00000100
,
00000000
00000010
00010000
00000000
,
00001000
00000100
00000001
00000010
,
00001000
00000000
00010000
00100000
,
00000000
00010000
00001000
00000000
,
00010000
01000000
10000000
00010000
,
01100000
00000000
01000000
00100000
,
00100000
10000000
01000000
01000000
,
00010000
00001000
00000100
00000001
,
00001000
00000000
00000100
00000010
,
00000010
00000001
00001000
00001000
,
00000010
00000100
00001000
00010000
,
00001000
00000010
00000001
00001100
,
00000000
00010000
00011000
00000000
,
00100000
10100000
01000000
00010000
,
10000000
00000000
01000000
00100000
,
01000000
10000000
01000000
00010000
,
00001000
00000010
00000001
00001000
,
00000220
00000000
00000000
00000000
,
00000000
00000000
00000000
00000000
,
00000330
00000000
00000000
00000000
,
00000000
00000000
00000000
00000000
;

//---------------dance-double - ----------------
#NOTES:
     dance-double:
     :
     Medium:
     12:
     0.526739,0.781329,0.637631,0.184821,0.060067,399.000000,330.000000,69.000000,20.000000,0.000000,0.000000,0.526739,0.781329,0.637631,0.184821,0.060067,399.000000,330.000000,69.000000,20.000000,0.000000,0.000000:
00000000
00000000
00000000
00000000
,
00000000
00000000
00000000
00000000
,
00000000
00000000
00100000
00000000
00000000
10000000
00000000
01000000
,
00010000
00001000
00000100
00000010
,
00000000
00000001
00000000
00000100
00001000
00000000
00010000
00000000
,
01000000
00000000
00100000
00000000
00000000
00001000
00000000
00010000
,
00000010
00000100
00000001
00000020
,
00000000
00000000
00000200
00000000
,
00000330
00000000
00000010
00000000
00000000
00000001
00000000
00000100
,
00001000
00010000
01000000
00100000
,
00000000
10000000
00000000
00100000
00010000
00000000
00011000
00000000
,
00001100
00000000
00000010
00000000
00000100
00000010
00000000
00000010
,
00000100
00000001
00000010
00002000
,
00000000
00000000
00000002
00003003
,
00000100
00011000
01000000
10000000
,
10100000
00010000
01000000
00110000
,
00011000
00001010
00000200
00000010
,
00000310
00000011
00001000
00000010
,
00000110
00001000
00010000
01100000
,
10010000
01100000
20000000
00010000
,
30010000
10100000
00010000
00001000
,
00001100
00000001
00001000
00010100
,
00001010
00101000
02000000
10000000
,
13000000
01100000
00001000
00010000
,
00000110
00000001
00000010
00001000
,
00010000
00001000
00011000
00100000
,
00000000
10000000
00000000
01000000
00010000
00000000
00001000
00000000
,
00000010
00000000
00000100
00000000
00000000
00000001
00000000
00000100
,
00001000
00010000
01000000
00100000
,
00000000
00001000
00000000
00010000
00000100
00000000
00000010
00000000
,
00000001
00000200
00000000
00000000
,
00000020
00000000
00000330
00001000
,
00000000
00000001
00000000
00000100
00001000
00000000
00010000
00000000
,
01000000
00000000
00100000
00000000
00000000
10000000
00000000
00100000
,
00010000
00011000
00001100
00000010
,
00000100
00000010
00000000
00000010
00000100
00000000
00000001
00000000
,
00000010
00002000
00000000
00003000
,
00010000
00010000
00010000
01000000
00000000
00000000
10000000
00000000
00000000
00100000
00000000
00000000
,
00010000
00011000
00000100
00000001
,
00000010
00001000
00011000
00100000
,
10000000
01000000
00010000
00011000
,
00000010
00000001
00000100
00001000
,
00011000
01000000
10000000
00100000
,
00010000
00011000
00000100
00000001
,
00000010
00001000
00011000
00100000
,
10000000
01000000
00010000
00011000
,
00000010
00000001
00000100
00001000
,
00011000
00010000
01000000
10000000
,
01000000
01100000
00001000
00000100
,
00000001
00000100
00000110
00010000
,
01000000
10000000
01000000
01100000
,
00001000
00000100
00000001
00000100
,
00000110
00000010
00001000
00010000
,
00100000
00010000
00001000
00000010
,
00001000
00010000
00110000
01100000
,
11000000
00100000
00100000
00100000
,
00010000
00010000
00010000
00022000
,
00000000
00000000
00000000
00000000
,
00000000
00000000
00000000
00000000
,
00000000
00000000
00000000
00000000
00000000
00000000
00033000
00000000
00000000
01000000
00000000
01000000
,
00010000
00000000
00010000
00100000
00000000
00100000
10000000
00000000
00000000
01000000
00000000
01000000
,
00010000
00000000
00010000
00001000
00000000
00001000
00000010
00000000
00000000
00001001
00000000
00000000
,
00011000
00000000
00000000
10010000
00000000
00000000
00011000
00000000
00000000
01000000
00000000
01000000
,
00100000
00000000
00000000
00010000
00010000
00010000
10000000
10000000
10000000
00110000
00000000
00000000
,
01000000
10000000
10100000
00010000
,
01000000
00110000
00011000
00001010
,
00000200
00000010
00000310
00000011
,
00001000
00000010
00000110
00001000
,
00010000
01100000
10010000
01100000
,
20000000
00010000
30010000
10100000
,
00010000
00001000
00001100
00000001
,
00001000
00010100
00001010
00101000
,
02000000
10000000
13000000
01100000
,
00001000
00010000
00000110
00000001
,
00000010
00001000
00010000
00001000
,
00022000
00033000
00100000
01000000
,
01000000
00100000
10000000
10000000
,
01000000
00101000
00011000
00010100
,
00002000
00000001
00003001
00000100
,
00000100
00000010
00001000
00001000
,
00000100
00010000
00001000
01000000
,
00100000
10000000
01000000
00110000
,
01000000
10000000
00100000
00010000
,
00001000
00000101
00000010
00000001
,
00000100
00001000
00010000
00110000
,
01000000
10000000
10100000
01000000
,
00010000
00001000
00000010
00001001
,
00000220
00000000
00000000
00000000
,
00000000
00000000
00000000
00000000
,
00000330
00000000
00000000
00000000
,
00000000
00000000
00000000
00000000
;

//---------------dance-double - ----------------
#NOTES:
     dance-double:
     :
     Hard:
     13:
     0.632351,1.028065,0.425088,0.138616,0.097031,479.000000,433.000000,46.000000,15.000000,0.000000,0.000000,0.632351,1.028065,0.425088,0.138616,0.097031,479.000000,433.000000,46.000000,15.000000,0.000000,0.000000:
00000000
00000000
00000000
00000000
,
00000000
00000000
00000000
00000000
,
00000000
00000000
00001000
00000000
00000010
00000001
00000100
00001000
,
00010000
01000000
10000000
00010000
,
00100000
10000000
01000000
00010000
00001000
00000000
00000100
00000000
,
00000010
00000000
00001000
00000000
00000001
00000010
00000100
00000000
,
00000010
00000000
00001000
00010000
00100000
00000000
00010000
00000000
,
00010000
00001000
00010000
00010000
,
01000000
00000000
10000000
00000000
00010000
01000000
00001000
00010000
,
00000100
00000010
00000001
00001000
,
00000010
00000100
00001000
00010000
00100000
00000000
10100000
00000000
,
01010000
00000000
00001000
00000000
00010000
00000010
00000000
00000010
,
00000100
00000001
00000010
00002100
,
00000000
00000000
00000002
00003003
,
00000010
00000000
00000001
00000000
00000100
00001000
00010000
00000000
,
01000000
00000000
10000000
00010000
01000000
00000000
00101000
00000000
,
00011000
00001100
00000002
00000010
,
00000013
00000000
00001000
00000000
00010000
01000000
10000000
00000000
,
00010000
00000000
00100000
00001000
00010000
00000000
00001010
00000000
,
00000011
00001100
00000002
00001000
,
00001003
00000000
00000100
00000000
00001000
00000100
00010000
00000000
,
00001000
00000000
00100000
00010000
01000000
00000000
10100000
00000000
,
00101000
01010000
20000000
01000000
,
31000000
00000000
00100000
00000000
00010000
00001000
00000100
00000000
,
00000010
00000000
00000001
00001000
00000010
00000000
00000001
00000000
,
00000100
00001000
00011000
00010000
,
01000000
10000000
00100000
00010000
00001000
00000000
00000010
00000000
,
00000001
00000000
00001000
00000000
00000100
00000001
00000010
00001000
,
00010000
00100000
01000000
00010000
,
10000000
01000000
00100000
00000000
01000000
00000000
00010000
00001000
,
00000100
00000001
00000010
00001000
,
00010000
00001000
00000100
00000001
,
00001000
00000010
00010000
00001000
00100000
00000000
01000000
00000000
,
10000000
00000000
00010000
00000000
01000000
00100000
00010000
00001000
,
00000010
00000101
00000011
00001000
,
00010000
01000000
00000000
01000000
00100000
00000000
00010000
00000000
,
01000000
00200000
00000000
00300000
,
00010000
00000000
00001000
00000000
00000100
00000000
00000010
00000000
00000000
00000000
00000000
00000000
00001000
00000000
00000000
00000100
00000000
00000000
00000001
00000000
00000000
00000100
00000000
00000000
,
00001000
00000000
00010000
00000000
00100000
00000000
00010000
01000000
,
10000000
01000000
00010000
00000000
00001000
00000000
00000010
00000000
,
00001000
00000100
00000001
00000100
00001000
00000000
00010000
00000000
,
00100000
00000000
00010000
01000000
10000000
01000000
00010000
00000000
,
00001000
00000000
00000010
00000000
00001000
00000100
00000001
00000100
,
00001000
00000000
00010000
00000000
00100000
00000000
00010000
01000000
,
10000000
01000000
00010000
00000000
00001000
00000000
00000010
00000000
,
00001000
00000100
00000001
00000100
00001000
00000000
00010000
00000000
,
00100000
00000000
00010000
01000000
10000000
01000000
00010000
00000000
,
10000000
00000000
00100000
01000000
00001000
00010000
00000100
00000010
,
00000001
00000000
00000001
00000000
00000100
00000010
00010000
00001000
,
00100000
01000000
10000000
00000000
10000000
00000000
00100000
01000000
,
00001000
00010000
00000100
00000010
00000001
00000000
00000001
00000000
,
00000100
00000010
00010000
00001000
00100000
01000000
10000000
00000000
,
10000000
00000000
10100000
00000000
00010000
01000000
00100000
00000000
,
00011000
00000000
00000010
00001000
00000100
00000000
00000011
00000000
,
00001000
00000001
00000100
00000000
00001010
00000000
00011000
00000000
,
00110000
01000000
01000000
01000000
,
01000000
00100000
01000000
00100000
01000000
00000000
20020000
00000000
,
00000000
00000000
00000000
00000000
,
00000000
00000000
00000000
00000000
,
00000000
00000000
00000000
00000000
00000000
00000000
30030000
00000000
00000000
00100000
00000000
00100000
,
10000000
00000000
10000000
01000000
00010000
00001000
00000100
00000000
00000000
00000010
00000000
00000010
,
00000100
00000000
00000100
00001000
00000000
00001000
00010000
00001000
00000010
00000110
00000000
00010000
,
00011000
00000000
00100000
00110000
01000000
10000000
01010000
00000000
00000000
00011000
00000000
00000010
,
00001010
00000000
00000001
00000010
00000001
00000100
00001000
00010000
00100000
10000000
00000000
00000000
,
01000000
00010000
00001000
00000000
00000100
00000000
00000001
00001000
,
00000100
00010010
00011000
01010000
,
20000000
00100000
30100000
00010000
,
00001000
00000100
00000001
00000000
00001000
00000000
00000010
00010000
,
00001000
00110000
10100000
01010000
,
20000000
00010000
30010000
01000000
,
00010000
01000000
00001000
00000000
00010000
00000000
00000010
00001000
,
00000100
00000011
00010010
00001100
,
00000002
00000100
00000103
00000010
,
00001000
00010000
01000000
00000000
00100000
00000000
00001000
00010000
,
00100000
01000000
00010000
00100000
,
01000000
00010000
00001000
00000010
00000100
00001000
00000001
00000000
,
00000100
00001000
00010000
01000000
10000000
00000000
10100000
00000000
,
01010000
00000000
00100000
00000000
01000000
00010000
00001000
00000010
,
00000002
00000100
00000103
00001000
,
00010000
01000000
10000000
01000000
00100000
00000000
00101000
00000000
,
00010100
00000000
00000010
00000000
00000010
00001000
00000100
00000010
,
00000002
00000100
00000013
00001100
,
00010000
00001000
00000000
01000000
00010000
00000000
10000000
00000000
,
00100000
00000000
01010000
00000000
00100000
00010000
00000000
00001000
,
00010000
00000100
00000010
00011000
,
00000100
00001000
00000010
00000000
00011000
00000000
01000000
00010000
,
00100000
00000000
01000000
00010000
00001000
00000100
00000001
00000000
,
00002002
00000000
00000000
00000000
,
00000000
00000000
00000000
00000000
,
00003003
00000000
00000000
00000000
,
00000000
00000000
00000000
00000000
;

//---------------dance-double - ----------------
#NOTES:
     dance-double:
     :
     Challenge:
     13:
     0.543901,0.781329,0.212544,0.138616,0.115513,412.000000,389.000000,23.000000,15.000000,384.000000,0.000000,0.543901,0.781329,0.212544,0.138616,0.115513,412.000000,389.000000,23.000000,15.000000,384.000000,0.000000:
00000000
00000000
00000000
00000000
,
00000000
00000000
00000000
00000000
,
00000000
00000000
00001000
00000000
00000010
00000001
00000100
00001000
,
00010000
01000000
MMMMMMMM
00010000
,
00100000
10000000
01000000
00010000
00001000
00000000
00000100
00000000
,
MMMMMMMM
00000000
00001000
00000000
00000001
00000010
00000100
00000000
,
00000010
00000000
00001000
00010000
00100000
00000000
00010000
00000000
,
00010000
MMMMMMMM
00010000
00010000
,
01000000
00000000
10000000
00000000
00010000
01000000
00001000
00010000
,
00000100
00000010
MMMMMMMM
00001000
,
00000010
00000100
00001000
00010000
00100000
00000000
10100000
00000000
,
01010000
00000000
00001000
00000000
00010000
00000010
00000000
00000010
,
00000100
00000001
00000010
00002100
,
00000000
00000000
00000002
00003003
,
MMMMMMMM
00000000
00000001
00000000
00000100
00001000
00010000
00000000
,
01000000
00000000
10000000
00010000
01000000
00000000
MMMMMMMM
00000000
,
00011000
MMMMMMMM
00000002
00000010
,
00000013
00000000
00001000
00000000
00010000
01000000
10000000
00000000
,
00010000
00000000
00100000
00001000
00010000
00000000
MMMMMMMM
00000000
,
00000011
MMMMMMMM
00000002
00001000
,
00001003
00000000
00000100
00000000
00001000
00000100
00010000
00000000
,
00001000
00000000
00100000
00010000
01000000
00000000
MMMMMMMM
00000000
,
00101000
MMMMMMMM
20000000
01000000
,
31000000
00000000
00100000
00000000
00010000
00001000
00000100
00000000
,
00000010
00000000
00000001
00001000
00000010
00000000
00000001
00000000
,
00000100
00001000
MMMMMMMM
00010000
,
01000000
10000000
00100000
00010000
00001000
00000000
MMMMMMMM
00000000
,
00000001
00000000
00001000
00000000
00000100
00000001
00000010
00001000
,
00010000
MMMMMMMM
01000000
00010000
,
10000000
01000000
00100000
00000000
01000000
00000000
00010000
00001000
,
00000100
00000001
00000010
MMMMMMMM
,
00010000
00001000
00000100
00000001
,
00001000
00000010
00010000
00001000
00100000
00000000
MMMMMMMM
00000000
,
10000000
00000000
00010000
00000000
01000000
00100000
00010000
00001000
,
00000010
00000101
00000011
00001000
,
00010000
01000000
00000000
01000000
00100000
00000000
00010000
00000000
,
MMMMMMMM
00200000
00000000
00300000
,
00010000
00000000
00001000
00000000
00000100
00000000
00000010
00000000
00000000
00000000
00000000
00000000
00001000
00000000
00000000
00000100
00000000
00000000
00000001
00000000
00000000
00000100
00000000
00000000
,
00001000
00000000
MMMMMMMM
00000000
00100000
00000000
00010000
01000000
,
10000000
01000000
00010000
00000000
MMMMMMMM
00000000
00000010
00000000
,
00001000
00000100
00000001
00000100
00001000
00000000
MMMMMMMM
00000000
,
00100000
00000000
00010000
01000000
10000000
01000000
00010000
00000000
,
MMMMMMMM
00000000
00000010
00000000
00001000
00000100
00000001
00000100
,
00001000
00000000
MMMMMMMM
00000000
00100000
00000000
00010000
01000000
,
10000000
01000000
00010000
00000000
MMMMMMMM
00000000
00000010
00000000
,
00001000
00000100
00000001
00000100
00001000
00000000
MMMMMMMM
00000000
,
00100000
00000000
00010000
01000000
10000000
01000000
00010000
00000000
,
MMMMMMMM
00000000
00100000
01000000
00001000
00010000
00000100
00000010
,
00000001
00000000
MMMMMMMM
00000000
00000100
00000010
00010000
00001000
,
00100000
01000000
10000000
00000000
MMMMMMMM
00000000
00100000
01000000
,
00001000
00010000
00000100
00000010
00000001
00000000
MMMMMMMM
00000000
,
00000100
00000010
00010000
00001000
00100000
01000000
10000000
00000000
,
MMMMMMMM
00000000
10100000
00000000
00010000
01000000
00100000
00000000
,
00011000
00000000
00000010
00001000
00000100
00000000
00000011
00000000
,
00001000
00000001
00000100
00000000
00001010
00000000
MMMMMMMM
00000000
,
00110000
01000000
01000000
01000000
,
01000000
00100000
01000000
00100000
01000000
00000000
20020000
00000000
,
00000000
00000000
00000000
00000000
,
00000000
00000000
00000000
00000000
,
00000000
00000000
00000000
00000000
00000000
00000000
30030000
00000000
00000000
00100000
00000000
00100000
,
10000000
00000000
10000000
01000000
00010000
00001000
00000100
00000000
00000000
00000010
00000000
00000010
,
00000100
00000000
00000100
00001000
00000000
00001000
00010000
00001000
00000010
MMMMMMMM
00010000
00010000
,
MMMMMMMM
00100000
00100000
MMMMMMMM
01000000
10000000
01010000
00000000
00000000
MMMMMMMM
00000010
00000010
,
MMMMMMMM
00000001
00000001
00000010
00000001
00000100
00001000
00010000
00100000
10000000
00000000
00000000
,
01000000
00010000
00001000
00000000
00000100
00000000
00000001
00001000
,
00000100
MMMMMMMM
00011000
MMMMMMMM
,
20000000
00100000
30100000
00010000
,
00001000
00000100
00000001
00000000
00001000
00000000
00000010
00010000
,
00001000
MMMMMMMM
10100000
MMMMMMMM
,
20000000
00010000
30010000
01000000
,
00010000
01000000
00001000
00000000
00010000
00000000
00000010
00001000
,
00000100
MMMMMMMM
00010010
MMMMMMMM
,
00000002
00000100
00000103
00000010
,
00001000
00010000
01000000
00000000
00100000
00000000
00001000
00010000
,
00100000
MMMMMMMM
00010000
MMMMMMMM
,
01000000
00010000
00001000
00000010
00000100
00001000
00000001
00000000
,
00000100
00001000
00010000
01000000
10000000
00000000
10100000
00000000
,
01010000
00000000
00100000
00000000
01000000
00010000
00001000
00000010
,
00000002
00000103
MMMMMMMM
00001000
,
00010000
01000000
10000000
01000000
00100000
00000000
00101000
00000000
,
00010100
00000000
00000010
00000000
00000010
00001000
00000100
00000010
,
00000002
00000100
00000013
MMMMMMMM
,
00010000
00001000
00000000
01000000
00010000
00000000
10000000
00000000
,
00100000
00000000
MMMMMMMM
00000000
00100000
00010000
00000000
00001000
,
00010000
00000100
00000010
MMMMMMMM
,
00000100
00001000
00000010
00000000
MMMMMMMM
00000000
01000000
00010000
,
00100000
00000000
01000000
00010000
00001000
00000100
00000001
00000000
,
00002002
00000000
00000000
00000000
,
00000000
00000000
00000000
00000000
,
00003003
00000000
00000000
00000000
,
00000000
00000000
00000000
00000000
;

//---------------dance-single - CHALLENGE----------------
#NOTES:
     dance-single:
     :
     Edit:
     17:
     0.983510,1.809394,0.748524,0.480534,0.503636,745.000000,664.000000,81.000000,52.000000,0.000000,0.000000,0.983510,1.809394,0.748524,0.480534,0.503636,745.000000,664.000000,81.000000,52.000000,0.000000,0.000000:
// measure 0
0000
0000
0000
0000
,  // measure 1
0000
0000
0000
0000
,  // measure 2
0000
0000
1001
0000
1000
0010
0001
0010
,  // measure 3
2000
0100
3001
0010
,  // measure 4
0001
0100
1000
0100
0002
0000
1000
0000
,  // measure 5
0103
0000
1020
0000
1030
0001
0010
0001
,  // measure 6
2001
0000
3010
0100
0010
1000
1200
0000
,  // measure 7
0010
0000
0301
0100
0020
0000
1000
0000
,  // measure 8
1030
0000
0201
0000
0310
1000
0100
1000
,  // measure 9
1002
0100
0013
2001
,  // measure 10
3001
0010
0100
0010
1010
0000
0011
0000
,  // measure 11
0101
0000
0010
0100
1000
0010
0000
0010
,  // measure 12
0002
0000
0000
0000
2003
0000
0000
0000
3020
0000
0000
0000
0130
0001
0100
0001
,  // measure 13
0100
0001
0100
0001
1000
0010
1000
0010
1000
0010
1000
0010
1000
0010
1000
0010
,  // measure 14
0100
0001
1000
0001
0100
1000
0201
0000
,  // measure 15
0302
0000
1003
0100
0001
0100
0011
0000
,  // measure 16
0101
0000
1010
0100
0010
1000
0100
0010
,  // measure 17
1000
0010
0021
0000
1030
0100
0010
1000
,  // measure 18
2010
0000
3001
0010
1000
0010
0011
0000
,  // measure 19
1010
1001
2001
0010
,  // measure 20
3001
0000
0010
1000
0010
0001
0200
0000
,  // measure 21
2300
0000
3100
0001
0010
0000
0110
0000
,  // measure 22
1100
0000
1000
0100
0010
0001
0100
1000
,  // measure 23
0100
0000
0201
0000
1300
0100
0001
0010
,  // measure 24
0012
0000
0000
0000
0013
0000
1000
0000
0010
0000
0000
0000
0001
0010
0001
0010
,  // measure 25
0001
0010
0100
1000
0100
1000
0100
1000
0001
0000
0000
0000
2001
0000
0000
0000
,  // measure 26
3010
0000
0100
0000
0001
0010
0001
0000
0210
0000
0000
0000
1000
0000
0000
0000
,  // measure 27
0301
0000
0000
0000
0201
0000
0000
0000
1300
0000
0100
0000
0010
0000
0100
0010
,  // measure 28
0200
0001
1300
0201
,  // measure 29
0310
0100
0001
1000
1002
0000
0103
0010
,  // measure 30
0001
1000
0020
0000
0100
0000
0031
0000
,  // measure 31
0201
1000
0301
0021
,  // measure 32
0130
1000
0100
0010
0002
0000
1000
0000
,  // measure 33
0103
0000
0000
0000
2010
0000
0000
0000
3001
0000
0100
0000
0010
0100
0010
0000
,  // measure 34
1100
0000
0110
0000
0001
0100
1000
0100
,  // measure 35
0010
1000
0000
0100
0120
0000
0032
0000
,  // measure 36
1003
0220
0000
0330
,  // measure 37
0010
0000
1001
0000
0110
0000
0001
0000
0000
0010
0000
0000
1000
0000
0000
0010
0000
0000
0001
0000
0000
1000
0000
0000
,  // measure 38
0100
0000
0010
0000
0001
0010
0001
0000
0010
0000
1000
0000
0010
0000
0100
0000
,  // measure 39
0001
0000
0100
0000
1000
0000
0100
0000
0010
0100
0010
0000
0001
0000
1000
0000
,  // measure 40
0001
0000
0100
0000
1000
0000
0100
0000
0001
0010
0001
0000
0100
0000
0001
0000
,  // measure 41
1000
0000
0010
0000
0100
0000
0010
0000
0001
0000
0010
0000
1000
0100
1000
0000
,  // measure 42
0010
0100
0001
0010
0100
0001
0100
1000
,  // measure 43
0001
0100
0001
0000
1000
0001
1000
0000
0010
0000
0100
0000
0001
0000
0100
0000
,  // measure 44
1000
0000
0100
0000
0001
0010
0001
0000
0010
0001
0010
0000
0100
0000
1000
0000
,  // measure 45
0010
0000
1000
0000
0001
0000
0100
0000
0010
1000
0010
0000
1000
0010
1000
0000
,  // measure 46
0100
0000
0010
0000
0001
0000
0010
0000
0100
0000
1000
0000
0001
0100
0001
0000
,  // measure 47
0100
0010
1000
0001
0010
0001
0100
0010
,  // measure 48
1010
1000
1001
0000
0101
0001
0010
1000
,  // measure 49
0010
0001
1001
1000
1010
0000
0101
0001
,  // measure 50
1000
0000
0010
0000
0100
0000
0010
0000
0001
0000
0010
0100
0010
0000
0100
0000
,  // measure 51
0001
0010
0100
1000
0100
0010
0110
0100
,  // measure 52
1100
0000
1001
0001
0010
0001
1001
1000
,  // measure 53
1010
0010
0100
0001
0010
0001
0101
0100
,  // measure 54
0010
1000
0100
0010
0011
0001
0100
1000
,  // measure 55
0100
0000
0001
0000
0010
0100
0010
0100
0010
1000
0010
1000
0010
0001
0010
0001
,  // measure 56
0100
0010
0100
0010
1000
0001
1000
0001
0100
0010
0100
0010
0001
0000
1000
0000
,  // measure 57
0001
1000
0001
1000
0001
1000
0001
1000
,  // measure 58
0001
1000
0001
1000
0001
1000
0001
1000
,  // measure 59
0001
0000
0000
1000
0000
0000
0001
0000
0000
1000
0000
0000
0001
0000
0000
1000
0000
0000
0010
0000
0110
0000
1000
0000
,  // measure 60
1100
0000
0100
0000
0001
0000
1001
0000
0001
1000
0001
1000
0020
0000
0000
0000
0000
0000
0130
0000
0011
0000
0100
0000
,  // measure 61
1000
0000
0001
0000
0010
0000
0110
0000
0000
0100
1000
0010
0100
0001
0010
0100
1000
0001
0110
0000
0100
0000
1000
0000
,  // measure 62
0001
0100
0010
0000
0100
0000
0101
0000
0001
0010
0100
1000
1001
0000
1000
0000
0100
0000
0110
0000
0001
0100
0010
1000
,  // measure 63
1010
0000
0000
0000
0000
0000
0000
0000
0010
0000
0000
0000
0000
0000
0000
0000
0100
0000
0000
0000
0000
0000
0000
0000
0001
0000
0000
0000
0000
0000
0000
0000
0010
0000
0000
0000
0000
0000
0000
0000
0100
0000
0000
0000
0000
0000
0000
0000
1000
0000
0000
0000
0000
0000
0000
0000
0100
0000
0000
0000
0000
0000
0000
0000
0001
0000
0000
0000
0000
0000
0000
0000
0100
0000
0000
0000
0000
0000
0000
0000
1000
0000
0000
0000
0000
0000
0000
0000
0010
0000
0000
0000
0000
0000
0000
0000
0100
0000
0000
0000
0000
0000
0000
0000
0001
0000
0000
0000
0000
0000
0000
0000
0010
0000
0000
0000
0000
0000
0000
0000
0100
0000
0000
0000
0000
0000
0000
0000
0010
0000
0001
0000
0000
0000
0000
0000
0000
0000
0000
0000
0000
0000
0000
0000
0001
0000
0000
0000
0000
0000
0000
0000
0000
0000
0000
0000
0000
0000
0000
0000
0000
0000
0000
0000
0000
0000
0000
0000
0100
0000
0000
0000
0000
0000
0000
0000
0000
0000
0000
0000
0000
0000
0000
0000
0000
0000
0000
0000
0000
0000
0000
0000
,  // measure 64
1000
0100
0002
0000
2003
0000
3001
0100
,  // measure 65
1000
1100
0101
1001
,  // measure 66
1000
0010
0100
0010
0001
0010
2010
0000
,  // measure 67
3001
0100
1000
0100
0002
0000
1003
0100
,  // measure 68
0010
0011
0101
1010
,  // measure 69
1000
0100
0001
0100
1000
0100
0120
0000
,  // measure 70
0031
0010
0100
0010
0002
0000
0013
1000
,  // measure 71
0010
0000
0001
0000
0010
0100
0010
0000
0100
1000
0100
0000
0010
0001
0010
0000
,  // measure 72
0100
1000
0001
0100
0110
0000
2001
0000
,  // measure 73
3001
0000
0010
0000
0100
0000
0010
0000
0001
1000
0001
0000
0010
0000
0100
0000
,  // measure 74
0001
0000
0100
0000
1000
0010
1000
0010
0100
0000
0001
0000
1000
0000
0100
0000
,  // measure 75
0001
0100
0001
0100
1000
0100
1000
0100
0010
0001
0010
0001
0200
0000
0000
0000
,  // measure 76
0310
1000
0001
1000
2100
0000
3001
0100
,  // measure 77
0010
1000
0001
0100
1100
1000
1100
0100
,  // measure 78
0002
0000
0013
0100
1000
0001
0021
0000
,  // measure 79
0130
0000
1000
0000
0001
0000
0010
0000
0001
1000
0001
0000
0100
0000
0010
0000
,  // measure 80
1000
0000
0100
0000
0010
0100
0010
0000
0001
1000
0001
0000
0100
0001
0100
0000
,  // measure 81
0012
1003
0100
0012
,  // measure 82
0013
1000
0000
0010
0001
1000
0001
0000
,  // measure 83
0101
0000
1010
0000
1000
0100
0000
0100
,  // measure 84
0001
0000
0100
0000
1000
0000
0010
0000
1000
0000
0000
0000
1000
0001
1000
0000
,  // measure 85
0001
0100
0001
0100
0110
0000
0001
0100
,  // measure 86
1000
0000
0100
0000
0010
1000
0010
1000
0001
0010
0001
0010
0100
1000
0100
0000
,  // measure 87
2002
0000
0000
0000
,  // measure 88
0000
0000
0000
0000
,  // measure 89
3003
0000
0000
0000
;
