#TITLE:Remain;
#SUBTITLE:;
#ARTIST:ZERO+ZIBA;
#TITLETRANSLIT:;
#SUBTITLETRANSLIT:;
#ARTISTTRANSLIT:;
#GENRE:;
#CREDIT:;
#BANNER:Remain.png;
#BACKGROUND:Remain-bg.png;
#LYRICSPATH:;
#CDTITLE:;
#MUSIC:Remain.ogg;
#OFFSET:0.000000;
#SAMPLESTART:84.396004;
#SAMPLELENGTH:15.000000;
#SELECTABLE:YES;
#DISPLAYBPM:75.000000:300.000000;
#BPMS:0.000000=150.000000
,83.000000=75.000000
,131.000000=150.000000
,159.000000=75.000000
,161.000000=300.000000
,293.000000=150.000000
;
#STOPS:83.000000=0.400000
;
#BGCHANGES:;
#KEYSOUNDS:;
#ATTACKS:;

//---------------dance-single - ----------------
#NOTES:
     dance-single:
     :
     Beginner:
     5:
     0.170443,0.270731,0.056814,0.064931,0.000000,147.000000,140.000000,7.000000,8.000000,0.000000,0.000000,0.170443,0.270731,0.056814,0.064931,0.000000,147.000000,140.000000,7.000000,8.000000,0.000000,0.000000:
0000
0000
0000
0000
,
0000
0000
0000
0000
,
0000
0000
0000
0000
,
0000
0000
0000
0000
,
0000
0000
0000
0000
,
1001
0000
0000
0000
,
0000
0000
0000
0000
,
0000
0000
0000
0000
,
0000
0000
0000
0000
,
1000
1000
1000
0000
,
0001
0001
0001
0000
,
1000
1000
1000
0000
,
0001
0001
0001
0000
,
0010
0010
0010
0010
,
0010
0010
0010
0000
,
0100
0100
0100
0000
,
1001
0000
0000
0000
,
0001
0001
0001
0000
,
0100
0100
0100
0000
,
0010
0010
0010
0000
,
1000
0000
0100
0000
,
0100
0100
0000
0001
,
0000
1001
1001
0000
,
0100
0100
0100
0000
,
0010
0010
0010
0000
,
0010
0000
0010
0000
,
0000
0200
0300
0000
,
0001
0000
1000
2000
,
0000
3000
0000
0001
,
0001
0001
0000
0010
,
0010
0100
0000
0001
,
0000
1000
0000
0001
,
0000
1000
0000
0010
,
0010
0010
0000
0001
,
0001
0001
0000
0010
,
0010
0010
0000
1000
,
1000
1000
0000
0001
,
0001
0001
0001
0001
,
0001
0001
0000
1000
,
0000
0001
0000
1001
,
0000
1000
0000
0000
,
0000
0001
0000
0000
,
0000
1000
0000
0000
,
0000
1000
0000
0000
,
0000
0001
0000
0001
,
0000
0100
0000
0100
,
0000
1000
0000
1000
,
0000
0100
0000
0100
,
0000
1000
0000
0001
,
0000
0100
0000
0000
,
0000
0001
0000
1000
,
0000
0010
0000
0000
,
0000
0001
0000
1000
,
0000
0010
0000
0001
,
0000
0001
0000
0100
,
0000
1001
0000
0000
,
0000
0001
0000
0100
,
0000
0020
0000
0030
,
0000
0001
0000
0010
,
0000
0200
0000
0300
,
0000
1000
0000
0100
,
0000
0002
0000
0003
,
0000
1000
0000
0001
,
0000
0200
0000
0300
,
0000
1000
0000
0001
,
0000
0010
0000
0001
,
0000
1000
0000
0100
,
0000
1000
0000
0100
,
0000
0010
0000
1000
,
0000
0010
0000
0001
,
0000
0100
0000
0010
,
0000
0100
0100
0100
,
0100
0000
0000
0000
,
0000
2002
0000
0000
,
0000
3003
0000
0000
0000
0000
0000
0000
,
0000
0000
0000
0000
;

//---------------dance-single - ----------------
#NOTES:
     dance-single:
     :
     Easy:
     9:
     0.244650,0.391056,0.137978,0.048698,0.000000,211.000000,194.000000,17.000000,6.000000,0.000000,0.000000,0.244650,0.391056,0.137978,0.048698,0.000000,211.000000,194.000000,17.000000,6.000000,0.000000,0.000000:
0000
0000
0000
0000
,
0000
0000
0000
0000
,
0000
0000
0000
0000
,
0000
0000
0000
0000
,
0000
0000
0000
0000
,
1001
0000
0000
0000
,
0000
0000
0000
0000
,
0000
0000
0000
0000
,
0000
0000
0000
0000
,
1000
0001
0100
0001
,
0001
1000
0100
0000
,
1001
1000
0100
1000
,
1000
0001
0100
0000
,
1000
1000
0010
1000
,
0010
0010
0100
0000
,
1000
0100
1000
0100
,
2000
0000
0000
3000
,
0001
0100
0010
0000
,
0100
0010
0001
0000
,
0001
0010
0001
1000
,
0001
0000
0100
0000
,
0110
1000
0100
0001
,
0100
0000
1001
0000
1001
0000
0100
0100
,
0100
1000
0001
1000
,
0010
0001
0010
1001
,
0110
1001
0110
0000
,
0000
0200
0300
0110
,
1001
0110
1001
0220
,
0000
0000
0330
0001
,
1000
0001
0010
1000
,
0010
0100
1000
0001
,
1000
0001
1000
0001
,
1000
0100
0000
0010
,
0010
0010
1000
0001
,
0001
1000
0000
0001
,
0010
1000
0010
0001
,
0010
1000
0000
1000
,
0100
1000
0100
0001
,
0100
0001
0100
1000
,
0010
0001
0100
1001
,
0000
1000
0001
0100
,
0010
0001
0000
0001
,
0000
1000
0001
0010
,
0100
1000
0000
1000
,
0000
0001
1000
0001
,
0000
0100
0010
0100
,
0000
0001
0010
0001
,
0000
1000
0000
0000
,
0001
1000
0000
0100
,
0010
0100
0000
0000
,
0000
0100
0000
0001
,
0000
0010
0001
0010
,
0000
0001
0100
1000
,
0000
0100
0000
0001
,
0000
0001
0000
0100
,
0000
1001
0000
0000
,
0000
0001
1000
0100
,
1000
0010
0000
0000
,
0000
1000
0001
0010
,
0100
1000
0000
0000
,
0000
0001
0010
0100
,
0001
0100
0000
0000
,
0000
1000
0100
0001
,
0100
1000
0000
0000
,
0000
1000
0000
0001
,
0000
0010
1000
0001
,
0000
1000
0001
0100
,
0000
0001
0010
0100
,
0000
0001
1000
0010
,
0100
0001
1000
0001
,
0100
0010
1000
0010
,
0000
0100
0100
0100
,
0100
0000
0000
0000
,
0000
2002
0000
0000
,
0000
3003
0000
0000
0000
0000
0000
0000
,
0000
0000
0000
0000
;

//---------------dance-single - ----------------
#NOTES:
     dance-single:
     :
     Medium:
     12:
     0.408137,0.782112,0.219142,0.073047,0.077105,352.000000,325.000000,27.000000,9.000000,0.000000,0.000000,0.408137,0.782112,0.219142,0.073047,0.077105,352.000000,325.000000,27.000000,9.000000,0.000000,0.000000:
0000
0000
0000
0000
,
0000
0000
0000
0000
,
0000
0000
0000
0000
,
0000
0000
0000
0000
,
0000
0000
0000
0000
,
1001
0000
0000
0000
,
1000
0010
0100
0001
0000
0000
0000
0000
,
0100
0010
0100
0001
0000
0000
0000
0000
,
0010
0100
1000
0001
0000
0000
0000
0000
,
1010
0000
0001
0000
0100
1000
0001
0010
,
0001
0000
1000
0000
0100
1000
0001
1000
,
0011
0000
1000
0000
0100
0001
1000
0010
,
1000
0000
0001
0000
0100
0001
1000
0100
,
1000
0100
1000
0001
0010
0001
0010
0001
,
0010
0001
0010
0001
0100
0010
1000
0100
,
1000
0100
1000
0100
1000
0010
0100
0010
,
2000
0000
0000
3000
,
0001
0000
0001
0000
0010
0000
0001
0100
,
0001
0100
0001
1000
0010
0100
0001
0100
,
0001
0000
0010
0000
0001
0000
0001
1000
,
0001
0010
0001
1000
0100
0010
1001
0000
,
1001
0000
0110
0000
1001
0000
0011
0000
1100
0000
0000
0000
0100
0001
1000
0000
,
0100
1000
0001
0000
1001
0000
0110
0000
1001
0000
0000
0000
0010
0000
0100
0000
,
1001
0000
0000
0000
1000
0001
0100
0000
0001
0000
0100
0000
1100
0000
0011
0000
,
1000
0000
0001
0000
1000
0000
0100
0000
0010
0100
0000
1000
0100
0010
0100
0001
,
0100
0010
1001
0100
1001
0000
0000
0000
,
0000
0000
0000
0000
1000
0100
0010
0001
1000
0000
0000
0000
0110
0000
0000
0000
,
2200
3300
0110
0000
0202
0303
0220
0000
,
0000
0000
0000
0330
0000
0000
1000
0100
,
1000
0010
1000
0001
,
1000
0010
1000
0001
,
0100
0000
0000
0000
0000
0000
0100
0001
0010
0100
0000
0000
0010
0000
0000
0000
0000
0000
1000
0000
0000
1000
0000
0000
,
0001
0000
0000
0001
0000
0000
0100
0010
0100
0001
1000
0100
0010
0000
0000
0000
0000
0000
0010
0000
0000
0000
0000
0000
,
0010
0000
0010
0000
0001
0100
0001
1000
,
0001
0001
0010
0001
,
0010
0000
0001
0000
0010
1000
0001
1000
,
0010
0010
0001
1000
,
1000
0010
0010
0001
,
0001
0000
0001
0000
1000
0000
1000
0001
,
1000
0001
1000
0001
0100
0000
1000
0100
,
1000
0100
1000
0001
0000
0000
1000
0000
0000
0000
0000
0000
0001
0000
0000
0000
0000
0000
0100
0000
0000
0000
0000
0000
,
1000
0000
0001
0010
0001
0000
1000
0000
,
0001
1000
0100
0001
,
0100
0000
1000
0100
1000
0000
0001
0000
,
0000
0000
0001
0000
0010
0001
0000
1000
,
0010
0100
0001
0100
,
0010
0000
0001
0100
0001
0000
0000
0000
,
1000
0000
0100
0000
0000
1001
0000
0000
,
0010
0000
0001
1000
0001
1000
0000
0000
,
0100
0010
0100
1000
,
0000
0000
1000
0010
1000
0010
0000
0000
,
1000
0001
1000
0001
,
0000
0000
1000
0000
0001
0000
0000
1000
,
0000
0001
0000
0000
0010
0000
0001
0000
,
1000
0000
0001
1000
0100
0000
0000
0001
,
0000
0100
0001
0000
0000
0000
0000
0000
,
0000
0000
1000
0100
1000
0000
0001
0000
,
1000
0010
0000
0000
,
0000
0000
0001
0010
0001
0000
1000
0000
,
0001
0100
0000
0000
,
0000
0000
1000
0100
1000
0000
0001
0000
,
1000
0100
0000
0000
,
0000
0000
1000
0010
1000
0000
0001
0000
,
0010
0100
0000
0000
,
0000
1000
0000
0001
,
0000
0000
0001
1000
0001
0000
0100
0000
,
0000
0000
0001
0010
0001
0000
0100
0000
,
0010
0000
1000
0010
1000
0000
0001
0000
,
0000
0010
0100
0001
,
1000
0000
0100
0010
0100
0000
0010
0100
,
1000
0100
0010
0000
0100
0000
0010
0000
,
0001
0000
0000
1001
0000
0000
0000
0110
0000
0000
0000
1001
,
0000
0000
0000
0000
,
0000
2002
0000
0000
,
0000
3003
0000
0000
0000
0000
0000
0000
,
0000
0000
0000
0000
;

//---------------dance-single - ----------------
#NOTES:
     dance-single:
     :
     Hard:
     15:
     0.592494,1.233331,0.251607,0.048698,0.397701,511.000000,480.000000,31.000000,6.000000,0.000000,0.000000,0.592494,1.233331,0.251607,0.048698,0.397701,511.000000,480.000000,31.000000,6.000000,0.000000,0.000000:
0000
0000
0000
0000
,
0000
0000
0000
0000
,
0000
0000
0000
0000
,
0000
0000
0000
0000
,
0000
0000
0000
0000
,
1001
0000
0000
0000
,
0000
0000
0000
0000
,
0000
0000
0000
0000
,
0000
0000
0000
0000
,
1010
0000
0000
0000
0001
0000
0000
1000
0100
0000
1000
0000
0001
0000
0010
0000
,
0001
0000
0000
0000
1000
0000
0000
0001
0100
0000
0001
0000
1000
0100
1000
0000
,
0011
0000
0000
0000
1000
0000
0000
0001
0100
0000
0001
0000
1000
0000
0010
0000
,
1000
0000
0000
0000
0001
0000
0000
1000
0100
0000
1000
0000
0001
0010
0001
0000
,
1000
0100
1000
0001
0010
0100
1000
0100
,
0010
0001
0010
0001
0100
0010
1000
0100
,
1000
0100
1000
0010
0100
0001
0010
0100
1000
0001
0010
0001
0100
0010
0100
0001
,
2000
0000
0000
3000
,
0001
0100
0001
1000
0010
0100
0001
0100
,
0001
0100
0001
1000
0010
0100
0001
0100
,
0001
1000
0010
0100
0001
0010
0001
1000
,
0001
0010
0001
1000
0100
0010
1001
0001
,
1000
0000
0001
0000
1000
0000
0001
0000
1000
0000
0001
0000
1000
0000
0100
0000
0010
0000
0001
0000
0010
0000
0100
0000
1000
0000
0000
0000
0011
0000
0000
0000
1001
0000
0000
0000
0100
0000
0000
0001
0000
0000
1000
0000
0000
0000
0000
0000
,
0100
0000
1000
0000
0001
0000
0000
0000
1001
0000
0000
0000
0110
0000
0000
0000
1000
0000
0100
0000
0010
0000
0001
0000
0010
0100
1000
0100
1000
0100
1000
0100
,
1000
0001
0100
0010
1000
0001
0100
0010
1000
0001
1000
0100
1100
0000
0011
0000
,
1000
0000
0000
0000
0000
0000
0000
0000
0001
0000
0000
0000
0000
0000
0000
0000
1000
0000
0000
0000
0000
0000
0000
0000
0001
0000
0000
0000
0000
0000
0000
0000
1000
0000
0000
0000
0000
0000
0000
0000
0001
0000
0000
0000
0000
0000
0000
0000
1000
0000
0000
0000
0000
0000
0100
0000
0000
0000
0000
0000
1000
0000
0000
0000
0000
0000
0100
0000
0000
0000
0000
0000
1000
0000
0000
0000
0000
0000
0000
0000
0000
0000
0000
0000
0000
0000
0000
0000
0000
0000
0000
0000
0000
0000
0000
0000
0010
0000
0000
0000
0000
0000
0000
0000
0000
0000
0000
0000
0100
0000
0000
0000
0000
0000
0000
0000
0000
0000
0000
0000
0001
0000
0000
0000
0000
0000
0000
0000
0000
0000
0000
0000
1000
0000
0000
0000
0000
0000
0000
0000
0000
0000
0000
0000
0001
0000
0000
0000
0000
0000
0000
0000
0000
0000
0000
0000
0010
0000
0000
0000
0000
0000
0000
0000
0000
0000
0000
0000
0100
0000
0000
0000
0000
0000
0000
0000
0000
0000
0000
0000
1000
0000
0000
0000
0000
0000
0000
0000
0000
0000
0000
0000
,
0110
0010
1002
0103
1001
0000
0000
0000
,
0000
0000
0000
0000
1000
0100
0010
0001
1100
0000
0000
0000
0110
0000
0000
0000
,
1001
0000
0110
0110
1001
0000
0220
0000
,
0000
0000
0000
0000
0000
0330
0001
0000
,
1000
0100
1000
0001
,
0010
0000
0000
0000
0000
0000
0100
0000
0000
0000
0000
0000
1000
0000
0000
0000
0000
0000
1000
0100
0010
0100
0010
0100
,
0010
0000
0000
0100
0000
0000
0010
0001
0100
0010
1000
0010
0100
0000
0000
0001
0000
0000
1000
0100
1000
0100
0000
0000
,
1000
0100
0001
0100
0000
0000
0010
0100
0010
0001
1000
0010
0100
0000
0000
0000
0000
0000
0010
0000
0000
0000
0000
0000
,
0010
0000
0000
0000
0010
0000
0000
0000
1000
0000
0001
0100
0001
0000
1000
0000
,
0010
0100
0010
0100
0001
0000
1000
0000
0100
0010
0100
0010
0001
0000
1000
0000
,
0010
0100
0010
0100
0001
0000
1000
0000
0100
0010
0100
0010
0001
0000
1000
0000
,
0010
0100
0010
0100
1000
0000
0001
0000
0100
0010
0100
0010
1000
0000
0100
0000
,
1000
0001
0010
0001
1000
0010
0100
0010
,
0001
0000
1000
0000
0100
0000
0010
0000
0001
0000
0010
0000
1000
0100
1000
0100
,
0010
0000
0000
0100
0000
0000
0010
0000
0000
0100
0000
0000
0001
0000
0000
0100
0000
0000
0001
0000
0000
0100
0000
0000
0010
0000
0000
0000
0000
0000
0100
0000
0000
0000
0000
0000
1000
0000
0100
0000
0010
0000
0100
0000
0010
0000
0001
0000
,
1000
0100
1000
0001
0010
0100
1000
0000
0000
0000
0000
0000
1000
0000
0000
0000
0000
0000
0001
0000
0000
0000
0000
0000
,
1000
0000
0001
0010
0100
1000
0001
0100
,
0001
0010
0001
0000
0100
0000
0001
0000
,
0100
0000
1000
0100
1000
0100
1000
0100
,
1000
0100
1000
0000
0010
1000
0000
0001
,
0010
0000
0100
1000
0100
1000
0100
1000
,
0100
0010
0001
0010
0001
0010
0000
0000
,
1001
0000
1010
0000
0000
0101
0000
0000
,
0011
0000
0001
0010
0100
1000
0000
0001
,
1000
0010
0100
0001
0100
0001
0010
0100
,
1000
0001
0100
0010
1000
0010
0000
0100
,
0001
1000
0010
0100
0001
1000
0010
0100
,
0001
0000
1000
0000
0001
0000
0000
1000
,
0000
0001
0000
0000
0010
0000
0001
0010
,
0001
0010
0001
1000
0100
1000
0000
0001
,
0000
0100
1100
0000
0000
0000
0000
0000
,
0000
0000
1000
0100
1000
0010
0100
0010
,
1000
0100
0010
0000
0000
0000
0000
0000
,
0000
0000
0001
0010
0001
0100
0010
1000
,
0100
0001
0100
0000
0000
0000
0000
0000
,
0000
0000
1000
0100
0010
0001
0100
0010
,
1000
0010
0100
0000
0000
0000
0000
0000
,
0000
0000
1000
0010
0001
0010
1000
0100
,
0010
0001
0100
0000
0010
0000
0100
0000
,
0010
1100
0000
0011
,
1000
0001
0010
0001
0010
0001
1000
0100
,
1000
0100
1000
0001
0010
0001
0100
0000
,
0000
0000
1000
0010
0100
0001
0100
0010
,
1000
0100
0010
0000
0001
0000
0100
0000
,
0001
0000
0100
0010
1000
0010
0100
0001
,
1000
0010
0100
1000
0100
0001
0100
0010
,
1000
0000
0000
1100
0000
0000
0000
0110
0000
0000
0000
0011
,
0000
0000
0000
0000
,
0000
2002
0000
0000
,
0000
3003
0000
0000
0000
0000
0000
0000
;

//---------------dance-double - ----------------
#NOTES:
     dance-double:
     :
     Easy:
     9:
     0.243491,0.391056,0.097396,0.040582,0.000000,210.000000,198.000000,12.000000,5.000000,0.000000,0.000000,0.243491,0.391056,0.097396,0.040582,0.000000,210.000000,198.000000,12.000000,5.000000,0.000000,0.000000:
00000000
00000000
00000000
00000000
,
00000000
00000000
00000000
00000000
,
00000000
00000000
00000000
00000000
,
00000000
00000000
00000000
00000000
,
00000000
00000000
00000000
00000000
,
00011000
00000000
00100000
00000000
,
10000000
00000000
01000000
00000000
,
00010000
00000000
00001000
00000000
,
00000100
00000000
00000001
00000000
,
00000001
00000100
00001000
00010000
,
00010000
01000000
10000000
00000000
,
10000000
01000000
00010000
00001000
,
00001000
00000100
00000001
00000000
,
00000001
00000001
00000010
00001000
,
00010000
00100000
10000000
10000000
,
10000000
01000000
00010000
00001000
,
00000200
00000000
00000000
00000300
,
00000001
00000100
00001000
00000000
,
00010000
00100000
10000000
00000000
,
00010000
00100000
00010000
10000000
,
01000000
00000000
00010000
00000000
,
00011000
00001000
00000100
00000001
,
00001000
00000001
00000100
00001000
,
00100000
01000000
10000000
10000000
,
00100000
00010000
00001000
00011000
,
00100000
00011000
00000010
00000000
,
00000000
00000000
00000001
00000001
00000001
00000000
00000110
00000000
,
00011000
01100000
10010000
02200000
,
00000000
00000000
03300000
10000000
,
01000000
00010000
00001000
00000100
,
00000001
00000010
00000001
00000100
,
00001000
00010000
01000000
10000000
,
10000000
01000000
00000000
10000000
,
00100000
00010000
00001000
00000100
,
00000001
00001000
00000000
00000001
,
00000010
00001000
00010000
01000000
,
10000000
00010000
00000000
10000000
,
01000000
10000000
01000000
00010000
,
00001000
00010000
00001000
00000100
,
00000001
00000010
00001000
00011000
,
00000000
00010000
01000000
10000000
,
00000000
10000000
00000000
01000000
,
00000000
00010000
00001000
00000100
,
00000000
00000001
00000000
00000010
,
00000000
00000001
00000100
00001000
,
00000000
00010000
00100000
10000000
,
00000000
00010000
00100000
00010000
,
00000000
10000000
00000000
00000000
,
00000000
10000000
00000000
01000000
,
00010000
00001000
00000000
00000000
,
00000000
00000100
00000000
00000001
,
00001000
00000100
00001000
00000100
,
00000000
00000010
00000000
00000001
,
00000000
00000100
00000000
00001000
,
00000000
00010000
00000000
01000000
,
00000000
10010000
00000000
00000000
,
00000000
10000000
01000000
00010000
,
00001000
00010000
00000000
00000000
,
00000000
00010000
00001000
00000100
,
00000001
00000010
00000000
00000000
,
00000000
00000001
00000100
00001000
,
00010000
01000000
00000000
00000000
,
00000000
10000000
01000000
00010000
,
00001000
00000100
00000000
00000000
,
00000000
00000001
00000000
00000100
,
00000000
00001000
00010000
00100000
,
00000000
10000000
00010000
01000000
,
00000000
00010000
00100000
00001000
,
00000000
00010000
00001000
00010000
,
00000100
00010000
00001000
00000100
,
00000001
00000010
00000001
00000100
,
00000000
00001000
00000000
00010000
,
00000000
00000000
00000000
00000000
,
00000000
20020000
00000000
00000000
,
00000000
30030000
00000000
00000000
00000000
00000000
00000000
00000000
,
00000000
00000000
00000000
00000000
;

//---------------dance-double - ----------------
#NOTES:
     dance-double:
     :
     Medium:
     12:
     0.388426,0.631706,0.129862,0.056814,0.077105,335.000000,319.000000,16.000000,7.000000,0.000000,0.000000,0.388426,0.631706,0.129862,0.056814,0.077105,335.000000,319.000000,16.000000,7.000000,0.000000,0.000000:
00000000
00000000
00000000
00000000
,
00000000
00000000
00000000
00000000
,
00000000
00000000
00000000
00000000
,
00000000
00000000
00000000
00000000
,
00000000
00000000
00000000
00000000
,
00011000
00000000
00000000
00000000
,
00001000
00000100
00000001
00000100
00000000
00000000
00000000
00000000
,
00001000
00010000
01000000
00100000
00000000
00000000
00000000
00000000
,
00010000
01000000
00100000
00010000
00000000
00000000
00000000
00000000
,
00011000
00000000
00001000
00000000
00000100
00000001
00000010
00000001
,
00000100
00000000
00001000
00000000
00010000
00100000
10000000
00000000
,
10100000
00000000
10000000
00000000
01000000
00010000
00001000
00000010
,
00000001
00000000
00001000
00000000
00000100
00001000
00000001
00000100
,
00000001
00000100
00000001
00000100
00001000
00010000
00001000
00010000
,
00001000
00010000
00001000
00010000
01000000
10000000
01000000
10000000
,
01000000
10000000
01000000
10000000
00010000
00100000
01000000
00010000
,
00002000
00000000
00000000
00003000
,
00000100
00000000
00000001
00000000
00000010
00000000
00000001
00000100
,
00000001
00000100
00000001
00001000
00000010
00000100
00001000
00010000
,
00001000
00000000
00100000
00000000
00010000
00000000
10000000
00010000
,
10000000
00100000
10000000
00010000
01000000
00000000
00000000
00000000
,
11000000
00000000
00100000
00000000
00110000
00000000
00001000
00000000
00000110
00000000
00000000
00000000
00000001
00000100
00001000
00000000
,
00010000
01000000
10000000
00000000
01000000
00000000
10000000
00000000
00010000
00000000
00000000
00000000
00000100
00000000
00000001
00000000
,
00001001
00000000
00000000
00000000
00000001
00000100
00001000
00000000
00010000
00000000
01000000
00000000
10000000
00000000
00100000
00000000
,
10000000
00000000
01000000
00000000
00010000
00000000
00001000
00000000
00000100
00000001
00000000
00000010
00000100
00000010
00000100
00000010
,
00000100
00010000
00001000
01000000
10000000
00000000
01000000
00000000
,
00100000
00000000
00000000
00000000
10000000
01000000
00100000
00010000
10000000
00000000
00000000
00000000
01100000
00000000
00000000
00000000
,
00022000
00033000
00000110
00000000
00000022
00000033
00001001
00000000
,
00000000
00000000
00000000
00000000
00000000
00000000
10000000
01000000
,
00010000
00001000
00000100
00000001
,
00000010
00001000
00010000
01000000
,
10000000
00000000
00000000
00000000
00000000
00000000
10000000
01000000
00010000
00001000
00000000
00000000
00000100
00000000
00000000
00000000
00000000
00000000
00000001
00000000
00000000
00000100
00000000
00000000
,
00001000
00000000
00000000
00010000
00000000
00000000
01000000
00100000
01000000
10000000
00010000
01000000
00100000
00000000
00000000
00000000
00000000
00000000
10000000
00000000
00000000
00000000
00000000
00000000
,
00100000
00000000
00010000
00000000
00001000
00000100
00000001
00000000
,
00000010
00000100
00000010
00000000
00000100
00000000
00010000
00000000
,
00001000
00000000
00100000
00000000
10000000
00010000
10000000
00010000
,
10000000
00100000
00010000
00001000
,
00001000
00000010
00000010
00000001
,
00000001
00000000
00000100
00000000
00001000
00000000
00010000
01000000
,
10000000
00010000
10000000
00010000
01000000
00000000
00010000
00000000
,
10000000
01000000
10000000
00010000
00000000
00000000
10000000
00000000
00000000
00000000
00000000
00000000
01000000
00000000
00000000
00000000
00000000
00000000
00010000
00000000
00000000
00000000
00000000
00000000
,
00001000
00000100
00000001
00001000
,
00000001
00000100
00001000
00010000
,
01000000
00000000
10000000
01000000
10000000
00000000
00010000
00000000
,
00000000
10000000
00100000
10000000
,
00100000
00010000
00001000
00000100
,
00000001
00000010
00000100
00000000
,
00000001
00000000
00000100
00000000
00000000
00010000
00000000
00000000
,
00001000
00000000
00010000
00001000
00010000
00001000
00000000
00000000
,
01000000
01000000
00000000
10000000
,
00000000
00000000
10000000
00100000
10000000
00100000
00000000
00000000
,
10000000
01000000
00010000
00001000
,
00000100
00000000
00000001
00000000
00001000
00000000
00000000
00000001
,
00000000
00001000
00000000
00000000
00000001
00000000
00000100
00000000
,
00001000
00000000
00010000
00000000
01000000
00000000
00000000
10000000
,
00000000
01000000
00000000
00000000
,
00000000
00000000
10000000
01000000
00010000
00000000
00001000
00000100
,
00000001
00000100
00000000
00000000
,
00000000
00000000
00000001
00000010
00000001
00000000
00000100
00001000
,
00010000
00001000
00000000
00000000
,
00000000
00000000
00001000
01000000
00001000
00000000
00010000
10000000
,
00100000
01000000
00000000
00000000
,
00000000
00000000
10000000
00100000
00010000
00000000
00001000
00000100
,
00000001
00001000
00000001
00001000
,
00000000
00000001
00000000
00000100
,
00000000
00001000
00010000
01000000
,
00010000
00001000
00010000
00001000
,
00000000
00010000
00001000
00000100
,
00000000
00000001
00000100
00001000
,
00010000
01000000
10000000
01000000
,
00010000
00000000
00001000
00010000
00001000
00000000
00000100
00000000
,
00000001
00000000
00000000
00000101
00000000
00000000
00000000
00001100
00000000
00000000
00000000
00000101
,
00000000
00000000
00000000
00000000
,
00000000
00022000
00000000
00000000
,
00000000
00033000
00000000
00000000
00000000
00000000
00000000
00000000
,
00000000
00000000
00000000
00000000
;

//---------------dance-double - ----------------
#NOTES:
     dance-double:
     :
     Hard:
     15:
     0.509011,1.052844,0.097396,0.056814,0.280014,439.000000,427.000000,12.000000,7.000000,0.000000,0.000000,0.509011,1.052844,0.097396,0.056814,0.280014,439.000000,427.000000,12.000000,7.000000,0.000000,0.000000:
00000000
00000000
00000000
00000000
,
00000000
00000000
00000000
00000000
,
00000000
00000000
00000000
00000000
,
00000000
00000000
00000000
00000000
,
00000000
00000000
00000000
00000000
,
10010000
00000000
00000000
00000000
,
00000000
00000000
00000000
00000000
,
00000000
00000000
00000000
00000000
,
00000000
00000000
00000000
00000000
,
10100000
00000000
00000000
00000000
00010000
00000000
00000000
10000000
01000000
00000000
10000000
00000000
00100000
00000000
00010000
00000000
,
00001000
00000000
00000000
00000000
00000100
00000000
00000000
00000001
00000100
00000000
00000001
00000000
00001000
00000000
00000000
00000000
,
00000011
00000000
00000000
00000000
00001000
00000000
00000000
00000001
00000100
00000000
00000001
00000000
00000010
00000000
00001000
00000000
,
00010000
00000000
00000000
00000000
01000000
00000000
00000000
10000000
01000000
00000000
10000000
00000000
00010000
00000000
00000000
00000000
,
10000000
01000000
00010000
00001000
00000010
00000001
00001000
00000100
,
00000010
00000001
00000100
00001000
00010000
00100000
10000000
01000000
,
10000000
00000000
01000000
00000000
00010000
00000000
00001000
00000000
00010000
00001000
00010000
00001000
00000100
00000010
00000100
00000010
,
00000200
00000000
00000000
00000000
00000000
00000300
00000000
00000000
,
00000001
00000010
00001000
00010000
00100000
10000000
00010000
01000000
,
00001000
01000000
00010000
10000000
00100000
00000000
00010000
00000000
,
00001000
00000100
00000001
00000100
00000001
00000010
00000001
00000010
,
00001000
00100000
00010000
10000000
01100000
00000000
00000000
10000000
,
01000000
00000000
00010000
00000000
00001000
00000000
00000100
00000000
00000001
00000000
00001000
00000000
00000001
00000000
00000100
00000000
00000010
00000000
00001000
00000000
00000010
00000000
00000100
00000000
00001000
00000000
00000000
00000000
00010000
00000000
00000000
00000000
01000000
00000000
00000000
00000000
10000000
00000000
00000000
00010000
00000000
00000000
10000000
00000000
00000000
00000000
00000000
00000000
,
10000000
00000000
00000000
01000000
00000000
00000000
00010000
00000000
00000000
00000000
00000000
00000000
00001000
00000000
00000000
00000000
00000000
00000000
00000100
00000000
00000000
00000000
00000000
00000000
00000001
00000000
00000000
00000100
00000000
00000000
00001000
00000000
00000000
00010000
00000000
00000000
00100000
00000000
10000000
00000000
00100000
00000000
01000000
00000000
00010000
00000000
01000000
00000000
,
00010000
00000000
01000000
00100000
10000000
01000000
00010000
00001000
00000100
00000001
00001000
00000100
00000001
00000000
00000100
00000000
,
00001000
00000000
00000000
00000000
00010000
00000000
00000000
00000000
01000000
00000000
00000000
00000000
10000000
00000000
00000000
00000000
00010000
00000000
00000000
00000000
10000000
00000000
00000000
00000000
00010000
00000000
00000000
01000000
00000000
00000000
00010000
00000000
00000000
01000000
00000000
00000000
00010000
00000000
00000000
00000000
00000000
00000000
00000000
00000000
00000000
00000000
00000000
00000000
00100000
00000000
00000000
00000000
00000000
00000000
00000000
00000000
00000000
00000000
00000000
00000000
00010000
00000000
00000000
00000000
00000000
00000000
10000000
00000000
00000000
00000000
00000000
00000000
00100000
00000000
00000000
00000000
00000000
00000000
10000000
00000000
00000000
00000000
00000000
00000000
01000000
00000000
00000000
00000000
00000000
00000000
00010000
00000000
00000000
00000000
00000000
00000000
,
00011000
00000100
00000001
00000100
00001001
00000000
00000200
00000000
,
00002300
00000000
00000000
00000000
00013000
01000000
10000000
00010000
10000000
00000000
00000000
00000000
00110000
00000000
00000000
00000000
,
00011000
00001100
00011000
00022000
,
00000000
00000000
00033000
00010000
,
01000000
10000000
00100000
00010000
,
00001000
00000000
00000000
00000000
00000000
00000000
00000100
00000000
00000000
00000000
00000000
00000000
00000001
00000000
00000000
00000000
00000000
00000000
00000001
00000100
00001000
00010000
00100000
10000000
,
01000000
00000000
00000000
01000000
00000000
00000000
00100000
00001000
01000000
00100000
10000000
00100000
01000000
00000000
00000000
00001000
00000000
00000000
00010000
00001000
00000100
00000001
00000000
00000000
,
00001000
00000100
00001000
00000100
00000000
00000000
00000010
00000001
00000100
00001000
00010000
01000000
10000000
00000000
00000000
00000000
00000000
00000000
10000000
00000000
00000000
00000000
00000000
00000000
,
00100000
00000000
00010000
00000000
00001000
00000100
00000001
00000010
,
00001000
00000001
00000100
00010000
00001000
00000000
00001000
01000000
,
00010000
00100000
00010000
10000000
00100000
00000000
10000000
01000000
,
00010000
00001000
00000100
00000001
00001000
00000000
00000010
00000100
,
00001000
00010000
00100000
10000000
01000000
00100000
01000000
00010000
,
00001000
00000100
00000001
00000010
00000001
00000100
00000001
00001000
,
00000010
00000100
00000010
00000100
00001000
00000000
00010000
00000000
00001000
00010000
00001000
00010000
00001000
00000000
01000000
00000000
,
00010000
01000000
00010000
10000000
00100000
01000000
00010000
00000000
00000000
00000000
00000000
00000000
10000000
00000000
00000000
00000000
00000000
00000000
01000000
00000000
00000000
00000000
00000000
00000000
,
00010000
00000000
00001000
00000000
00000100
00000000
00000001
00000100
,
00000001
00000100
00001000
00000000
00010000
00000000
01000000
00000000
,
10000000
00000000
01000000
00000000
10000000
00000000
00010000
01000000
,
00010000
01000000
00010000
00000000
10000000
00000000
01000000
00000000
,
00010000
00000000
00001000
00010000
00001000
00010000
00001000
00010000
,
00001000
00000000
00010000
00001000
00000100
00000001
00000000
00000000
,
00000010
00000000
00000001
00000000
00000000
00000100
00000000
00000000
,
00001000
00000000
00010000
00001000
00010000
00001000
00000000
00010000
,
01000000
00100000
01000000
10000000
01000000
10000000
01000000
00000000
,
00000000
00000000
00010000
00001000
00010000
00001000
00000000
00010000
,
00001000
00000100
00000001
00000010
00000001
00000010
00000001
00000000
,
00000000
00000000
00000100
00000000
00001000
00000000
00000000
00010000
,
00000000
01000000
00000000
00000000
10000000
00000000
00010000
00100000
,
00010000
00100000
00010000
10000000
01000000
00010000
00000000
00001000
,
00000000
00010000
00001000
00000000
00000000
00000000
00000000
00000000
,
00000000
00000000
00010000
00000100
00010000
00000100
00001000
00000010
,
00001000
00000100
00001000
00000000
00000000
00000000
00000000
00000000
,
00000000
00000000
00000001
00000010
00001000
00010000
00100000
10000000
,
01000000
10000000
00010000
00000000
00000000
00000000
00000000
00000000
,
00000000
00000000
10000000
01000000
00100000
00001000
00010000
00000010
,
00000100
00000010
00000100
00000000
00000000
00000000
00000000
00000000
,
00000000
00000000
00000001
00000100
00001000
00010000
01000000
10000000
,
00100000
10000000
01000000
00000000
00010000
00000000
00001000
00000000
,
00000100
00000001
00000000
00000010
,
00001000
00000000
00100000
00000000
00010000
00000000
10000000
01000000
,
10000000
01000000
10000000
01000000
00010000
00001000
00000100
00000000
,
00000000
00000000
00000001
00000010
00000100
00001000
00000001
00001000
,
00000001
00000100
00001000
00000000
00010000
00000000
00001000
00000000
,
00010000
00000000
01000000
00000000
10000000
00000000
00100000
10000000
,
01000000
10000000
00100000
00010000
00001000
00000100
00000001
00000010
,
00000001
00000000
00000000
00000100
00000000
00000000
00000000
00001000
00000000
00000000
00000000
00010000
,
00000000
00000000
00000000
00000000
,
00000000
20020000
00000000
00000000
,
00000000
30030000
00000000
00000000
00000000
00000000
00000000
00000000
,
00000000
00000000
00000000
00000000
;

//---------------dance-single - ----------------
#NOTES:
     dance-single:
     :
     Challenge:
     17:
     0.758300,1.648888,0.332771,0.267840,0.685832,654.000000,613.000000,41.000000,33.000000,0.000000,0.000000,0.758300,1.648888,0.332771,0.267840,0.685832,654.000000,613.000000,41.000000,33.000000,0.000000,0.000000:
// measure 0
0000
0000
0000
0000
,  // measure 1
0000
0000
0000
0000
,  // measure 2
0000
0000
0000
0000
,  // measure 3
0000
0000
0000
0000
,  // measure 4
0000
0000
0000
0000
,  // measure 5
1000
0001
1000
0001
0010
0001
0010
0100
1000
0100
1000
0001
,  // measure 6
2000
0000
0000
0010
0000
0000
0000
0000
,  // measure 7
3010
0100
0001
0200
0000
0000
0000
0000
,  // measure 8
0301
0010
1000
0020
0000
0000
0030
0000
,  // measure 9
1001
0000
0000
0000
1001
0000
0000
1000
0100
0000
0010
0000
0001
0010
0001
0000
,  // measure 10
0100
0000
1000
0000
0100
0000
0000
0001
0100
0000
0001
0000
1000
0010
1000
0000
,  // measure 11
0110
0000
0100
0000
0001
0000
0000
0100
0001
0000
0010
0000
1000
0000
0010
0000
,  // measure 12
0001
0000
0100
0000
0010
0000
0000
1000
0010
0000
1000
0000
0100
0010
0001
0000
,  // measure 13
1000
0010
1000
0100
0010
0100
1000
0100
,  // measure 14
0010
0000
0001
0000
0100
0000
0001
0000
0100
0010
1000
0001
1000
0010
1000
0100
,  // measure 15
1000
0001
1000
0100
0010
0001
0010
0001
1000
0100
0010
0100
1000
0010
0100
0001
,  // measure 16
1000
0100
1000
0010
0100
0001
0100
0010
1000
0001
1000
0001
0100
0010
0100
0010
,  // measure 17
0001
0010
1010
1000
0110
0100
0001
0010
,  // measure 18
0110
0100
1000
0001
0011
0010
0100
1000
,  // measure 19
1001
0001
0010
0100
0101
0010
0001
1000
,  // measure 20
1010
0000
0000
0000
0000
0000
0000
0000
0000
0000
0000
0000
0000
0000
0000
0000
0000
0000
0000
0000
0000
0000
0000
0000
0010
0000
0000
0000
0000
0000
0000
0000
0000
0000
0000
0000
0000
0000
0000
0000
0000
0000
0000
0000
0000
0000
0000
0000
0100
0000
0000
0000
0000
0000
0000
0000
0000
0000
0000
0000
0000
0000
0000
0000
0000
0000
0000
0000
0000
0000
0000
0000
0001
0000
0000
0000
0000
0000
0000
0000
0000
0000
0000
0000
0000
0000
0000
0000
0000
0000
0000
0000
0000
0000
0000
0000
1001
0000
0000
0000
0000
0000
0000
0000
0000
0000
0000
0000
0000
0000
0000
0000
0000
0000
0000
0000
0000
0000
0000
0000
0010
0000
0000
0000
0000
0000
0000
0000
0000
0000
0000
0000
0000
0000
0000
0000
0000
0000
0000
0000
0000
0000
0000
0000
0110
0000
0000
0000
0000
0000
0010
0000
0000
0000
0000
0000
0000
0000
0000
0000
0000
0000
0000
0000
0000
0000
0000
0000
0001
0000
0000
0000
0000
0000
0000
0000
1000
0000
0000
0000
0000
0000
0000
0000
0001
0000
0000
0000
0000
0000
0000
0000
,  // measure 21
1000
0000
0000
0000
0001
0000
0000
0000
1000
0000
0000
0000
0001
0000
0000
0000
1000
0000
0000
0000
0001
0000
0000
0000
0010
0000
0000
0000
0100
0000
0000
0000
0010
0000
0000
0000
0100
0000
0000
0000
0010
0000
0000
0000
0100
0000
0000
0000
1000
0000
0000
0000
0000
0000
0000
0000
0100
0000
0000
0000
0000
0000
0000
0000
0001
0000
0000
0000
0000
0000
0000
0000
0100
0000
0000
0000
0000
0000
0000
0000
1000
0000
0000
0000
0000
0000
0000
0000
0100
0000
0000
0000
0000
0000
0000
0000
0001
0000
0000
0000
0000
0000
0000
0000
0000
0000
0000
0000
0000
0000
0000
0000
1100
0000
0000
0000
0000
0000
0000
0000
0000
0000
0000
0000
0000
0000
0000
0000
1010
0000
0000
0000
0000
0000
0000
0000
0000
0000
0000
0000
0000
0000
0000
0000
0100
0000
0000
0000
0000
0000
0000
0000
0000
0000
0000
0000
0010
0000
0000
0000
0000
0000
0000
0000
0000
0000
0000
0000
1000
0000
0000
0000
0000
0000
0100
0000
0000
0000
0000
0000
0010
0000
0000
0000
0000
0000
0000
0000
0000
0000
0000
0000
,  // measure 22
0001
0000
1000
0000
0010
1000
0010
0100
0001
0000
0100
0000
0101
0000
0000
0000
1000
0010
1000
0010
0100
0001
0100
0001
0010
0100
1000
0100
0010
0001
1000
0100
,  // measure 23
0010
0000
0001
0000
0010
0000
1000
0000
1010
0000
0010
0000
0001
0000
0100
0000
0010
1000
0001
0000
1000
0000
0100
0000
1100
0000
0000
0000
0011
0000
0000
0000
,  // measure 24
1000
0000
0000
0000
0000
0000
0000
0000
0100
0000
0000
0000
0000
0000
0000
0000
0010
0000
0000
0000
0000
0000
0000
0000
0001
0000
0000
0000
0000
0000
0000
0000
0100
0000
0000
0000
0000
0000
0000
0000
0010
0000
0000
0000
0000
0000
0000
0000
1000
0000
0000
0000
0000
0000
0001
0000
0000
0000
0000
0000
1000
0000
0000
0000
0000
0000
0010
0000
0000
0000
0000
0000
1000
0000
0000
0000
0000
0000
0000
0000
0000
0000
0000
0000
0100
0000
0000
0000
0000
0000
0000
0000
0000
0000
0000
0000
0001
0000
0000
0000
0000
0000
1000
0000
0000
0000
0000
0000
0010
0000
0000
0000
0000
0000
1000
0000
0000
0000
0000
0000
1001
0000
0000
0000
0000
0000
0000
0000
0000
0000
0000
0000
0100
0000
0000
0000
0000
0000
0000
0000
0000
0000
0000
0000
1000
0000
0000
0000
0000
0000
0000
0000
0000
0000
0000
0000
0100
0000
0000
0000
0000
0000
0000
0000
0000
0000
0000
0000
0010
0000
0000
0000
0000
0000
0000
0000
0000
0000
0000
0000
0001
0000
0000
0000
0000
0000
0000
0000
0000
0000
0000
0000
,  // measure 25
0110
0100
0100
0100
1002
0000
0103
0000
2002
0000
0000
3003
0010
1000
0100
0010
,  // measure 26
0001
0100
0010
0100
1000
0010
0100
0010
1001
1000
2002
3003
0220
0000
0330
0000
,  // measure 27
0022
0033
1100
0110
0022
0033
2002
0000
,  // measure 28
0000
0000
0000
0000
0000
3003
0020
0000
,  // measure 29
2030
3200
2300
3002
,  // measure 30
0023
0000
0000
0000
0000
0000
0230
0000
0000
0000
0000
0000
2300
0000
0000
0000
0000
0000
3001
0100
0010
1000
0010
0100
,  // measure 31
0001
0010
0100
1000
0100
0010
0001
1000
0100
0010
1000
0010
0100
1000
0001
0010
0001
0100
0010
0100
0001
0100
0001
0100
,  // measure 32
1000
0100
0001
0100
1000
0100
0010
0100
0010
1000
0001
0010
0200
0000
0000
0000
0000
0000
0310
0000
0000
0000
0000
0000
,  // measure 33
0110
0000
0000
0000
1010
0000
0000
0000
1000
0001
0010
0001
0100
0000
1000
0000
,  // measure 34
0100
0001
0100
1000
0100
0000
0010
0000
0100
0001
0100
0010
1000
0000
0100
0000
,  // measure 35
0010
0100
0010
0100
0001
0000
0100
0000
1000
0010
1000
0010
0001
0000
0010
0000
,  // measure 36
1000
0001
0010
0100
1000
0000
0001
0000
0100
0001
0010
0001
0100
0000
0001
0000
,  // measure 37
0010
0001
0100
0000
0010
0000
1000
0000
0001
0100
0010
0000
0100
0000
0010
0000
,  // measure 38
0001
0010
0100
0000
1000
0000
0100
0000
0001
0100
0001
0000
0100
1000
0100
0010
,  // measure 39
0001
0000
0000
0100
0000
0000
1000
0000
0000
0100
0000
0000
0001
0000
0000
0010
0000
0000
0001
0000
0000
0100
0000
0000
0010
0000
0000
0100
0000
0000
1000
0000
0000
0100
0000
0000
0001
0000
0100
0000
0010
0000
0100
0000
0010
0000
1000
0000
,  // measure 40
0001
0100
0010
1000
0010
0100
0001
0000
0000
1000
0000
0000
0001
0000
0000
0010
0000
0000
0100
0000
0000
0000
0000
0000
,  // measure 41
1000
0000
0001
0010
0100
1000
0010
0100
,  // measure 42
0010
0100
0001
0010
0000
0100
1000
0000
,  // measure 43
0001
0100
0010
0100
0001
0100
0010
0100
,  // measure 44
0001
0100
0010
0000
1000
0010
0000
0001
,  // measure 45
0010
0000
1000
0001
1000
0010
1000
0001
,  // measure 46
1000
0010
0001
0010
1000
0100
0000
0010
,  // measure 47
0001
0010
0001
0000
0100
0000
0000
0000
0000
0000
0110
0000
0000
0000
0000
0000
,  // measure 48
1001
0000
1000
0010
0100
0001
0000
0001
,  // measure 49
1000
0010
0100
0010
1000
0100
0010
0001
,  // measure 50
1000
0010
0100
0001
0010
0100
0000
0100
,  // measure 51
1000
0010
0100
0001
0010
1000
0010
0100
,  // measure 52
1000
0001
0010
0001
0100
0010
0000
1000
,  // measure 53
0100
0010
0001
0000
0001
0010
1000
0010
,  // measure 54
0001
0100
0010
1000
0100
0010
0001
0010
,  // measure 55
0100
1000
2200
0000
3300
0001
0100
0010
,  // measure 56
1000
0001
1000
0100
0010
0100
0010
0001
,  // measure 57
1000
0100
0020
0000
0000
0000
0030
0000
,  // measure 58
0000
0000
0001
0100
0001
0010
1000
0010
,  // measure 59
0100
0001
0200
0000
0000
0000
0300
0000
,  // measure 60
0000
0000
1000
0010
0100
0001
0100
0010
,  // measure 61
1000
0010
0100
0001
0100
0001
0010
0100
,  // measure 62
0010
0100
1000
0100
0001
0100
1000
0010
,  // measure 63
0001
0010
1000
0000
0010
0000
0100
0001
,  // measure 64
0010
1100
0000
0011
,  // measure 65
1000
0001
0100
0001
0010
0001
1000
0010
,  // measure 66
1000
0100
1000
0010
0100
0001
0100
0010
,  // measure 67
0100
0001
0010
0100
0001
0100
1000
0010
,  // measure 68
1000
0100
0010
0001
1000
0010
0100
0010
,  // measure 69
0001
0010
0100
1000
0010
0100
0001
0010
,  // measure 70
0100
1000
0010
0100
0001
0010
0100
0010
,  // measure 71
0001
0000
0000
1001
0000
0000
0000
1010
0000
0000
0000
0022
,  // measure 72
0000
0033
0000
0000
,  // measure 73
0000
0000
0220
0000
0000
0000
0000
0330
;
