#TITLE:Poseidon;
#SUBTITLE:;
#ARTIST:NAOKI underground;
#TITLETRANSLIT:;
#SUBTITLETRANSLIT:;
#ARTISTTRANSLIT:;
#GENRE:;
#CREDIT:;
#BANNER:Poseidon.png;
#BACKGROUND:Poseidon-bg.png;
#LYRICSPATH:;
#CDTITLE:;
#MUSIC:Poseidon.ogg;
#OFFSET:0.000000;
#SAMPLESTART:1.610000;
#SAMPLELENGTH:15.000000;
#SELECTABLE:YES;
#DISPLAYBPM:75.000000:300.000000;
#BPMS:0.000000=150.000000
,100.000000=300.000000
,164.000000=75.000000
,180.000000=150.000000
,212.000000=300.000000
;
#STOPS:100.000000=1.600000,
180.000000=1.600000
;
#BGCHANGES:;
#KEYSOUNDS:;
#ATTACKS:;

//---------------dance-single - ----------------
#NOTES:
     dance-single:
     :
     Beginner:
     3:
     0.122848,0.202281,0.009772,0.000000,0.000000,88.000000,87.000000,1.000000,0.000000,0.000000,0.000000,0.122848,0.202281,0.009772,0.000000,0.000000,88.000000,87.000000,1.000000,0.000000,0.000000,0.000000:
0000
0000
0000
0000
,
0000
0000
0000
0000
,
0000
0000
0000
0000
,
1000
0000
0000
0000
,
0000
0000
0000
0000
,
0001
0000
0000
0000
,
0000
0000
0000
0000
,
1000
0000
0000
0000
,
0001
0000
0000
0000
,
0010
0000
0010
0000
,
0010
0000
0000
0000
,
1000
0000
1000
0000
,
1000
0000
0000
0000
,
0100
0000
0100
0000
,
0100
0000
0000
0000
,
0001
0000
0001
0000
,
0001
0000
0000
0000
,
0010
0010
0010
0000
,
0000
0000
0000
0000
,
0001
0001
0001
0000
,
0000
0000
0000
0000
,
0100
0100
0100
0000
,
0000
0000
0000
0000
,
1000
1000
1000
0000
,
0000
0000
0000
0000
,
0000
0000
0000
0000
,
0010
0000
0000
0000
,
0100
0000
0000
0000
,
0100
0000
0000
0000
,
0000
0000
0000
0000
,
0100
0000
0000
0000
,
0010
0000
0000
0000
,
0010
0000
0000
0000
,
1000
0000
0000
0000
,
1000
0000
0000
0000
,
0001
0000
0001
0000
,
0001
0000
0000
0000
,
0001
0000
0000
0000
,
0001
0000
0000
0000
,
1000
0000
1000
0000
,
1000
0000
0000
0000
,
0001
0000
0010
0000
,
1000
0000
0000
0000
,
1000
0000
0010
0000
,
0001
0000
0000
0000
,
0000
0000
0010
0000
,
0100
0000
0100
0000
,
0000
0000
0100
0000
,
0010
0000
0010
0000
,
1000
0000
1000
0000
,
0001
0001
0001
0000
,
0001
0000
0001
0000
,
1000
1000
1000
0000
,
0010
0000
0000
0000
,
0010
0000
0000
0000
,
0010
0000
0100
0000
,
0010
0000
0000
0000
,
0100
0000
0000
0000
,
0100
0000
0000
0000
,
0100
0000
0010
0000
,
0100
0000
0000
0000
,
1000
0000
0000
0000
,
1000
0000
0000
0000
,
0001
0000
1000
0000
,
0001
0000
0000
0000
,
0001
0000
0000
0000
,
0001
0000
0000
0000
,
1000
0000
0001
0000
,
1000
0000
0000
0000
,
1001
0000
0000
0000
,
0000
0000
0000
0000
;

//---------------dance-single - ----------------
#NOTES:
     dance-single:
     :
     Easy:
     5:
     0.219172,0.374879,0.283389,0.058632,0.000000,157.000000,128.000000,29.000000,6.000000,0.000000,0.000000,0.219172,0.374879,0.283389,0.058632,0.000000,157.000000,128.000000,29.000000,6.000000,0.000000,0.000000:
0000
0000
0000
0000
,
0000
0000
0000
0000
,
0000
0000
0000
0000
,
1000
0000
0100
0000
,
0001
0000
0100
0000
,
1000
1000
0100
0000
,
0001
0001
0010
0000
,
1000
1000
0010
0000
,
0001
0001
0100
0000
,
0010
0010
0010
0000
,
0000
0000
0000
0000
,
1000
1000
1000
0000
,
0000
0000
0000
0000
,
0100
0100
0100
0000
,
0000
0000
0000
0000
,
0001
0001
0001
0000
,
0000
0000
0000
0000
,
0010
0010
0010
0000
,
0001
0001
0001
0000
,
0100
0100
0100
0000
,
1000
1000
1000
0000
,
0010
0000
0110
0000
,
1000
0000
1001
0000
,
0100
0110
0010
0000
,
0001
1001
1000
0000
,
0000
0000
0000
0000
,
0010
0000
0000
0000
,
1001
0000
0000
0000
,
1001
0000
0000
0000
,
0000
0000
0000
0000
,
0100
0000
0000
0000
,
1001
0000
0000
0000
,
1001
0000
0000
0000
,
0001
0000
0000
0000
,
2000
0000
0000
0000
,
0010
0000
0100
0000
,
3010
0000
0000
0000
,
1000
0000
0000
0000
,
0002
0000
0000
0000
,
0010
0000
0100
0000
,
0013
0000
0000
0000
,
1000
0100
0001
0000
,
0001
0010
1000
0000
,
0001
0100
1000
0000
,
1000
0010
0001
0000
,
0000
0000
0010
0000
,
1001
1001
1001
0000
,
0100
0000
0100
0000
,
1001
1001
1001
0000
,
1000
0001
1000
0002
,
0010
0100
0013
0000
,
0001
1000
0001
2000
,
0010
0100
3010
0000
,
0010
0000
0100
0000
,
0110
0000
0000
0000
,
1001
0000
1001
0000
,
1001
0000
0000
0000
,
0100
0000
0010
0000
,
0110
0000
0000
0000
,
1001
0000
1001
0000
,
1001
0000
0000
0000
,
1001
0000
1001
0000
,
1001
0000
1000
0000
,
1000
0000
0100
0000
,
0001
0000
0000
0000
,
1001
0000
1001
0000
,
1001
0000
0001
0000
,
0001
0000
0100
0000
,
1000
0000
0000
0000
,
2002
0000
0000
3003
,
0000
0000
0000
0000
;

//---------------dance-single - ----------------
#NOTES:
     dance-single:
     :
     Medium:
     9:
     0.369941,0.626631,0.390881,0.019544,0.166124,265.000000,225.000000,40.000000,2.000000,0.000000,0.000000,0.369941,0.626631,0.390881,0.019544,0.166124,265.000000,225.000000,40.000000,2.000000,0.000000,0.000000:
0000
0000
0000
0000
,
0000
0000
0000
0000
,
0000
0000
0000
0000
,
1000
0100
0001
0100
,
1000
0100
0001
0100
,
1000
0101
1000
0100
,
0001
1100
0001
0100
,
1000
0101
1000
0100
,
0001
1100
0000
0000
,
0010
0000
0000
0010
0000
0000
0000
0000
1000
0000
0000
1000
0000
0000
0000
0000
,
0100
0000
0000
0100
0000
0000
0000
0000
0001
0000
0000
0001
0000
0000
0000
0000
,
0010
0000
0000
0010
0000
0000
0000
0000
0001
0000
0000
0001
0000
0000
0000
0000
,
0100
0000
0000
0100
0000
0000
0000
0000
1000
0000
0000
1000
0000
0000
0000
0000
,
0010
0000
0000
0010
0000
0000
0100
0000
1000
0000
0000
1000
0000
0000
0001
0000
,
0100
0000
0000
0100
0000
0000
0010
0000
0001
0000
0000
0001
0000
0000
1000
0000
,
0010
0000
0000
0010
0000
0000
0100
0000
0001
0000
0000
0001
0000
0000
1000
0000
,
0100
0000
0000
0100
0000
0000
0010
0000
1000
0000
0000
1000
0000
0000
0001
0000
,
0010
0000
0000
0010
0000
0000
0000
0000
1000
0000
0000
1000
0000
0000
0000
0000
,
0100
0000
0000
0100
0000
0000
0000
0000
0001
0000
0000
0001
0000
0000
0000
0000
,
0010
0000
0000
0010
0000
0000
0000
0000
0001
0000
0000
0001
0000
0000
0000
0000
,
0100
0000
0000
0100
0000
0000
0000
0000
1000
0000
0000
1000
0000
0000
0000
0000
,
0010
0000
0000
0100
0000
0000
0010
0000
0001
0000
0000
1000
0000
0000
0001
0000
,
0100
0000
0000
0010
0000
0000
0100
0000
1000
0000
0000
0001
0000
0000
1000
0000
,
0110
0000
0000
0110
0000
0000
0000
0000
1001
0000
0000
1001
0000
0000
0000
0000
,
0110
0000
0000
0110
0000
0000
0000
0000
1001
0000
0000
1001
0000
0000
0000
0000
,
0000
0000
0100
0000
,
1000
0000
0100
0000
,
0001
0000
1100
0000
,
0101
0000
0000
0000
,
1000
0000
0100
0000
,
0001
0000
0100
0000
,
1000
0000
0101
0000
,
1100
0000
0000
0000
,
0001
0000
0100
0000
,
1000
0000
0100
0000
,
0011
0000
0100
0000
,
0001
0000
0100
0000
,
1000
0000
0100
0000
,
0001
0000
0100
0000
,
1010
0000
0100
0000
,
1000
0000
0100
0000
,
0001
0100
1000
0000
0001
0100
1000
0000
,
1000
0100
0001
0000
1000
0100
0001
0000
,
1000
0010
0001
0000
1000
0010
0001
0000
,
0001
0010
1000
0000
0001
0010
1000
0000
,
0000
0100
0001
0100
,
1000
0101
0001
1100
,
0001
0100
1000
0100
,
0001
1100
1000
0101
,
1000
0000
0000
0001
0000
0000
0100
0000
0010
0000
0000
0000
0100
0000
0000
0000
,
1000
0101
0101
1100
,
0001
0000
0000
1000
0000
0000
0100
0000
0010
0000
0000
0000
0100
0000
0000
0000
,
0001
1100
0101
0101
,
1000
0000
0000
0001
0000
0000
0100
0000
,
0010
0000
0000
0100
0000
0000
0000
0000
,
0001
0000
1100
0000
,
1100
0000
0101
0000
,
0001
0000
0000
1000
0000
0000
0100
0000
,
0010
0000
0000
0100
0000
0000
0000
0000
,
1000
0000
0101
0000
,
0101
0000
1100
0000
,
1000
0000
0000
0001
0000
0000
0100
0010
,
0100
0000
0000
0010
0000
0000
0010
0000
,
0001
0000
1100
0000
,
1100
0000
0101
0000
,
0001
0000
0000
1000
0000
0000
0100
0010
,
0100
0000
0000
0010
0000
0000
0010
0000
,
1000
0000
0101
0000
,
1000
0000
0101
0000
,
2002
0000
0000
0000
,
0000
0000
0000
0000
,
0000
3003
0000
0000
;

//---------------dance-single - ----------------
#NOTES:
     dance-single:
     :
     Hard:
     11:
     0.448117,0.765882,0.224756,0.078176,0.244300,321.000000,298.000000,23.000000,8.000000,0.000000,0.000000,0.448117,0.765882,0.224756,0.078176,0.244300,321.000000,298.000000,23.000000,8.000000,0.000000,0.000000:
// measure 0
0000
0000
0000
0000
,  // measure 1
0000
0000
0000
0000
,  // measure 2
0000
0000
0000
0000
,  // measure 3
1000
0100
0001
0100
,  // measure 4
1000
0100
0001
0100
,  // measure 5
1000
0000
0101
0000
0001
0010
1000
0000
,  // measure 6
0001
0000
1100
0000
1000
0010
0001
0000
,  // measure 7
1000
0000
0101
0000
0001
0010
1000
0000
,  // measure 8
0001
0000
1100
0000
1000
0010
0001
0000
,  // measure 9
1000
0000
0000
0001
0000
0000
0100
0000
0001
0000
0000
1000
0000
0000
0001
0000
,  // measure 10
0010
0000
0000
0100
0000
0000
0010
0000
0001
0000
0000
0100
0000
0000
0000
0000
,  // measure 11
0001
0000
0000
1000
0000
0000
0100
0000
1000
0000
0000
0001
0000
0000
0100
0000
,  // measure 12
0010
0000
0000
0001
0000
0000
0010
0000
1000
0000
0000
0100
0000
0000
0000
0000
,  // measure 13
0010
0000
0000
0001
0000
0000
0100
0000
0001
0000
0000
0010
0000
0000
0001
0000
,  // measure 14
0010
0000
0000
1000
0000
0000
0010
0000
0001
0000
0000
0100
0000
0000
0000
0000
,  // measure 15
0010
0000
0000
1000
0000
0000
0100
0000
1000
0000
0000
0010
0000
0000
1000
0000
,  // measure 16
0010
0000
0000
0001
0000
0000
0010
0000
1000
0000
0000
0100
0000
0000
0000
0000
,  // measure 17
1000
0000
0000
0001
0000
0000
0100
0000
0010
0000
0000
0010
0000
0000
1000
0000
,  // measure 18
0001
0000
0000
0100
0000
0000
0010
0000
0100
0000
0000
0001
0000
0000
0010
0000
,  // measure 19
0001
0000
0000
1000
0000
0000
0100
0000
0010
0000
0000
0010
0000
0000
0001
0000
,  // measure 20
1000
0000
0000
0010
0000
0000
0100
0000
0001
0000
0000
0010
0000
0000
0000
0000
,  // measure 21
1000
0000
0000
1010
0000
0000
0000
0000
0001
0000
0000
0011
0000
0000
0000
0000
,  // measure 22
0100
0000
0000
1001
0000
0000
0000
0000
0010
0000
0000
0110
0000
0000
0000
0000
,  // measure 23
0001
0000
0000
1001
0000
0000
1000
0000
0100
0000
0000
0110
0000
0000
0010
0000
,  // measure 24
1000
0000
0000
1001
0000
0000
0001
0000
0010
0000
0000
0110
0000
0000
0100
0000
,  // measure 25
0000
0001
0000
0000
0000
0000
0000
0000
0000
0000
0000
0000
0000
0000
0000
0000
0000
0000
0000
0000
0000
0000
0000
0000
1000
0000
0000
0000
0000
0000
0000
0000
0000
0000
0000
0000
0000
0000
0000
0000
0000
0000
0000
0000
0000
0000
0000
0000
0010
0000
0000
0000
0000
0000
0000
0000
0100
0000
0000
0000
0000
0000
0000
0000
,  // measure 26
0010
0000
0000
0100
0000
0000
0001
0000
,  // measure 27
0010
0000
0000
0100
0000
0000
1000
0100
,  // measure 28
1000
0000
0000
0001
0000
0000
1000
0000
,  // measure 29
0010
0000
0000
0100
0000
0000
0001
0010
,  // measure 30
0001
0000
0000
1000
0000
0000
0001
0000
,  // measure 31
0010
0000
0000
0100
0000
0000
1000
0000
,  // measure 32
0010
0000
0101
0000
,  // measure 33
1000
0000
0000
0001
0000
0000
0100
0010
,  // measure 34
0100
0000
0000
0010
0000
0000
0001
0000
,  // measure 35
0010
0000
0000
1000
0000
0000
0100
1000
,  // measure 36
0100
0000
0000
0010
0000
0000
0001
0000
,  // measure 37
1001
0000
0000
0100
0000
0000
0001
0100
,  // measure 38
0001
0000
0000
0011
0000
0000
0010
0000
,  // measure 39
0100
0000
0000
1100
0000
0000
0010
0000
,  // measure 40
0100
0000
0101
0000
,  // measure 41
1000
0100
0001
0100
1000
0100
0001
0100
,  // measure 42
1000
0100
0001
0000
0001
0100
1000
0000
1000
0100
0001
0100
1000
0100
0001
0000
,  // measure 43
0001
0010
1000
0010
0001
0010
1000
0010
,  // measure 44
0001
0010
1000
0000
1000
0010
0001
0000
0001
0010
1000
0010
0001
0010
1000
0000
,  // measure 45
0000
0001
0000
0000
0000
0000
0000
0000
0000
0000
0000
0000
0010
0000
0000
0000
0000
0000
0000
0000
0000
0000
0000
0000
0100
0000
0000
0000
0000
0000
0000
0000
2000
0000
0000
0000
0000
0000
0000
0000
0000
0000
0000
0000
0000
0000
0000
0000
0010
0000
0000
0000
0000
0000
0000
0000
0000
0000
0000
0000
0000
0000
0000
0000
,  // measure 46
3002
0010
0103
0010
,  // measure 47
1000
0000
0000
0010
0000
0000
0100
0000
0002
0000
0000
0000
0010
0000
0000
0000
,  // measure 48
2003
0010
3100
0000
,  // measure 49
0001
0000
0000
1000
0000
0000
0100
0000
0010
0000
0000
1000
0000
0000
0020
0000
,  // measure 50
0001
1000
0001
0130
,  // measure 51
1000
0000
0000
0001
0000
0000
0100
0000
0010
0000
0000
0001
0000
0000
0020
0000
,  // measure 52
1000
0001
0130
0000
,  // measure 53
0001
0000
0000
1000
0000
0000
0010
0100
,  // measure 54
0010
0000
0000
0100
0000
0000
0001
0000
,  // measure 55
0010
0000
0000
0100
0000
0000
1000
0100
,  // measure 56
1000
0000
0000
0001
0000
0000
1000
0000
,  // measure 57
0010
0000
0000
0100
0000
0000
0001
0010
,  // measure 58
0001
0000
0000
1000
0000
0000
0001
0000
,  // measure 59
0010
0000
0000
0100
0000
0000
1000
0000
,  // measure 60
0010
0000
0101
0000
,  // measure 61
1000
0000
0000
0001
0000
0000
0100
0010
,  // measure 62
0100
0000
0000
0010
0000
0000
0001
0000
,  // measure 63
0010
0000
0000
1000
0000
0000
0100
1000
,  // measure 64
0100
0000
0000
0010
0000
0000
0001
0000
,  // measure 65
1001
0000
0000
0100
0000
0000
0001
0100
,  // measure 66
0001
0000
0000
0011
0000
0000
0010
0000
,  // measure 67
0100
0000
0000
1100
0000
0000
0010
0000
,  // measure 68
0100
0000
0101
0000
,  // measure 69
2002
0000
0000
0000
,  // measure 70
0000
0000
0000
0000
,  // measure 71
0000
3003
0000
0000
;

//---------------dance-double - ----------------
#NOTES:
     dance-double:
     :
     Easy:
     6:
     0.242904,0.408959,0.127036,0.019544,0.000000,174.000000,161.000000,13.000000,2.000000,0.000000,0.000000,0.242904,0.408959,0.127036,0.019544,0.000000,174.000000,161.000000,13.000000,2.000000,0.000000,0.000000:
00000000
00000000
00000000
00000000
,
00000000
00000000
00000000
00000000
,
00000000
00000000
00000000
00000000
,
00010000
00000000
01000000
00000000
,
10000000
00000000
01000000
00000000
,
00010000
00000000
00001000
00000000
,
00000100
00000000
00010000
00000000
,
00001000
00000000
00000100
00000000
,
00000001
00000000
00000100
00000000
,
00000010
00000010
00000001
00000001
,
00000100
00000100
00001000
00000000
,
00010000
00010000
00100000
00100000
,
10000000
10000000
01000000
00000000
,
00100000
00100000
00010000
00010000
,
00001000
00001000
00000010
00000000
,
00000001
00000001
00000100
00000100
,
00001000
00001000
00010000
00000000
,
01000000
01000000
10000000
10000000
,
00100000
00100000
00010000
00000000
,
00001000
00001000
00000100
00000100
,
00000001
00000001
00000010
00000000
,
00001000
00001000
00011000
00000000
,
01000000
01000000
01100000
00000000
,
00110000
00010000
00011000
00000000
,
00001100
00000100
00000110
00000000
,
00000000
00000000
00000000
00000000
,
00100000
00000000
00000000
00000000
,
10000000
00000000
01000000
00000000
,
00010000
00000000
00001000
00000000
,
00010000
00000000
00000000
00000000
,
00000100
00000000
00000000
00000000
,
00000010
00000000
00000001
00000000
,
00000100
00000000
00000000
00000000
,
00010000
00000000
00000000
00000000
,
00001000
00000000
00000000
00000000
,
00000010
00000000
00001000
00000000
,
00010000
00000000
00001000
00000000
,
01000000
00000000
00000000
00000000
,
00100000
00000000
00000000
00000000
,
00010000
00000000
00011000
00000000
,
00001100
00000000
00000000
00000000
,
00000001
00000100
00001000
00000100
,
00000001
00000100
00001000
00000000
00000001
00000100
00001000
00000000
,
00010000
01000000
10000000
01000000
,
00010000
01000000
10000000
00000000
00010000
01000000
10000000
00000000
,
00000000
00000000
10000000
00000000
,
00100000
00010000
00001000
00010000
,
00000100
00000000
00000010
00000001
,
00000010
00001000
00011000
00000000
,
01000000
00000000
10000000
01000000
,
00010000
00001000
00000010
00001000
,
00010000
00000000
00001000
00000100
,
00001000
00010000
00011000
00000000
,
00010000
00000000
01000000
00000000
,
10000000
00000000
01000000
00000000
,
00010000
00000000
00001000
00000000
,
00011000
00000000
00000000
00000000
,
00001000
00000000
00000100
00000000
,
00000001
00000000
00000100
00000000
,
00001000
00000000
00010000
00000000
,
00011000
00000000
00000000
00000000
,
00010000
00000000
01000000
00000000
,
10000000
00000000
00100000
00000000
,
00010000
00000000
00001000
00000000
,
00010000
00000000
00000100
00000000
,
00000001
00000000
00000100
00000000
,
00001000
00000000
00000010
00000000
,
00000100
00000000
00001000
00000000
,
00010000
00000000
00000000
00000000
,
20020000
00000000
00000000
30030000
,
00000000
00000000
00000000
00000000
;

//---------------dance-double - ----------------
#NOTES:
     dance-double:
     :
     Medium:
     9:
     0.333645,0.483959,0.107492,0.019544,0.175896,239.000000,228.000000,11.000000,2.000000,0.000000,0.000000,0.333645,0.483959,0.107492,0.019544,0.175896,239.000000,228.000000,11.000000,2.000000,0.000000,0.000000:
00000000
00000000
00000000
00000000
,
00000000
00000000
00000000
00000000
,
00000000
00000000
00000000
00000000
,
10000000
01000000
00010000
00000000
,
00010000
00001000
00000100
00000000
,
00000001
00000100
00001000
00000000
,
00001000
00010000
01000000
00000000
,
10000000
01000000
00010000
00011000
,
00001000
00000100
00000001
00000000
,
00000010
00000000
00000000
00000001
00000000
00000000
00000000
00000000
00000100
00000000
00000000
00000010
00000000
00000000
00000000
00000000
,
00000100
00000000
00000000
00001000
00000000
00000000
00000000
00000000
00010000
00000000
00000000
00001000
00000000
00000000
00010000
00000000
,
00100000
00000000
00000000
01000000
00000000
00000000
00000000
00000000
00010000
00000000
00000000
00100000
00000000
00000000
00000000
00000000
,
01000000
00000000
00000000
10000000
00000000
00000000
00000000
00000000
01000000
00000000
00000000
00010000
00000000
00000000
00001000
00000000
,
00010000
00000000
00000000
00000100
00000000
00000000
00000000
00000000
00000010
00000000
00000000
00001000
00000000
00000000
00000000
00000000
,
00000001
00000000
00000000
00000100
00000000
00000000
00000000
00000000
00001000
00000000
00000000
00010000
00000000
00000000
00001000
00000000
,
01000000
00000000
00000000
00100000
00000000
00000000
00000000
00000000
01000000
00000000
00000000
10000000
00000000
00000000
00000000
00000000
,
01000000
00000000
00000000
00010000
00000000
00000000
00000000
00000000
00100000
00000000
00000000
00010000
00000000
00000000
00001000
00000000
,
00000010
00000000
00000000
00000100
00000000
00000000
00000000
00000000
00000010
00000000
00000000
00000001
00000000
00000000
00000000
00000000
,
00000100
00000000
00000000
00000010
00000000
00000000
00000000
00000000
00000100
00000000
00000000
00001000
00000000
00000000
00010000
00000000
,
00100000
00000000
00000000
00010000
00000000
00000000
00000000
00000000
00001000
00000000
00000000
00000010
00000000
00000000
00000000
00000000
,
00001000
00000000
00000000
00010000
00000000
00000000
00000000
00000000
00001000
00000000
00000000
00000100
00000000
00000000
00001000
00000000
,
00010000
00000000
00000000
00001000
00000000
00000000
00000000
00000000
00010000
00000000
00000000
01000000
00000000
00000000
00000000
00000000
,
00100000
00000000
00000000
00010000
00000000
00000000
00000000
00000000
01000000
00000000
00000000
00100000
00000000
00000000
00000000
00000000
,
10000000
00000000
00000000
00010000
00000000
00000000
10000000
00000000
00100000
00000000
00000000
01000000
00000000
00000000
00100000
00000000
,
00010000
00000000
00000000
00001000
00000000
00000000
00010000
00000000
00000100
00000000
00000000
00000010
00000000
00000000
00000100
00000000
,
00000000
00000000
00000100
00000000
,
00000001
00000000
00000010
00000000
,
00001000
00000000
00010000
00000000
,
00100000
00000000
01100000
00000000
,
00010000
00000000
01000000
00000000
,
10000000
00000000
00000000
01000000
00000000
00000000
00010000
00000000
,
00001000
00000000
00000000
00010000
00000000
00000000
00001000
00000000
,
00000100
00000000
00000000
00000000
,
00000001
00000000
00000100
00000000
,
00001000
00000000
00010000
00000000
,
00100000
00000000
00010000
00000000
,
00001000
00000000
00001010
00000000
,
00000001
00000000
00000010
00000000
,
00001000
00000000
00000000
00010000
00000000
00000000
00000100
00000000
,
00000010
00000000
00000000
00001000
00000000
00000000
00010000
00000000
,
00000100
00000000
00000000
00000000
,
00000001
00000100
00001000
00000000
00010000
00100000
10000000
00000000
,
10000000
01000000
00010000
01000000
10000000
01000000
00010000
00000000
,
10000000
01000000
00010000
00000000
00001000
00000010
00000001
00000000
,
00000001
00000100
00001000
00000100
00000001
00000100
00001000
00000000
,
00000000
00000100
00000001
00000010
,
00001000
00010000
00000010
00011000
,
00100000
00000000
00000000
00000000
00010000
00000000
00000000
00000000
01000000
00000000
00000000
00100000
00000000
00000000
01000000
00000000
,
00010000
00000000
00000000
00100000
00000000
00000000
00001000
00000000
00010000
00000000
00000000
00000000
00000000
00000000
00000000
00000000
,
00010000
01000000
10000000
00100000
,
00010000
00000100
00000010
00001100
,
00010000
00000000
00000000
00000000
00001000
00000000
00000000
00000000
00010000
00000000
00000000
01000000
00000000
00000000
00100000
00000000
,
00001000
00000000
00000000
00010000
00000000
00000000
00000010
00000000
00000100
00000000
00000000
00000000
00000000
00000000
00000000
00000000
,
00000001
00000000
00000000
00001000
00000000
00000000
00000001
00000000
,
00000100
00000000
00000000
00000010
00000000
00000000
00000100
00000000
,
00001000
00000000
00000000
00010000
00000000
00000000
01000000
00000000
,
10000000
00000000
01010000
00000000
,
00100000
00000000
00000000
10000000
00000000
00000000
00100000
00000000
,
00010000
00000000
00000000
00001000
00000000
00000000
00010000
00000000
,
00100000
00000000
00000000
00010000
00000000
00000000
00000010
00000000
,
00001000
00000000
00000000
00000000
,
00000001
00000000
00000000
00001000
00000000
00000000
00000100
00000000
,
00000010
00000000
00000000
00001000
00000000
00000000
00000010
00000000
,
00001000
00000000
00000000
00010000
00000000
00000000
01000000
00000000
,
10000000
00000000
01010000
00000000
,
00001000
00000000
00000000
00010000
00000000
00000000
01000000
00000000
,
00100000
00000000
00000000
00001000
00000000
00000000
00010000
00000000
,
00001000
00000000
00001100
00000000
,
00000101
00000000
00000011
00000000
,
00002200
00000000
00000000
00000000
,
00000000
00000000
00000000
00003300
,
00000000
00000000
00000000
00000000
;

//---------------dance-double - ----------------
#NOTES:
     dance-double:
     :
     Hard:
     11:
     0.425781,0.557005,0.283389,0.039088,0.175896,305.000000,276.000000,29.000000,4.000000,0.000000,0.000000,0.425781,0.557005,0.283389,0.039088,0.175896,305.000000,276.000000,29.000000,4.000000,0.000000,0.000000:
00000000
00000000
00000000
00000000
,
00000000
00000000
00000000
00000000
,
00000000
00000000
00000000
00000000
,
10000000
00000000
01000000
00000000
00100000
00000000
00010000
00001000
,
00000100
00000010
00000001
00001100
,
00000001
00000100
00000010
00000000
00000100
00000000
00001000
00000000
,
00010000
01000000
10000000
00000000
00100000
00000000
01010000
00000000
,
10000000
01000000
00010000
00000000
00010000
00001000
00000100
00000000
,
00000001
00000100
00001000
00000000
00001000
00010000
00100000
00000000
,
10000000
00000000
00000000
00010000
00000000
00000000
00100000
00000000
00010000
00000000
00000000
01000000
00000000
00000000
00100000
00000000
,
00010000
00000000
00000000
00001000
00000000
00000000
00000100
00000000
00000010
00000000
00000000
00000000
00001000
00000000
00000000
00000000
,
00000001
00000000
00000000
00001000
00000000
00000000
00000010
00000000
00001000
00000000
00000000
00000100
00000000
00000000
00000010
00000000
,
00001000
00000000
00000000
00010000
00000000
00000000
01000000
00000000
00100000
00000000
00000000
00000000
00100000
00000000
00000000
00000000
,
00010000
00000000
00000000
01000000
00000000
00000000
10000000
00000000
00010000
00000000
00000000
00100000
00000000
00000000
10000000
00000000
,
01000000
00000000
00000000
00010000
00000000
00000000
00001000
00000000
00000100
00000000
00000000
00000000
00000001
00000000
00000000
00000000
,
00001000
00000000
00000000
00000100
00000000
00000000
00000001
00000000
00001000
00000000
00000000
00000010
00000000
00000000
00000001
00000000
,
00000100
00000000
00000000
00001000
00000000
00000000
00010000
00000000
01000000
00000000
00000000
00000000
01000000
00000000
00000000
00000000
,
10000000
00000000
00000000
00010000
00000000
00000000
01000000
00000000
00100000
00000000
00000000
00100000
00000000
00000000
00010000
00000000
,
00001000
00000000
00000000
00000010
00000000
00000000
00001000
00000000
00000010
00000000
00000000
00000010
00000000
00000000
00000001
00000000
,
00000010
00000000
00000000
00001000
00000000
00000000
00010000
00000000
00000100
00000000
00000000
00000100
00000000
00000000
00010000
00000000
,
00100000
00000000
00000000
00010000
00000000
00000000
00001000
00000000
01000000
00000000
00000000
01000000
00000000
00000000
00100000
00000000
,
01000000
00000000
00000000
10010000
00000000
00000000
00000000
00000000
00100000
00000000
00000000
00010000
00000000
00000000
00000000
00000000
,
00001000
00000000
00000000
00011000
00000000
00000000
00000000
00000000
00000100
00000000
00000000
00000100
00000000
00000000
00000000
00000000
,
00000010
00000000
00000000
00001010
00000000
00000000
00001000
00000000
00000010
00000000
00000000
00000110
00000000
00000000
00000100
00000000
,
00010000
00000000
00000000
00011000
00000000
00000000
00001000
00000000
01000000
00000000
00000000
01100000
00000000
00000000
00100000
00000000
,
00000000
00010000
00000000
00000000
00000000
00000000
00000000
00000000
00000000
00000000
00000000
00000000
00000000
00000000
00000000
00000000
00000000
00000000
00000000
00000000
00000000
00000000
00000000
00000000
10000000
00000000
00000000
00000000
00000000
00000000
00000000
00000000
00000000
00000000
00000000
00000000
00000000
00000000
00000000
00000000
00000000
00000000
00000000
00000000
00000000
00000000
00000000
00000000
00100000
00000000
00000000
00000000
00000000
00000000
00000000
00000000
01000000
00000000
00000000
00000000
00000000
00000000
00000000
00000000
,
00100000
00000000
00000000
00010000
00000000
00000000
00001000
00000000
,
00010000
00000000
00000000
01000000
00000000
00000000
00010000
00001000
,
00010000
00000000
01001000
00000000
,
00100000
00000000
00000000
00010000
00000000
00000000
00001000
00000000
,
00000010
00000000
00000000
00000011
00000000
00000000
00001000
00000000
,
00000100
00000000
00000000
00000010
00000000
00000000
00001000
00000000
,
00010000
00000000
00000000
00000000
,
00010000
00000000
00000000
01000000
00000000
00000000
10000000
01000000
,
10000000
00000000
00000000
01000000
00000000
00000000
00010000
00000000
,
00001000
00000000
00001100
00000000
,
00000101
00000000
00000000
00000001
00000000
00000000
00000010
00000000
,
00001000
00000000
00000000
01000000
00000000
00000000
00001000
00010000
,
00001000
00000000
00000000
00011000
00000000
00000000
00010000
00000000
,
01000000
00000000
00000000
10000000
00000000
00000000
00010000
00000000
,
00100000
00000000
00110000
00000000
,
10000000
01000000
00010000
01000000
00010000
00001000
00000010
00000000
,
00001000
00000100
00000001
00000100
00010000
00001000
00000010
00000000
,
00000001
00000100
00001000
00000100
00001000
00010000
00100000
00000000
,
00010000
01000000
10000000
01000000
00001000
00010000
00100000
00000000
,
00000000
00010000
00000000
00000000
00000000
00000000
00000000
00000000
00000000
00000000
00000000
00000000
10000000
00000000
00000000
00000000
00000000
00000000
00000000
00000000
00000000
00000000
00000000
00000000
00100000
00000000
00000000
00000000
00000000
00000000
00000000
00000000
00020000
00000000
00000000
00000000
00000000
00000000
00000000
00000000
00000000
00000000
00000000
00000000
00000000
00000000
00000000
00000000
00001000
00000000
00000000
00000000
00000000
00000000
00000000
00000000
00000000
00000000
00000000
00000000
00000000
00000000
00000000
00000000
,
00100000
00031000
00000100
00000010
,
00001000
00000000
00000000
00000001
00000000
00000000
00000010
00000000
00002000
00000000
00000000
00000000
00010000
00000000
00000000
00000000
,
00000010
00013000
01000000
00000000
,
00100000
00000000
00000000
00010000
00000000
00000000
00001000
00000000
00000010
00000000
00000000
00001000
00000000
00000000
00010000
00000000
,
00001000
00001100
00000101
00001100
,
00000010
00000000
00000000
00001000
00000000
00000000
00010000
00000000
00100000
00000000
00000000
00010000
00000000
00000000
00001000
00000000
,
00010000
01010000
11000000
00000000
,
00010000
00000000
00000000
10000000
00000000
00000000
01000000
00100000
,
01000000
00000000
00000000
00010000
00000000
00000000
00001000
00000000
,
00010000
00000000
00001100
00000000
,
00000101
00000000
00000000
00000010
00000000
00000000
00000001
00000000
,
00001000
00000000
00000000
00000001
00000000
00000000
00000100
00000010
,
00000100
00000000
00000000
00001000
00000000
00000000
00010000
00000000
,
00001000
00000000
00101000
00000000
,
01100000
00000000
10100000
00000000
,
00100000
00000000
00000000
00001000
00000000
00000000
00010000
00001000
,
00010000
00000000
00000000
00100000
00000000
00000000
00010000
00000000
,
00001000
00000000
00001010
00000000
,
00000011
00000000
00000000
00000100
00000000
00000000
00001000
00000000
,
00010000
00000000
00000000
01000000
00000000
00000000
00100000
00010000
,
00100000
00000000
00000000
00001000
00000000
00000000
00010000
00000000
,
00100000
00000000
10100000
00000000
,
01010000
00000000
00000000
00000000
,
00022000
00000000
00000000
00000000
,
00000000
00000000
00000000
00000000
,
00000000
00033000
00000000
00000000
,
00000000
00000000
00000000
00000000
;

//---------------dance-single - ----------------
#NOTES:
     dance-single:
     :
     Challenge:
     14:
     0.672873,1.457008,0.635181,0.029316,0.649839,482.000000,417.000000,65.000000,3.000000,0.000000,0.000000,0.672873,1.457008,0.635181,0.029316,0.649839,482.000000,417.000000,65.000000,3.000000,0.000000,0.000000:
// measure 0
0000
0000
0000
0000
,  // measure 1
0000
0000
0000
0000
,  // measure 2
0000
0000
0000
0000
,  // measure 3
1000
0000
0100
0000
0001
0000
0100
1000
0000
0010
0000
1000
0010
0000
1000
0000
,  // measure 4
0001
0000
1000
0000
0010
0000
0100
0001
0000
0010
0000
0100
1000
0000
0010
0000
,  // measure 5
0100
0000
0001
0000
0100
0000
0000
0001
0000
0010
0000
1000
0010
0000
0100
0000
,  // measure 6
0010
0000
1000
0000
0001
0000
0100
0001
0000
0100
0000
0010
0100
0000
0010
0000
,  // measure 7
1000
0100
0001
0000
0100
1000
0001
0010
,  // measure 8
0001
0000
0100
0000
0010
0000
0100
0000
0001
0000
1000
0000
0010
1000
0010
1000
,  // measure 9
0001
0000
0000
0100
0000
0000
0100
0010
0100
0000
0010
0000
0000
0000
1000
0010
,  // measure 10
1000
0000
0000
1010
0000
0000
0100
0010
0100
0000
0000
0101
0000
0000
1000
0000
,  // measure 11
0001
0000
0000
0101
0000
0000
0100
0010
0100
0000
0010
0000
0000
0000
1000
0001
,  // measure 12
1000
0000
0000
1010
0000
0000
0010
0100
0010
0000
0000
0101
0000
0000
0010
1000
,  // measure 13
0010
0000
0000
0110
0000
0000
0101
0000
0001
0000
0000
1001
0000
0000
1000
0000
,  // measure 14
1010
0000
0000
0110
0000
0000
0100
0001
0100
0000
0000
0010
0000
0000
1000
0000
,  // measure 15
0001
0000
0000
0101
0000
0000
0100
0000
0010
0000
0000
1010
0000
0000
1000
0000
,  // measure 16
0001
0000
0000
0101
0000
0000
0100
0000
0010
0000
0000
1010
0000
0010
1000
0001
,  // measure 17
1000
0000
0000
1001
0000
0000
0001
0100
0010
0000
0000
0110
0000
0000
0010
0100
,  // measure 18
0001
0000
0000
1001
0000
0000
1000
0000
0010
0000
0000
0110
0000
0000
0101
0000
,  // measure 19
0001
0000
0000
1001
0000
0000
1000
0010
0100
0000
0000
0110
0000
0000
0010
0100
,  // measure 20
0001
0000
0000
0101
0000
0000
0100
0010
1000
0000
0000
1010
0000
0000
0100
0010
,  // measure 21
0100
0000
0000
0110
0000
0000
1001
0000
0000
0000
0000
0000
0000
0000
0001
1000
,  // measure 22
0001
0000
0000
0101
0000
0000
0110
0000
1010
0000
0000
0000
1001
0000
0000
0000
,  // measure 23
1100
0000
0000
0101
0000
0000
0100
1000
0100
0000
0000
0110
0000
0000
0010
0001
,  // measure 24
0010
0000
0000
1010
0000
0000
0100
0010
0100
0000
0000
0011
0000
0000
1000
0001
,  // measure 25
0000
1000
0000
0000
0000
0000
0000
0000
0000
0000
0000
0000
0000
0000
0000
0000
0000
0000
0000
0000
0000
0000
0000
0000
1000
0000
0000
0000
0000
0000
0000
0000
0000
0000
0000
0000
0000
0000
0000
0000
0000
0000
0000
0000
0000
0000
0000
0000
0010
0000
0000
0000
0000
0000
0000
0000
0100
0000
0000
0000
0000
0000
0000
0000
,  // measure 26
0010
0000
0000
0100
0000
0000
0001
0000
,  // measure 27
0010
0000
0000
0100
0000
0000
1000
0100
,  // measure 28
1000
0000
0000
0001
0000
0000
1000
0000
,  // measure 29
0010
0000
1000
0001
1000
0001
1000
0000
,  // measure 30
0001
0000
0000
1000
0000
0000
0001
0000
,  // measure 31
0010
0000
0000
0100
0000
0000
1000
0000
,  // measure 32
0010
0000
0101
0000
,  // measure 33
1000
0000
0000
0001
0100
0001
0100
0000
,  // measure 34
0000
0000
0000
0010
0000
0000
1000
0000
,  // measure 35
0001
0000
0000
1000
0000
0000
0100
1000
,  // measure 36
0100
0000
0000
0010
0000
0000
0001
0000
,  // measure 37
1001
0000
1000
0100
1000
0010
1000
0001
,  // measure 38
0100
0000
0000
0011
0000
0000
0010
0000
,  // measure 39
0100
0000
0000
1100
0000
0000
0010
0000
,  // measure 40
0001
0000
0000
0000
0100
0001
0100
0001
,  // measure 41
0100
0000
0000
0000
0010
0000
0000
0000
1000
0001
1000
0000
1000
0001
1000
0000
0100
0010
0100
0000
0001
0100
0001
0000
0100
0010
0100
0000
0001
0000
0001
0000
,  // measure 42
1000
0100
1000
0000
0010
0000
0010
0000
0100
0000
0100
0000
0001
0000
0001
0000
1000
0000
1000
0000
0010
0000
0100
0000
0001
0000
0100
0000
0010
0000
1000
0000
,  // measure 43
0010
0100
0010
0000
0100
0010
0100
0000
0001
0000
0001
0000
1000
0000
1000
0000
0010
0100
0010
0000
0100
0001
0100
0000
0001
0000
0010
0000
0100
0000
1000
0000
,  // measure 44
0001
0010
0001
0000
0010
0000
1000
0000
0010
0001
0010
0000
0001
0000
1000
0000
0001
0000
0100
0000
0010
0000
1000
0000
0010
0100
0010
0100
0010
0100
0010
0100
,  // measure 45
0000
0001
0000
0000
0000
0000
0000
0000
0000
0000
0000
0000
0001
0000
0000
0000
0000
0000
0000
0000
0000
0000
0000
0000
0010
0000
0000
0000
0100
0000
0000
0000
1000
0000
0000
0000
0000
0000
0000
0000
0000
0000
0000
0000
1001
0000
0000
0000
0000
0000
0000
0000
0000
0000
0000
0000
0100
0000
0000
0000
0000
0000
0000
0000
,  // measure 46
0101
0000
0000
0110
0000
0000
1000
0010
1000
0000
0000
1001
0000
0000
0010
0000
,  // measure 47
0011
0000
0000
0110
0000
0000
0100
1000
0001
0000
0000
0101
0000
0000
0110
0000
,  // measure 48
1010
0000
0000
1001
0000
0000
0101
0000
0220
0000
0000
0000
0000
0000
0330
0000
,  // measure 49
1001
0000
0000
1010
0000
0000
0010
0100
0010
0000
0000
0101
0000
0000
0001
0000
,  // measure 50
1001
0000
0000
1010
0000
0000
0010
0100
0001
0000
0000
1001
0000
0000
1010
0000
,  // measure 51
0110
0000
0000
1010
0000
0000
0001
0100
0001
0000
0000
1000
0000
0000
0001
0000
,  // measure 52
1001
0000
0000
1010
0000
0000
0010
0000
0110
0000
0000
0000
0000
0001
1000
0001
,  // measure 53
1000
0000
0000
1000
0000
0000
0010
0100
,  // measure 54
0010
0000
0000
0100
0000
0000
0001
0000
,  // measure 55
0010
0000
0000
0100
0000
0000
1000
0100
,  // measure 56
1000
0000
0000
0001
0000
0000
1000
0000
,  // measure 57
0010
0000
0000
0100
0000
0000
0001
0010
,  // measure 58
0001
0000
0000
1000
0000
0000
0001
0000
,  // measure 59
0010
0000
0000
0100
0000
0000
1000
0000
,  // measure 60
0010
0000
0101
0000
,  // measure 61
1000
0000
0000
0001
0000
0000
0100
0010
,  // measure 62
0100
0000
0000
0010
0000
0000
0001
0000
,  // measure 63
0010
0000
0000
1000
0000
0000
0100
1000
,  // measure 64
0100
0000
0000
0010
0000
0000
0001
0000
,  // measure 65
1001
0000
0000
0100
0000
0000
0001
0100
,  // measure 66
0001
0000
0000
1001
0000
0000
0001
0000
,  // measure 67
1000
0001
0010
0100
,  // measure 68
1000
0001
1000
0001
1000
0001
1000
0001
,  // measure 69
2000
0000
0000
0000
,  // measure 70
0000
0000
0000
0000
,  // measure 71
3000
0000
0000
0000
;
