#TITLE:Pluto;
#SUBTITLE:;
#ARTIST:Black∞Hole;
#TITLETRANSLIT:;
#SUBTITLETRANSLIT:;
#ARTISTTRANSLIT:Black Hole;
#GENRE:;
#CREDIT:;
#BANNER:Pluto.png;
#BACKGROUND:Pluto-bg.png;
#LYRICSPATH:;
#CDTITLE:;
#MUSIC:Pluto.ogg;
#OFFSET:0.000000;
#SAMPLESTART:4.810000;
#SAMPLELENGTH:15.000000;
#SELECTABLE:YES;
#DISPLAYBPM:50.000000:220.000000;
#BPMS:0.000000=50.000000
,12.000000=109.947998
,26.000000=112.500000
,26.250000=114.990997
,33.750000=115.098999
,41.500000=120.000000
,53.500000=115.015999
,65.500000=200.091003
,90.000000=220.048996
,100.000000=220.000000
,111.000000=220.156998
,123.500000=50.000000
,131.500000=220.279999
,138.500000=221.311005
,141.500000=225.000000
,142.000000=219.511993
,149.000000=218.447006
,151.500000=221.311005
,154.500000=220.587997
,157.000000=225.000000
,158.000000=217.742004
,159.500000=219.511993
,164.500000=225.000000
,165.500000=219.511993
,166.500000=220.279999
,170.000000=119.821999
,176.750000=121.622002
,177.250000=124.999992
,184.250000=129.807999
,191.750000=135.139008
;
#STOPS:19.000000=0.407000,
26.000000=0.547000,
33.750000=0.393000,
65.500000=2.253000,
100.000000=0.413000,
111.000000=0.273000,
131.500000=0.820000,
138.500000=0.140000,
141.500000=0.140000,
142.000000=0.273000,
145.000000=0.133000,
149.000000=0.133000,
151.500000=0.273000,
154.500000=0.140000,
157.000000=0.140000,
158.000000=0.273000,
159.500000=0.133000,
160.500000=0.273000,
164.500000=0.273000,
165.500000=0.273000,
166.500000=0.273000,
176.750000=0.373000,
184.000000=0.480000,
191.750000=0.340000
;
#BGCHANGES:;
#KEYSOUNDS:;
#ATTACKS:;

//---------------dance-single - ----------------
#NOTES:
     dance-single:
     :
     Edit:
     17:
     0.894043,1.330920,0.668896,0.082467,1.122463,683.000000,610.000000,73.000000,9.000000,0.000000,0.000000,0.894043,1.330920,0.668896,0.082467,1.122463,683.000000,610.000000,73.000000,9.000000,0.000000,0.000000:
// measure 0
0000
0000
0000
0000
,  // measure 1
0000
0000
0100
0010
0000
1000
0010
0000
0000
1000
0001
0000
1001
0000
0101
0000
0100
0000
0010
1000
0000
0010
1000
0000
0000
0010
0100
0000
0110
0000
0101
0000
,  // measure 2
1001
0000
0010
0100
0000
0001
0100
0000
0010
1000
0001
0000
1001
0000
1010
0000
0110
0000
0100
0001
0000
1000
0001
0000
0000
1000
0010
0100
0010
0000
0100
0000
,  // measure 3
1001
0100
0001
0100
1100
0001
1000
0100
0010
0001
0010
0100
1000
0001
2000
0000
,  // measure 4
3001
0100
0010
0100
0001
0010
0100
1000
0100
0010
0001
1000
1001
0100
0010
1000
,  // measure 5
0010
0000
0100
0000
0001
0000
0010
0000
0001
1000
0001
0000
0010
0000
0100
1000
0100
0000
0000
0000
0110
0000
1000
0000
0001
0000
0100
0000
0001
0000
0010
0000
,  // measure 6
0100
0000
0010
0000
0001
0000
1000
0000
0010
1000
0010
1000
0001
0100
0001
0100
0010
0000
0100
0000
0010
0000
1000
0000
0010
0000
0100
0000
0000
0000
0001
0000
,  // measure 7
0100
1000
0100
0001
1000
0000
0010
0100
0001
0100
0010
1000
0010
0100
0000
0001
,  // measure 8
0010
0100
1000
0010
0100
0110
0000
1001
0000
0010
0101
0000
1000
0100
0001
0100
,  // measure 9
1000
0001
0100
0000
0001
0010
1000
0010
0100
0001
0100
0000
1000
0001
0100
1000
,  // measure 10
0100
0001
0010
0100
1000
0001
1001
0000
0100
0010
1000
0100
0001
0100
1000
0010
,  // measure 11
0100
0000
0001
0100
0010
1000
0100
0010
0001
0010
0100
1000
0001
0000
0100
0010
,  // measure 12
1000
0010
0100
0001
0100
0001
0010
0001
1000
0000
0010
0100
0001
0100
0010
0100
,  // measure 13
0001
0100
0010
0100
0001
0000
1010
0100
0001
0100
1000
0001
0100
0001
1000
0010
,  // measure 14
0100
0010
1000
0001
0100
0010
0100
0001
0010
0100
1000
0010
0001
0010
1000
0001
,  // measure 15
0100
0010
0100
0001
0010
0001
0100
0010
0100
0001
0010
0100
1001
0010
0100
0010
,  // measure 16
0101
1000
0010
1000
0001
0100
1001
0000
0010
0000
0100
0000
0001
0000
0100
0000
,  // measure 17
0010
1000
0010
0000
1000
0000
0100
0000
0010
0000
0001
0000
0100
0000
0010
0000
,  // measure 18
0110
0010
1010
0000
0101
0110
0101
0000
,  // measure 19
1001
1100
1001
0000
0101
0110
0101
0000
,  // measure 20
1100
1010
1001
0000
1000
0010
0001
0010
,  // measure 21
1000
0001
0100
0001
1000
0010
0001
0010
,  // measure 22
1001
0000
0101
0000
0110
0000
0000
0000
1000
0010
0100
0000
0001
0000
0010
0000
,  // measure 23
0001
0000
0100
0000
0010
0000
1000
0001
0100
0000
0001
1000
0010
0000
1000
0001
,  // measure 24
0010
0001
0010
1000
0010
0001
0010
0100
,  // measure 25
1001
0000
0010
0000
0100
0001
0100
0000
0100
0000
1010
0000
0100
0000
1001
0000
,  // measure 26
0010
0100
0001
0100
0010
1000
0010
0100
,  // measure 27
0001
0010
0100
0010
0001
1000
1001
0110
,  // measure 28
0010
1000
0001
0000
1000
0000
0010
0000
0100
0000
0001
0000
0010
0100
1000
0000
,  // measure 29
1010
0100
0001
0001
0101
0100
0110
0001
,  // measure 30
0100
1000
0010
0001
0010
1000
0000
2002
,  // measure 31
0000
0000
3003
0000
0000
0001
0100
0000
0101
0000
1010
0000
0100
0000
0001
0100
0000
0001
0100
0000
0010
1000
0100
0000
1010
0000
1001
0000
0101
0010
1000
0010
,  // measure 32
0100
0001
0010
0100
1000
0100
0010
0001
0100
0010
1000
0010
0101
0010
1000
0001
1000
0010
0100
0010
1000
0100
0010
0001
1000
0001
0100
0001
1001
0000
0000
0000
,  // measure 33
0000
1001
0100
0010
0100
0001
0010
0001
,  // measure 34
1000
0000
0010
0000
1000
0000
0010
0000
0100
0001
1000
0000
0001
0000
0100
0000
,  // measure 35
0010
0000
0100
0000
0001
0010
0100
0000
1010
0000
0100
0001
0100
0000
0001
1000
,  // measure 36
0001
0000
0100
0010
1000
0000
0101
0000
0010
1000
0100
0000
1000
0000
0010
0000
,  // measure 37
0100
0001
0100
0000
1001
0000
0010
0000
0100
0010
0100
0000
0010
0100
0010
0000
,  // measure 38
1000
0000
0001
1000
0010
0000
0100
0000
0001
1000
0001
0000
0010
0000
0100
1000
,  // measure 39
0001
0000
0100
0010
0100
0000
0001
0000
1001
0000
0001
0000
0100
0001
1000
0000
,  // measure 40
1000
1010
0001
0100
0010
0100
0001
0010
,  // measure 41
0100
1010
0100
1001
0010
0101
1010
0000
,  // measure 42
0110
0000
0010
0000
1010
0000
1000
0000
0001
0100
1000
0100
0001
0000
0100
0010
,  // measure 43
1000
0010
1000
0010
0100
0000
0000
0000
0001
0000
0010
0000
1000
0000
0010
0000
0001
0000
0010
0000
0100
0000
1000
0000
0100
0000
0010
0000
0001
0000
1000
0000
,  // measure 44
0010
0100
0010
0100
0010
0000
1000
0000
0001
0000
0100
0000
0010
0000
0100
0000
0001
0000
0000
0000
1000
0000
0010
0000
0100
0000
0010
0000
1000
0001
1000
0001
,  // measure 45
1000
0000
0000
0000
0001
0000
0100
0000
0010
0000
0100
0000
0001
0000
1000
0000
0010
0000
1000
0000
0001
0000
0100
0000
0010
0000
0100
0000
0001
0010
0001
0010
,  // measure 46
0100
1000
0001
0100
0001
1000
0000
0001
0100
0010
0100
0001
0010
0000
0100
1000
,  // measure 47
0001
1000
0010
0100
0010
1000
0000
0001
0100
0010
0100
0001
0010
0110
0000
0110
,  // measure 48
1000
1001
0000
0000
0010
0100
0001
0100
0010
1000
0000
1000
0100
0001
0100
1000
,  // measure 49
0001
0100
0001
0000
0100
0010
1000
0010
0100
0001
0011
0000
1001
0000
0000
0000
,  // measure 50
2020
0000
3030
0220
0000
0000
0330
2002
,  // measure 51
0000
0000
0000
0000
0000
0000
0000
3003
;

//---------------dance-single - ----------------
#NOTES:
     dance-single:
     :
     Beginner:
     6:
     0.136135,0.163158,0.054978,0.000000,0.073304,104.000000,98.000000,6.000000,0.000000,0.000000,0.000000,0.136135,0.163158,0.054978,0.000000,0.073304,104.000000,98.000000,6.000000,0.000000,0.000000,0.000000:
0000
0000
0000
0000
,
0010
0000
0010
0000
,
0010
0000
0010
0010
,
0000
0001
0000
1000
,
0000
0000
0000
0000
1000
0000
0000
0000
0000
0000
0000
0000
0001
1000
0000
0000
,
0000
0000
0000
0000
0000
0001
0000
0000
0000
0000
0000
0000
0000
0001
0000
0000
,
0000
0000
0000
0000
0000
1000
0000
0000
0000
1000
0000
0000
0000
0000
0000
0000
,
0000
0010
0000
0000
0000
0000
0000
0000
0000
0001
0000
0000
0000
0000
0000
0000
,
0000
0010
0000
0000
0000
0000
0000
0000
0000
0000
1001
0000
0000
0000
0000
0000
,
0000
0100
0000
0000
0000
1001
0000
0000
,
0000
0100
0000
0000
0000
0001
0000
0000
,
0000
0001
0000
0000
0000
0100
0000
0000
,
0000
1000
0000
0000
0000
1000
0000
0000
,
0000
0010
0000
0000
0000
0000
0100
0000
,
0000
0000
0010
0000
,
0000
0010
0000
0000
,
1000
0000
0000
0001
,
0000
0001
0000
0100
,
0000
0100
0000
0010
,
0000
0010
0000
0100
,
0000
1000
0000
1000
,
0000
1000
0000
0010
,
0000
0000
0010
0000
0000
0100
0000
0000
,
0000
0000
0000
0001
0000
0000
0000
0001
,
0000
0000
0000
0000
0000
1000
0000
0000
,
0000
0100
0000
0100
,
0000
0001
0000
1000
,
0000
0010
0000
0000
,
0001
0000
0000
0000
0000
0010
0000
0000
,
0000
0100
0100
0000
,
0000
1000
0000
0000
0000
0000
0000
1001
,
0000
0010
0010
0010
,
0000
0010
0000
0010
,
0000
0001
0000
0000
,
1000
0000
1000
0000
,
0000
0010
0000
0000
0000
0000
1000
0000
,
0000
0000
1000
0000
0000
0100
0000
0000
,
0000
0010
0000
0000
0100
0000
0000
0000
,
0000
0010
0000
0001
,
0000
0000
0000
0000
0100
1000
0000
0000
,
0100
0000
0000
0000
,
0000
1001
1001
0000
,
0000
0000
1000
0000
,
0001
0000
0001
0000
,
1000
0000
0000
0000
0000
0010
0000
0000
0000
0000
0000
0000
0000
0001
0000
0000
,
0000
0000
0000
0000
0000
0010
0000
0000
0000
0000
0000
0000
0000
0010
0000
0000
,
0000
0000
0000
0000
0000
1000
0000
0000
0000
0000
0000
0000
0000
1000
0000
0000
,
0000
0000
0000
0000
0000
0001
0000
0000
0000
0000
0000
0000
0000
0001
0000
0000
,
0000
1000
0000
0000
0000
0001
0000
0000
,
0000
1000
0000
0000
0000
0001
0000
0000
,
0010
0000
0000
0100
0000
0000
0000
1001
,
0000
0000
0000
0000
;

//---------------dance-single - ----------------
#NOTES:
     dance-single:
     :
     Easy:
     9:
     0.263108,0.419549,0.054978,0.018326,0.169515,201.000000,195.000000,6.000000,2.000000,0.000000,0.000000,0.263108,0.419549,0.054978,0.018326,0.169515,201.000000,195.000000,6.000000,2.000000,0.000000,0.000000:
0000
0000
0000
0000
,
0010
0010
0100
0000
0010
0010
0100
0000
,
0010
0010
0100
0000
0010
0000
0010
0010
,
1000
0001
1000
1000
,
0001
0000
0000
0000
1000
0000
0000
0000
0001
0000
0000
0000
0001
1000
0000
0000
,
0000
0001
0000
0000
0000
1000
0000
0000
0000
1000
0000
0000
0000
0001
0000
0000
,
0000
1000
0000
0000
0000
0001
0000
0000
0000
1000
0000
0000
0000
0100
0000
0000
,
0000
0010
0000
0000
0000
0010
0000
0000
0000
0001
0000
0000
0000
0100
0000
0000
,
0000
0010
0000
0000
0000
0010
0000
0000
0000
0000
1001
0000
0000
0000
0100
0000
,
0000
0100
0000
0010
0000
1001
0000
0100
,
0000
0100
0000
0010
0000
0001
0000
0100
,
0000
0001
0000
0010
0000
0100
0000
0100
,
0000
1000
0000
0010
0000
1000
0000
0100
,
0000
0010
0000
0010
0000
0001
0100
0000
,
0010
1000
0000
0100
0010
0000
0001
1000
,
0000
0100
0010
0000
0001
0100
0000
0010
,
1000
0000
0100
0010
0000
0000
0001
0000
,
0000
0001
1000
0100
,
1000
0100
0000
0010
,
0000
0010
0001
0100
,
0010
1000
0000
1000
,
0000
1000
0000
0010
,
0000
0000
0010
0000
0000
0100
0000
0100
,
0000
0000
0000
0001
0000
0001
0000
0001
,
0000
0000
0000
0000
0000
1000
0000
0001
,
0000
0100
0010
0100
,
0000
0001
0000
1000
,
0100
0010
0000
0000
,
0001
0000
1000
0000
0000
0010
0000
0010
,
0000
0100
0100
0010
,
0000
1000
0000
0001
0000
0000
0000
1001
,
0000
0100
0010
0100
0010
0100
0010
1000
,
0001
0000
1000
0000
0010
0100
0001
0000
1000
0000
0001
0000
0010
0100
0000
0000
,
0000
0001
0001
0000
,
1000
1000
1000
0000
,
0000
0010
0000
0100
0000
0000
1000
0000
,
0001
0000
1000
0000
0000
0100
0000
0000
,
0000
0010
0000
0000
0100
0000
0100
0000
,
0000
0010
0100
0001
,
1000
0000
0000
0000
0100
1000
0000
0001
,
0100
0000
0000
0000
0000
0000
0000
0010
,
0000
1001
1001
0000
,
0000
0000
0000
0000
1000
0001
0100
0000
,
0001
1000
0000
0000
0001
1000
0100
0000
,
1000
0000
0001
0000
0000
0010
0000
0100
0000
1000
0000
0000
0000
0001
0000
0100
,
0000
0000
0000
0000
0000
0010
0000
1000
0000
0100
0000
0000
0000
0010
0000
0001
,
0000
1000
0000
0010
0000
1000
0000
0000
0000
0001
0000
0000
0000
1000
0000
0000
,
0000
0001
0000
0010
0000
0001
0000
0000
0000
1000
0000
0000
0000
0001
0000
0000
,
0000
1000
0000
0010
0100
0001
0100
0000
,
0000
0001
0000
0010
0100
1000
0100
0000
,
0020
0030
0000
0200
0000
0300
0000
1001
,
0000
0000
0000
0000
;

//---------------dance-single - ----------------
#NOTES:
     dance-single:
     :
     Medium:
     12:
     0.407097,0.665460,0.164933,0.164933,0.343611,311.000000,293.000000,18.000000,18.000000,0.000000,0.000000,0.407097,0.665460,0.164933,0.164933,0.343611,311.000000,293.000000,18.000000,18.000000,0.000000,0.000000:
0000
0000
0000
0000
,
0010
0000
0000
0010
0100
0000
0000
0100
,
0010
0000
0000
0000
0000
0000
0000
0000
0000
0000
0000
0000
0010
0000
0000
0000
0100
0000
0000
0000
0000
0000
0000
0000
0000
0000
0000
0100
0100
0000
0000
0000
,
0010
0000
1000
0000
0100
0000
0010
0000
0001
0000
0100
0001
0000
0000
0000
0000
,
1000
0000
0010
0000
0100
0000
0001
0000
0010
0000
0100
1000
0000
0001
0000
0100
,
0000
1000
0000
0100
0000
0010
0000
0001
1000
0000
0000
0000
0000
1000
0000
0001
,
0000
0010
0000
0100
0000
1000
0000
0010
0100
0001
0000
1000
0000
0200
0000
0300
,
0000
1000
0000
0001
0000
0010
0000
0010
0000
1000
0000
0001
0000
0200
0000
0300
,
0000
0010
0000
1000
0000
0100
0000
0100
0000
1000
1000
0000
0000
0000
0001
0000
,
0100
0000
0010
0000
1000
0000
0100
0000
0000
0010
0010
0000
0000
0000
0001
0000
,
1000
0100
0010
0002
0100
0103
0002
1000
,
1003
0002
0100
0103
0002
0010
0013
0002
,
0100
0103
0020
0001
0031
2000
0010
3010
,
0200
1000
1300
0001
0100
0010
1000
0100
,
0010
0001
1000
0100
1000
0001
0100
0010
,
1000
0100
0010
1000
0001
0010
0100
0001
,
1000
0100
0010
1001
2000
0000
0100
0000
,
0001
0100
0001
3100
,
0020
0001
0031
0000
0200
0010
0310
0000
,
2000
0001
3001
0000
0020
0100
0130
0000
,
2000
0001
3001
0000
0100
0000
0010
0000
,
0100
0010
0100
0010
,
1000
0100
0001
0000
0100
0100
0000
1000
,
0000
0000
0000
0001
0000
1000
0000
0001
,
0000
0100
0000
0000
0000
0010
0000
0010
,
0010
0000
1001
0000
0100
0000
0010
0100
,
0000
0000
1000
0001
0000
0000
0100
0000
,
0100
0100
0010
1001
,
1000
0000
0001
0000
0000
1000
0100
0010
,
0000
0000
0001
1000
0100
0000
0100
1000
,
0000
0001
0000
0100
0010
0000
0000
1001
,
0000
0000
0000
0000
0000
0100
0100
0000
0001
0000
1000
0000
0000
0000
0011
0000
0000
0000
1100
0000
0000
0010
0010
0000
0001
0000
1000
0000
0100
0000
0000
0000
,
0010
0000
0100
0000
1001
0110
0001
0000
1000
0000
0001
0000
1001
0110
0000
0000
,
0000
0001
1000
0000
,
0010
0100
0100
0000
,
0000
0010
0000
0100
1001
0000
1000
0000
,
0001
0000
1000
0000
0000
0100
0100
0000
,
0000
1001
0000
0000
0010
0000
0010
0000
,
0000
0000
0010
0000
0100
0000
0010
0001
,
0010
0000
0000
0100
1000
0010
0000
0100
,
0001
1000
0100
0000
0000
0100
0000
0010
,
0000
0100
1001
0000
1001
0000
0000
0000
,
0000
0000
0000
0000
1000
0100
0010
0001
,
0100
0000
0010
1000
0000
0000
0000
0000
0001
0000
0010
0000
0100
0000
1000
0000
,
0010
0000
0100
0001
0000
1000
0000
0100
0000
0001
0000
0100
0000
1000
0000
0001
,
0100
0000
0000
0000
0000
0001
0000
0100
0000
1000
0000
0100
0000
0001
0000
1000
,
0100
0010
0000
0001
0000
1000
0000
0010
0000
0100
0000
1000
0000
0001
0000
0100
,
0000
1000
0000
0010
0000
0001
0000
0100
0000
1000
0000
0010
0000
0001
0000
0100
,
0000
1000
0001
0000
0000
0000
0100
1000
0100
0000
0001
0000
1000
0000
0110
0000
,
0000
1000
0001
0000
0000
0000
0010
1000
0010
0000
0001
0000
1000
0000
0000
0000
,
0110
0000
0000
0110
0000
0000
0000
2002
,
0000
0000
0000
0000
0000
0000
0000
3003
,
0000
0000
0000
0000
;

//---------------dance-single - ----------------
#NOTES:
     dance-single:
     :
     Hard:
     14:
     0.541924,0.903125,0.403170,0.119119,0.517707,414.000000,370.000000,44.000000,13.000000,0.000000,0.000000,0.541924,0.903125,0.403170,0.119119,0.517707,414.000000,370.000000,44.000000,13.000000,0.000000,0.000000:
0000
0000
0000
0000
,
1000
0000
0001
0000
1000
0000
0100
0010
0001
0000
0100
0000
0010
0000
1000
0001
,
0100
0000
0000
0000
0010
0000
0000
0000
0100
0000
0000
0000
0001
0000
0010
0000
0100
0000
0000
0000
1000
0000
0000
0000
0001
0000
0000
0100
0010
0000
0000
0000
,
1000
0000
0001
0100
1000
0000
0001
0100
0001
0000
1000
0100
0000
0000
0000
0000
,
0001
0000
1000
0010
0001
0000
1000
0010
1000
0000
0001
0010
0000
0100
0000
1000
,
0010
0100
0000
0001
0010
0100
0000
1000
0001
0000
0000
0000
0000
0010
0000
1000
,
0100
0010
0000
0001
0100
0010
0000
1000
0001
0010
0000
0100
1000
0010
0000
0000
,
0000
0100
0010
0100
0000
0001
0000
1000
0000
0001
0000
0010
0100
1000
0000
0000
,
0000
0001
0100
0010
0000
1000
0000
0001
0000
0010
0100
0000
0000
0000
1000
0010
,
0100
0000
0010
0000
1000
0000
0100
0000
0000
0010
0100
0000
0000
0000
1000
0001
,
1000
0000
0100
0000
0010
0000
0001
0000
0100
0010
0100
0000
0001
1000
0001
0000
,
0100
0000
0001
0000
1000
0100
1000
0000
0001
0010
0001
0000
0100
0000
0010
0000
,
1000
0001
1000
0000
0010
0100
0010
0000
1000
0000
0001
0000
0010
0100
0010
0000
,
0001
1000
0001
0000
0100
0000
0010
1000
0100
0010
0001
0000
0100
0010
0100
0000
,
0010
0000
1000
0000
0100
1000
0100
0000
0010
0000
0001
0010
0001
0000
0100
0010
,
1000
0100
0010
0000
0001
1000
0001
0000
0100
0000
0010
0000
1000
0100
1000
0000
,
0010
0000
0100
0001
0100
0000
1001
0000
1000
0000
0100
0000
1000
0000
0001
0000
,
1000
0100
1000
0001
1000
0100
1000
0001
,
0000
0200
0010
0000
0310
0000
0000
0000
2000
0000
0010
0000
3010
0000
0000
0000
,
0200
0010
0310
0000
2000
0010
3010
0000
,
0002
0010
0013
0000
1000
0100
0010
0100
,
1000
0010
0100
0010
1000
0100
0010
0100
,
2000
0010
3010
0000
0100
0100
0000
1001
,
0000
0000
0000
0011
0000
1100
0000
0011
,
0000
1001
0000
0000
0000
0110
0000
1000
,
0001
0000
0110
0000
0001
0000
1000
0100
,
0000
0000
0001
0100
0000
0000
1010
0000
,
0101
0011
1100
1001
,
0110
0000
1001
0000
0000
0010
0100
0010
,
0000
0000
1000
0001
0100
0000
0010
1000
,
0000
0100
0000
0010
0001
0000
0000
1100
,
0000
0000
0000
0000
0000
0010
0001
0000
0101
0000
1100
0000
0000
0000
0001
0100
0000
1000
0100
0000
0000
0010
0001
0000
1100
0000
0101
0000
0010
0000
1000
0000
,
0100
0010
0001
1000
0110
1001
1000
0100
0010
0001
0100
0010
1001
0110
0000
0000
,
0000
0001
1000
0100
0010
0000
0000
0000
,
0011
0000
1000
0100
0010
0000
0000
0000
,
0000
1001
0000
0110
1001
0000
1100
0000
,
0011
0000
1100
0000
0000
0001
0010
0000
,
0000
1100
0000
0000
0110
0000
1010
0000
,
0000
0000
1001
0000
0100
0000
0010
0001
,
0010
0000
0000
1000
0001
0100
0000
0100
,
0010
1001
0100
0000
0000
0100
0000
0010
,
0001
0100
0001
1000
0001
2000
0000
0000
,
0000
0000
0000
0000
3000
0000
0000
0000
0001
0000
0010
0000
0100
0000
1000
0001
,
0100
0000
0010
1000
0000
0001
0000
0001
1000
0000
0010
0000
0100
0000
0001
1000
,
0100
0000
0010
0001
0000
1000
0000
0100
0000
0010
0000
0001
1000
0010
0000
0100
,
0001
0000
1000
0000
1000
0001
0000
0100
0000
0010
0000
1000
0001
0010
0000
0100
,
1000
0001
0000
0100
0010
1000
0000
0000
0000
0100
0000
1000
0000
0010
0000
0100
,
0000
0001
0000
0010
0100
1000
0000
0000
0000
0001
0000
0100
0000
0010
0000
0100
,
0000
0001
1000
0000
0000
0000
0100
0010
0100
0000
1001
0000
1001
0000
0110
0000
,
0000
0001
1000
0000
0000
0000
0010
0100
0001
0000
1100
0000
0011
0000
0000
0000
,
2200
0000
0000
3300
0000
0000
2020
0000
0000
0000
0000
3030
0000
0000
0202
0000
,
0000
0000
0000
0000
0000
0000
0000
0303
;

//---------------dance-single - ----------------
#NOTES:
     dance-single:
     :
     Challenge:
     16:
     0.717329,1.045723,0.293215,0.119119,0.884226,548.000000,516.000000,32.000000,13.000000,0.000000,0.000000,0.717329,1.045723,0.293215,0.119119,0.884226,548.000000,516.000000,32.000000,13.000000,0.000000,0.000000:
// measure 0
0000
0000
0000
0000
,  // measure 1
0000
0000
0010
0100
0000
0001
1000
0000
0000
0100
0010
0000
0100
0000
1001
0000
0000
0000
0010
0100
0000
1000
0001
0000
0000
0010
0100
0000
0010
0000
1001
0000
,  // measure 2
0000
0000
0010
0100
0000
0001
0010
0000
0000
0100
1000
0000
0001
0000
0110
0000
0000
0000
0001
0100
0000
0010
1000
0000
0000
0100
0010
0000
0001
0000
1100
0000
,  // measure 3
0001
0100
0001
1000
0100
0000
0100
1000
0001
1000
0010
0100
0000
0100
0101
0000
,  // measure 4
0010
1000
0100
0010
0001
0000
0001
1000
0100
0010
0001
1000
0000
1000
0100
0010
,  // measure 5
0001
1000
0000
1000
0010
0100
0001
0010
0100
0000
0100
1000
0100
0010
0001
1000
,  // measure 6
0010
0100
0000
0001
1000
0001
0100
0010
1000
1000
0001
0100
0010
1000
0000
1000
,  // measure 7
0100
0010
0001
1000
0010
0000
0010
0100
0010
1000
0001
0010
0100
1000
0000
1000
,  // measure 8
0010
0100
0001
0010
0100
1000
0000
0101
0000
1000
0100
0000
0100
0010
0001
1000
,  // measure 9
0010
0100
0000
0100
0001
0100
0010
1000
0100
0010
0001
0000
0001
0100
1000
0100
,  // measure 10
0001
1000
0000
1000
0100
1000
0001
0000
0100
0000
0010
0000
1000
0000
1000
0100
,  // measure 11
1000
0000
1000
0000
0010
0000
0100
0000
0001
0000
0001
0010
0001
0000
0001
0000
,  // measure 12
1000
0000
0100
0000
0010
0000
0001
1000
0001
0000
0001
0000
0100
0000
0010
0000
,  // measure 13
1000
0000
1000
0001
1000
0000
1000
0100
0001
0100
1000
0001
0100
1000
0100
0001
,  // measure 14
1000
0000
0001
0100
1000
0100
0001
1000
0100
0010
0001
0100
1000
0000
0001
0010
,  // measure 15
1000
0010
0001
1000
0010
0001
0010
1000
0001
0000
1000
0010
0001
0010
1000
0001
,  // measure 16
0010
0100
1000
0010
0100
0000
1001
0000
0010
0000
0100
0000
0010
0000
1000
0000
,  // measure 17
0010
0100
0010
0001
0010
1000
0010
0100
,  // measure 18
0010
1001
0110
0000
0011
0101
1001
0000
,  // measure 19
1010
1100
1001
0000
0011
1100
0110
0000
,  // measure 20
1010
0101
1001
0000
0100
0000
0010
0000
,  // measure 21
0100
0010
0100
0010
,  // measure 22
1001
0110
1001
0000
1000
0001
1000
0010
,  // measure 23
1000
0100
0010
0001
0100
0020
1000
0000
,  // measure 24
0100
0000
0031
0000
1000
0100
0010
0002
,  // measure 25
0100
0003
1000
0010
0100
0001
0020
0100
,  // measure 26
0030
0001
1000
0010
0100
0001
0020
0100
,  // measure 27
0030
0001
1000
0010
0100
0001
2100
0000
,  // measure 28
3001
0100
0010
1000
0200
0010
0000
1000
,  // measure 29
0000
0001
0300
1000
0010
0100
0001
1000
,  // measure 30
0200
0010
1000
0010
1000
0310
0000
1001
,  // measure 31
0000
0000
0000
0000
0000
0010
0001
0000
1000
0000
0100
0000
0000
0000
0010
0001
0000
0100
0010
0000
0000
1000
0001
0000
0100
0000
0010
0000
1000
0100
1000
0001
,  // measure 32
1000
0100
0010
0001
0100
0010
0100
0001
0000
0001
0010
0001
0100
0010
0100
0001
1000
0100
0010
0001
1000
0010
0100
0001
0000
0001
0010
0100
0000
0000
0000
0000
,  // measure 33
0000
1000
0100
0010
0001
0100
1000
0100
,  // measure 34
0001
0010
1000
0010
0001
0100
0010
1000
,  // measure 35
0001
0010
0100
1000
0001
0100
0010
1000
,  // measure 36
0100
1000
0001
0100
0010
1000
0001
0010
,  // measure 37
0100
1000
0001
0100
0010
1000
0001
0010
,  // measure 38
0100
0001
0100
1000
0010
0100
0010
0001
,  // measure 39
0010
1000
0001
0010
0100
1000
0100
0001
,  // measure 40
1000
0001
0100
0010
1000
0100
1000
0010
,  // measure 41
0001
0010
1100
0000
0011
0000
0000
0000
,  // measure 42
1000
0000
0000
0000
0000
0000
0000
0000
0001
0000
0000
0000
0000
0000
0000
0000
1000
0000
0000
0000
0000
0000
0000
0000
0001
0000
0000
0100
0000
0000
0001
0000
0000
1000
0000
0000
0001
0000
0000
0000
0000
0000
0001
0000
0000
1000
0000
0000
,  // measure 43
0001
0100
0010
1000
0000
1000
0100
1000
0001
0100
0001
1000
0001
0000
1000
0100
,  // measure 44
1000
0001
0010
0100
0000
0001
0100
1000
0100
0001
0000
0001
0010
1000
0010
0001
,  // measure 45
1000
0000
1000
0001
1000
0001
0100
1000
0100
0001
0000
1000
0010
0001
0010
1000
,  // measure 46
0100
0010
0001
0100
0001
1000
0000
1000
0100
0001
0010
1000
0001
0000
0001
0100
,  // measure 47
0001
1000
0100
1000
0001
1000
0000
1000
0100
0001
0010
1000
0001
0010
0000
1100
,  // measure 48
0000
0001
0100
0000
0010
1000
0100
0010
0001
1000
0000
1000
0100
0010
0001
0100
,  // measure 49
0010
1000
0100
0000
1000
0001
0100
0010
1000
0001
0000
1000
0010
0100
0000
0000
,  // measure 50
2002
0000
3003
0220
0000
0000
0330
2002
,  // measure 51
0000
0000
0000
0000
0000
0000
0000
3003
;

//---------------dance-double - ----------------
#NOTES:
     dance-double:
     :
     Easy:
     9:
     0.272271,0.419549,0.064141,0.018326,0.169515,208.000000,201.000000,7.000000,2.000000,0.000000,0.000000,0.272271,0.419549,0.064141,0.018326,0.169515,208.000000,201.000000,7.000000,2.000000,0.000000,0.000000:
00000000
00000000
00000000
00000000
,
00100000
00001000
00010000
00000010
,
00010000
00000000
00001000
00000000
00100000
00000000
00010000
10000000
,
01000000
00010000
00001000
00000100
,
00000001
00000000
00000000
00000000
00001000
00000000
00000000
00000000
00000100
00000000
00000000
00000000
00011000
00100000
00000000
00000000
,
00000000
00010000
00000000
00000000
00000000
10000000
00000000
00000000
00000000
10000000
00000000
00000000
00000000
00010000
00000000
00000000
,
00000000
01000000
00000000
00000000
00000000
00001000
00000000
00000000
00000000
00010000
00000000
00000000
00000000
00000010
00000000
00000000
,
00000000
00000100
00000000
00000000
00000000
00000001
00000000
00000000
00000000
00001000
00000000
00000000
00000000
00000100
00000000
00000000
,
00000000
00010000
00000000
00000000
00000000
00001000
00000000
00000000
00000000
00000000
00110000
00000000
00000000
00000000
10000000
00000000
,
00000000
01000000
00000000
00100000
00000000
00011000
00000000
00000010
,
00000000
00000001
00000000
00000100
00000000
00000010
00000000
00000010
,
00000000
00010000
00000000
00001000
00000000
00001000
00000000
00100000
,
00000000
00010000
00000000
00010000
00000000
10000000
00000000
01000000
,
00000000
01000000
00000000
00100000
00000000
00010000
01000000
00000000
,
00100000
10000000
00000000
01000000
00010000
00000000
00001000
00000100
,
00000000
00000001
00000010
00000000
00000100
00010000
00000000
00001000
,
00100000
00000000
00010000
10000000
01000000
00000000
01000000
00000000
,
01000000
01000000
00010000
00001000
,
00010000
01000000
00010000
00001000
,
00000100
00000001
00001000
00000100
,
00010000
00001000
00100000
00100000
,
00010000
00010000
10000000
10000000
,
00100000
00000000
00100000
00000000
00000000
01000000
00000000
01000000
,
00000000
00000000
00000000
00010000
00000000
00010000
00000000
00010000
,
00000000
00000000
00000000
00000000
00000000
01000000
00000000
00001000
,
00000000
00010000
00000010
00010000
,
00000000
00001000
00000000
00100000
,
00010000
10000000
00000000
00000000
,
01000000
00000000
00100000
00000000
00000000
00001000
00000000
00010000
,
00000000
00000010
00001000
00000001
,
00000000
00001000
00000000
00000001
00000000
00000000
00000000
00000110
,
00000000
00000001
00000100
00001000
00010000
01000000
10000000
01000000
,
00010000
00000000
00001000
00000000
00000100
00001000
00010000
00000000
01000000
00000000
10000000
00000000
00100000
01000000
00000000
00000000
,
00000000
10000000
10000000
00000000
,
01000000
01000000
01000000
00000000
,
00000000
00010000
00000000
00001000
00000000
00000000
00000010
00000000
,
00000001
00000000
00001000
00000000
00000000
00000100
00000000
00000000
,
00000000
00010000
00000000
00000000
00001000
00000000
00001000
00000000
,
00000000
00100000
00010000
10000000
,
10000000
00000000
00000000
00000000
00010000
01000000
00000000
00001000
,
00010000
00000000
00000000
00000010
00000000
00000100
00000000
00000010
,
00000000
00000000
00000000
00001001
00000000
00001001
00000000
00000000
,
00000000
00000000
00000000
00000000
00000010
00000100
00001000
00000000
,
00010000
01000000
00000000
00000000
10000000
00100000
01000000
00000000
,
00001000
00000000
00010000
00000000
00000000
00000010
00000000
00001000
00000000
00000001
00000000
00000000
00000000
00000010
00000000
00001000
,
00000000
00000000
00000000
00000000
00000000
00010000
00000000
00100000
00000000
10000000
00000000
00000000
00000000
01000000
00000000
00010000
,
00000000
00001000
00000000
00100000
00000000
00001000
00000000
00000000
00000000
00010000
00000000
00000000
00000000
00000100
00000000
00000000
,
00000000
00001000
00000000
00000010
00000000
00001000
00000000
00000000
00000000
00000100
00000000
00000000
00000000
00010000
00000000
00000000
,
00000000
00001000
00000000
00100000
00010000
01000000
00010000
00000000
,
00000000
10000000
00000000
00000000
00010000
00001000
00000100
00000000
,
00000020
00000030
00000000
00020000
00000000
00030000
00000000
00011000
,
00000000
00000000
00000000
00000000
;

//---------------dance-double - ----------------
#NOTES:
     dance-double:
     :
     Medium:
     13:
     0.421496,0.689227,0.238237,0.036652,0.361937,322.000000,296.000000,26.000000,4.000000,0.000000,0.000000,0.421496,0.689227,0.238237,0.036652,0.361937,322.000000,296.000000,26.000000,4.000000,0.000000,0.000000:
00000000
00000000
00000000
00000000
,
10000000
00000000
01000000
00000000
00010000
00000000
00001000
00000100
00001000
00000000
00010000
00000000
01000000
00000000
10000000
00010000
,
10000000
00000000
00000000
00000000
01000000
00000000
00000000
00000000
00010000
00000000
00000000
00000000
00001000
00000000
00000100
00000000
00000001
00000000
00000000
00000000
00001000
00000000
00000000
00000000
00000100
00000000
00000000
00010000
00001000
00000000
00000000
00000000
,
00100000
00000000
00010000
00000000
01000000
00000000
00100000
00000000
10000000
00000000
01000000
00100000
00000000
00000000
00000000
00000000
,
00010000
00000000
10000000
00000000
01000000
00000000
00010000
00000000
00001000
00000000
00000100
00000001
00000000
00001000
00000000
00000100
,
00000000
00010000
00000000
00001000
00000000
00100000
00000000
00010000
01000000
00000000
00000000
00000000
00000000
00001000
00000000
00010000
,
00000000
00000010
00000000
00001000
00000000
00000001
00000000
00000010
00000100
00001000
00000000
00000001
00000000
00001000
00000000
00000000
,
00000000
00000010
00000000
00000100
00000000
00001000
00000000
00010000
00000000
00100000
00000000
01000000
00000000
00100000
00000000
00000000
,
00000000
10000000
00000000
01000000
00000000
00010000
00000000
00001000
00000000
00000000
00001010
00000000
00000000
00000000
00000001
00000000
,
00000010
00000100
00001000
00000000
00000000
00011000
00000000
00100000
,
00010000
01000000
00100000
10000000
01000000
00010000
00001000
00000100
,
00000001
00000001
00000100
00001000
00010000
01000000
10000000
10000000
,
01000000
00010000
00001000
00000100
00000001
00000001
00000100
00001000
,
00010000
01000000
10000000
10000000
00100000
00010000
00001000
00000100
,
00000001
00000001
00000010
00001000
00010000
01000000
10000000
10000000
,
00100000
00010000
00001000
00000010
00000001
00000001
00000010
00001000
,
00010000
00100000
10000000
00010000
11000000
00000000
00010000
00000000
,
00001000
00001010
00000101
00001000
,
00010000
00110000
11000000
00010000
,
00011000
00000010
00001001
00000100
,
00011000
00100000
10010000
01000000
,
00010010
00000100
00101000
01000000
,
00010010
00000000
00000100
00000000
00101000
00010000
00000000
10000000
,
00000000
00000000
00000000
00010000
00000000
01000000
00000000
00001000
,
00000000
00010000
00000000
00000000
00000000
00000010
00000000
00000100
,
00000010
00000000
00001001
00000000
00000100
00000000
00010000
00001000
,
00000000
00000000
00100000
00010000
00000000
00000000
10000000
00000000
,
00010000
10000000
00100000
00000000
,
00010000
00000000
00001000
00000000
00000000
00000010
00000001
00000100
,
00000000
00000000
00000010
00010000
00001000
00000000
00001000
00010000
,
00000000
00001000
00000000
00100000
00010000
00000000
00000000
11000000
,
00000000
00000000
00000000
00000000
00000000
00100000
00010000
00000000
01000000
00000000
01000000
00000000
00000000
00000000
00001000
00000000
00000000
00000000
00010000
00000000
00000000
00000010
00001000
00000000
00000001
00000000
00000100
00000000
00000010
00000000
00001000
00000000
,
00000010
00000100
00001000
00000000
00010000
00011000
00100000
10000000
00100000
01000000
00010000
10000000
10000000
01100000
00000000
00000000
,
00000000
00001000
00010000
00000000
,
00000010
00000100
00000001
00000000
,
00000000
00001000
00000000
00000100
00011000
00000000
00000010
00000000
,
00000100
00000000
00000001
00000000
00000000
00001000
00000100
00000000
,
00000000
00011000
00000000
00000000
00000010
00000000
00001000
00000000
,
00000000
00000000
00010000
00000000
00000100
00000000
00000010
00000001
,
00000100
00000000
00000000
00001000
00010000
00100000
00000000
10000000
,
00010000
00100000
00001000
00000000
00000000
00010000
00000000
00000010
,
00000000
00000100
00001001
00000000
00022000
00000000
00000000
00000000
,
00000000
00000000
00033000
00000000
00100000
01000000
10000000
00010000
,
01000000
00000000
00100000
10000000
00000000
00000000
00000000
00000000
01000000
00000000
00100000
00000000
00010000
00000000
10000000
00000000
,
01000000
00000000
00010000
00001000
00000000
00000100
00000000
00000001
00000000
00000010
00000000
00000100
00000000
00001000
00000000
00000001
,
00000100
00000000
00000000
00000000
00000000
00000010
00000000
00001000
00000000
00000001
00000000
00000010
00000000
00000100
00000000
00010000
,
00001000
00100000
00000000
00010000
00000000
01000000
00000000
00100000
00000000
10000000
00000000
10000000
00000000
01000000
00000000
00010000
,
00000000
00001000
00000000
00000100
00000000
00000001
00000000
00000010
00000000
00000100
00000000
00000100
00000000
00010000
00000000
00001000
,
00000000
00010000
00001000
00000000
00000000
00000000
00100000
00000000
00010000
00000000
01000000
00000000
01000000
00000000
00000000
00000000
,
00000000
00001000
00010000
00000000
00000000
00000000
00000010
00000000
00000100
00000000
00000001
00000000
00001000
00000000
00000000
00000000
,
00010100
00000000
00000000
00101000
00000000
00000000
00000000
20020000
,
00000000
00000000
00000000
00000000
00000000
00000000
00000000
30030000
,
00000000
00000000
00000000
00000000
;

//---------------dance-double - ----------------
#NOTES:
     dance-double:
     :
     Hard:
     14:
     0.540615,0.808059,0.302378,0.164933,0.609337,413.000000,380.000000,33.000000,18.000000,0.000000,0.000000,0.540615,0.808059,0.302378,0.164933,0.609337,413.000000,380.000000,33.000000,18.000000,0.000000,0.000000:
00000000
00000000
00000000
00000000
,
00000000
00000000
01000000
00100000
00000000
00010000
10000000
00000000
01000000
00000000
00010000
00000000
00001000
00000000
00010000
00000000
00000000
00000000
00000010
00000100
00000000
00000001
00001000
00000000
00000100
00000000
00010000
00000000
00001000
00000000
00010000
00000000
,
00000000
00000000
00000100
00001000
00000000
00000010
00010000
00000000
00001000
00000000
00100000
00000000
00010000
00000000
10000000
00000000
00000000
00000000
00100000
00010000
00000000
00001000
00000010
00000000
00000001
00000000
00001000
00000000
00000100
00000000
00010000
00000000
,
00001000
00000000
00100000
00010000
10000000
00000000
01000000
00100000
00010000
00000000
01000000
00001000
00000000
00000000
00000000
00000000
,
00010000
00000000
00000010
00000100
00000001
00000000
00000010
00000100
00001000
00000000
00000001
00000100
00000000
00001000
00000000
00010000
,
01000000
10000000
00000000
00010000
00100000
00001000
00000000
00010000
00000100
00000000
00000000
00000000
00000000
00001000
00000000
00000001
,
00000010
00000100
00000000
00010000
00000000
00001000
00100000
00010000
10000000
01000000
00000000
00100000
00010000
02000000
00000000
03000000
,
00000000
00001000
00010000
00001000
00000000
00100000
00000000
00100000
00000000
01000000
00000000
00010000
00001000
00000200
00000000
00000300
,
00000000
00000001
00000010
00000001
00000000
00000100
00000000
00000100
00000000
00001000
00010000
00000000
00000000
00000000
00100000
10000000
,
00100000
00000000
01000000
00000000
00010000
00000000
10000000
00000000
00000000
01000000
00010000
00000000
00000000
00000000
00001000
00000100
,
00001000
00000000
00010000
00000000
01000000
00000000
10000000
00000000
00010000
01000000
00010000
00000000
10000000
00000000
01000000
00010000
,
01000000
00000000
00100000
00000000
00001000
00010000
00001000
00000000
00000100
00000000
00000001
00000010
00000001
00000000
00001000
00000000
,
00000100
00010000
00000100
00000000
00000010
00000000
00001000
00010000
00001000
00000000
00100000
00000000
00010000
10000000
00010000
00000000
,
01000000
00000000
00100000
10000000
00100000
00000000
10000000
01000000
00010000
00001000
00010000
00000000
00000010
00000100
00000001
00000000
,
00001000
00000000
00000100
00000000
00010000
00001000
00010000
00000000
00001000
00100000
00010000
10000000
01000000
00000000
00100000
00010000
,
01000000
00001000
00010000
00000000
00000010
00001000
00000100
00000000
00010000
00000000
00001000
00000000
00100000
00010000
01000000
00000000
,
00100000
10000000
01000000
00000000
00100000
00000000
10010000
00000000
01000000
00000000
00001000
00000000
00100000
00000000
00010000
00000000
,
01000000
00001000
00010000
00000010
00001000
00000100
00010000
00001000
,
00200000
00010000
00310000
00000000
20000000
00100000
30100000
00000000
,
02000000
10000000
13000000
00000000
00020000
01000000
01030000
00000000
,
00002000
00000100
00003100
00000000
00000001
00000010
00001000
00000100
,
00000001
00000010
00001000
00000100
00010000
00001000
00100000
00010000
,
20000000
01000000
30010000
00000000
01000000
01000000
00000000
10010000
,
00000000
00000000
00000000
01001000
00000000
00010010
00000000
00001001
,
00000000
00000100
00000000
00000000
00000000
00000010
00000000
00000001
,
00001000
00000000
00000100
00000000
00010000
00000000
00001000
00100000
,
00000000
00000000
00010000
10000000
00000000
00000000
10010000
00000000
,
01001000
00010010
00001001
00000110
,
00000001
00000000
00001000
00000000
00000000
00000100
00010000
00001000
,
00000000
00000000
00100000
00010000
01000000
00000000
00100000
10000000
,
00000000
01000000
00000000
00100000
00001000
00000000
00000000
00010010
,
00000000
00000000
00000000
00000000
00000000
00000100
00000001
00000000
00001000
00000000
00000100
00000000
00000000
00000000
00010000
00001000
00000000
00100000
00010000
00000000
00000000
10000000
00100000
00000000
01000000
00000000
00010000
00000000
10000000
00000000
01000000
00000000
,
00010000
00001000
00000100
00000001
00001100
00011000
00100000
01000000
10000000
00010000
01000000
00001000
00010010
00001001
00000000
00000000
,
00000000
00000010
00000100
00001000
00000001
00000000
00000000
00000000
,
00010100
00101000
10010000
00000000
,
00000000
00100000
00000000
01000000
10010000
00000000
01000000
00000000
,
00001000
00000000
00011000
00000000
00000000
00000010
00001000
00000000
,
00000000
00000101
00000000
00000000
00000010
00000000
00000100
00000000
,
00000000
00000000
00011000
00000000
00110000
00000000
01000000
10000000
,
01000000
00000000
00000000
00010000
00001000
00000100
00000000
00000001
,
00001000
00000100
00010000
00000000
00000000
00001000
00000000
00010000
,
00001000
00100000
20020000
30030000
02002000
00000000
03003000
00000000
,
00000000
00000000
00000000
00000000
00000000
00000000
00000000
00000000
00010000
00000000
00000010
00000000
00000100
00000000
00000001
00000010
,
00000001
00000000
00000100
00001000
00000000
00010000
00000000
00010000
00000010
00000000
00000100
00000000
00001000
00000000
00010000
01000000
,
00010000
00000000
00001000
00000100
00000000
00000001
00000000
00001000
00000000
00000100
00000000
00010000
00001000
00010000
00000000
00000010
,
00000100
00000000
00001000
00000000
00001000
00010000
00000000
01000000
00000000
10000000
00000000
00100000
01000000
00100000
00000000
10000000
,
01000000
00100000
00000000
00010000
01000000
00010000
00000000
00000000
00000000
00100000
00000000
01000000
00000000
00010000
00000000
00001000
,
00000000
00000010
00000000
00000001
00000100
00000001
00000000
00000000
00000000
00001000
00000000
00000100
00000000
00010000
00000000
00001000
,
00000000
00100000
00010000
00000000
00000000
00000000
01000000
10000000
01000000
00000000
00110000
00000000
01010000
00000000
00011000
00000000
,
00000000
00000010
00001000
00000000
00000000
00000000
00000100
00000001
00000100
00000000
00001010
00000000
00011000
00000000
00000000
00000000
,
02200000
03300000
00000000
00022000
00000000
00033000
00000000
00000220
,
00000000
00000000
00000000
00000000
00000000
00000000
00000000
00000330
,
00000000
00000000
00000000
00000000
;

//---------------dance-double - ----------------
#NOTES:
     dance-double:
     :
     Challenge:
     17:
     0.717329,1.045723,0.210748,0.091630,0.888807,548.000000,525.000000,23.000000,10.000000,0.000000,0.000000,0.717329,1.045723,0.210748,0.091630,0.888807,548.000000,525.000000,23.000000,10.000000,0.000000,0.000000:
00000000
00000000
00000000
00000000
,
00000000
00000000
00010000
00001000
00000000
00100000
01000000
00000000
00000000
10000000
00010000
00000000
11000000
00000000
01010000
00000000
00000000
00000000
00001000
00010000
00000000
00000010
00000100
00000000
00000000
00000001
00001000
00000000
00000101
00000000
00001100
00000000
,
00000000
00000000
00010000
00001000
00000000
00100000
00010000
00000000
00000000
10000000
01000000
00000000
00110000
00000000
01010000
00000000
00000000
00000000
00001000
00010000
00000000
00000010
00001000
00000000
00000000
00000001
00000010
00000000
00001100
00000000
00011000
00000000
,
00100000
01000000
10000000
00100000
01000000
00000000
00010000
10000000
01000000
00100000
00010000
10000000
00000000
01000000
00010000
01000000
,
00010000
00001000
00100000
00010000
10000000
00000000
01000000
00010000
00001000
00000100
00000001
00001000
00000000
00000100
00010000
00001000
,
00100000
00010000
00000000
10000000
00100000
01000000
10000000
01000000
00010000
00000000
10000000
01000000
10000000
00010000
01000000
00001000
,
00010000
00000010
00000000
00001000
00000100
00000010
00000001
00000100
00001000
00010000
00001000
00000010
00000001
00001000
00000000
00000100
,
00010000
00001000
00100000
00010000
01000000
00000000
00100000
10000000
00100000
10000000
01000000
00010000
00001000
00100000
00000000
00010000
,
01000000
00001000
00010000
00000010
00001000
00000100
00000000
00011000
00000000
00100000
00010000
00000000
10000000
00100000
01000000
00010000
,
10000000
01000000
00000000
00100000
00010000
00100000
01000000
00010000
00001000
00000100
00000001
00000000
00001000
00000100
00010000
00000010
,
00000100
00001000
00000000
00010000
01000000
00010000
00001000
00000000
00100000
00000000
00010000
00000000
01000000
00000000
00001000
00010000
,
00001000
00000000
00100000
00000000
01000000
00000000
00010000
00000000
00001000
00000000
00000100
00000001
00000100
00000000
00000010
00000000
,
00001000
00000000
00000100
00000000
00010000
00000000
00001000
00100000
00001000
00000000
00010000
00000000
00000100
00000000
00000010
00000000
,
00001000
00000000
00010000
00100000
00010000
00000000
00001000
00000010
00000001
00000100
00001000
00010000
01000000
10000000
00100000
00010000
,
00001000
00000000
00010000
00100000
10000000
01000000
00010000
00001000
00000100
00000001
00000010
00001000
00010000
00000000
00001000
00000010
,
00000001
00000100
00001000
00010000
00100000
10000000
01000000
00010000
00001000
00000000
00010000
01000000
10000000
00100000
00010000
00001000
,
00000010
00000001
00000100
00001000
00010000
00000000
00110000
00000000
10000000
00000000
01000000
00000000
00010000
00000000
01000000
00000000
,
00100000
00010000
01000000
00010000
00100000
00001000
00010000
00000100
,
00001000
00001001
00001000
00000000
00000001
00000011
00000001
00000000
,
00000010
00001010
00000010
00000000
00001000
00011000
00001000
00000000
,
00010000
00110000
00010000
00000000
20000000
00000000
00010000
00000000
,
00100000
31000000
00020000
00001000
,
00030100
00001000
00000010
00000000
00000100
00001000
00000100
00010000
,
00001000
00100000
00010000
01000000
00100000
10000000
01000000
00010000
,
01000000
10000000
00100000
00010000
00001000
00000010
00010000
00100000
,
01000000
00000000
10000000
00100000
01000000
00010000
10000000
01000000
,
00010000
00001000
00000100
00000001
00001000
00000100
00010000
00001000
,
00100000
00010000
10000000
01000000
00010000
10000000
01100000
00000000
,
00010000
00000100
00000010
00000001
00000100
00000001
00000010
00001000
,
00010000
00100000
10000000
00010000
01000000
10000000
00100000
10000000
,
01000000
00010000
10000000
01000000
00010000
00001000
00000000
00001010
,
00000000
00000000
00000000
00000000
00000000
00000100
00000001
00000000
00001000
00000000
00000100
00000000
00000000
00000000
00010000
00001000
00000000
00100000
00010000
00000000
00000000
10000000
00100000
00000000
01000000
00000000
01000000
00000000
00010000
00100000
00010000
00100000
,
00001000
00010000
00001000
00010000
00000010
00001000
00000010
00001000
00000000
00000001
00000010
00000001
00001000
00000100
00001000
00000100
00010000
00001000
00010000
00001000
00100000
00010000
00100000
00010000
00000000
10000000
00100000
10000000
00000000
00000000
00000000
00000000
,
00000000
10000000
01000000
00010000
00001000
00000100
00001000
00010000
,
00000010
00001000
00000100
00010000
01000000
10000000
00010000
01000000
,
00100000
00010000
00001000
00000010
00010000
10000000
00100000
01000000
,
00010000
10000000
01000000
00010000
00001000
00000010
00000100
00010000
,
00001000
00100000
00010000
01000000
00100000
10000000
00010000
00100000
,
01000000
00010000
00001000
00000100
00000001
00001000
00000100
00000010
,
00000001
00000100
00001000
00010000
00000010
00000100
00001000
00010000
,
01000000
10000000
00010000
01000000
00100000
00010000
00001000
00000010
,
00000001
00001000
00010100
00000000
00202000
00000000
00303000
00000000
,
00010000
00000000
00000000
00000000
00000000
00000000
00000000
00000000
10000000
00000000
00000000
00000000
00000000
00000000
00000000
00000000
00010000
00000000
00000000
00000000
00000000
00000000
00000000
00000000
10000000
00000000
00000000
00100000
00000000
00000000
01000000
00000000
00000000
00010000
00000000
00000000
10000000
00000000
00000000
00000000
00000000
00000000
01000000
00000000
00000000
00010000
00000000
00000000
,
00001000
00000010
00000100
00001000
00000000
00000001
00000100
00000001
00001000
00000100
00010000
00001000
00100000
00000000
00010000
01000000
,
10000000
00010000
00100000
01000000
00000000
00010000
00100000
01000000
00010000
00001000
00000000
00000010
00000001
00000100
00000010
00001000
,
00000100
00000000
00010000
00001000
00010000
01000000
10000000
00010000
01000000
10000000
00000000
00010000
00100000
01000000
00010000
00001000
,
00000100
00100000
10000000
01000000
00100000
00010000
00000000
10000000
01000000
00010000
00001000
00100000
00010000
00000000
10000000
01000000
,
10000000
00010000
01000000
00001000
00010000
00000010
00000000
00001000
00000001
00000100
00001000
00010000
00001000
00000010
00000000
00001001
,
00000000
00100000
01000000
00000000
10000000
00100000
01000000
00010000
10000000
01000000
00000000
00100000
00010000
00100000
01000000
00010000
,
00001000
00000100
00000001
00000000
00001000
00000100
00000010
00000001
00000100
00001000
00000000
00010000
01000000
00010000
00000000
00000000
,
20020000
00000000
00000000
30030000
00000000
00000000
02002000
00000000
00000000
00000000
03003000
00000000
00000000
00000000
00020020
00000000
,
00000000
00000000
00000000
00000000
00000000
00000000
00000000
00030030
,
00000000
00000000
00000000
00000000
;
