#TITLE:Pursuer;
#SUBTITLE:;
#ARTIST:白澤亮(noisycroak);
#TITLETRANSLIT:;
#SUBTITLETRANSLIT:;
#ARTISTTRANSLIT:Ryo Shirasawa (noisycroak);
#GENRE:;
#CREDIT:;
#BANNER:;
#BACKGROUND:Pursuer-bg.png;
#LYRICSPATH:;
#CDTITLE:;
#MUSIC:Pursuer.ogg;
#OFFSET:0.000000;
#SAMPLESTART:65.599998;
#SAMPLELENGTH:15.000000;
#SELECTABLE:YES;
#BPMS:0.000000=150.000000
,36.000000=75.000000
,52.000000=150.000000
,148.000000=75.000000
,164.000000=150.000000
,196.000000=300.000000
;
#STOPS:
;
#BGCHANGES:;
#KEYSOUNDS:;
#ATTACKS:;

//---------------dance-single - ----------------
#NOTES:
     dance-single:
     :
     Beginner:
     3:
     0.129743,0.194824,0.029297,0.000000,0.000000,93.000000,90.000000,3.000000,0.000000,0.000000,0.000000,0.129743,0.194824,0.029297,0.000000,0.000000,93.000000,90.000000,3.000000,0.000000,0.000000,0.000000:
0000
0000
0000
0000
,
0000
0000
0000
0000
,
0000
0000
0000
0000
,
0000
0000
0000
0000
,
0000
0000
0000
0000
,
0001
0000
0001
0000
,
0001
0000
0000
0000
,
1000
0000
1000
0000
,
1000
0000
0000
0000
,
0100
0000
0100
0100
,
1000
0000
1000
1000
,
0001
0000
0001
0001
,
0100
0000
0100
0100
,
0001
0000
0000
0000
,
0001
0000
1000
0000
,
0001
0000
0000
0000
,
0100
0000
0100
0000
,
1000
0000
0000
0000
,
1000
0000
0001
0000
,
1000
0000
0000
0000
,
0100
0000
0000
0000
,
0001
0000
0001
0000
,
0001
0001
0001
0000
,
0010
0000
0010
0000
,
0010
0010
0010
0000
,
1000
0000
1000
0000
,
1000
1000
1000
0000
,
0100
0000
0100
0000
,
0100
0100
0100
0000
,
1001
0000
0000
0000
,
0000
0000
0000
0000
,
1001
0000
0000
0000
,
0000
0000
0000
0000
,
0001
0000
0001
0000
,
1000
0000
1000
0000
,
0001
0001
0001
0000
,
0010
0000
0000
0000
,
1000
1000
1000
0000
,
0100
0100
0100
0000
,
0010
0010
0010
0000
,
0001
0001
0001
0000
,
0001
0000
0000
0000
,
0001
0000
0001
0000
,
1000
0000
0000
0000
,
1000
0000
1000
0000
,
0001
0000
0000
0000
,
0001
0000
0001
0000
,
1000
0000
0000
0000
,
1000
0000
1000
0000
,
0001
0000
0000
0000
,
0000
0000
0000
0000
,
0100
0000
0000
0000
,
0100
0000
0000
0000
,
1000
0000
0000
0000
,
0000
0000
0000
0000
,
0010
0000
0000
0000
,
0010
0000
0000
0000
,
1001
0000
0000
0000
;

//---------------dance-single - ----------------
#NOTES:
     dance-single:
     :
     Easy:
     7:
     0.283203,0.446777,0.214844,0.136719,0.000000,203.000000,181.000000,22.000000,14.000000,0.000000,0.000000,0.283203,0.446777,0.214844,0.136719,0.000000,203.000000,181.000000,22.000000,14.000000,0.000000,0.000000:
0000
0000
0000
0000
,
0000
0000
0000
0000
,
0000
0000
0000
0000
,
0000
0000
0000
0000
,
0000
0000
0000
0000
,
1000
0100
1000
1000
,
0001
0100
0001
0010
,
0100
1000
0100
0100
,
0020
0000
0000
0030
,
0101
0000
0100
0000
0100
0100
0010
0000
,
1100
0000
0100
0000
0100
0100
1000
0000
,
0101
0000
0001
0000
0001
0001
0010
0000
,
1100
0000
1000
0000
1000
1000
0100
0000
,
0010
0001
0010
0001
,
0010
0100
0020
0030
,
0001
1000
0001
0100
,
0001
0001
0100
1000
,
0000
0100
0010
0100
,
0001
0001
0020
0030
,
0100
1000
0100
0001
,
0100
1000
0001
0000
,
1000
1001
0000
0100
,
0010
0000
1000
0000
0001
0001
0000
0000
,
1000
0110
0000
0001
,
0010
0000
0100
0000
1000
1000
0000
0000
,
0100
1001
0000
0010
,
0001
0000
0010
0000
0100
0100
0000
0000
,
0100
1001
0010
0100
,
0001
1000
0110
0000
,
1001
2002
3003
0000
,
0000
0000
0010
0100
,
1001
2002
3003
0000
,
0000
0000
0001
0010
,
0100
0100
0000
0000
1000
1000
0000
0000
,
0010
0010
0000
0000
0001
0001
0000
0000
,
1000
0100
0010
0001
,
2002
0000
0000
3003
,
0100
0000
0110
0000
1000
0100
0010
0000
,
0001
0001
0001
0000
0200
0000
0310
0010
,
1010
0000
1010
0100
0000
0000
0000
0000
,
0101
0000
1000
0000
0002
0000
0000
0003
,
0100
1000
0010
0001
,
0100
1000
0010
0110
,
0001
0010
1000
0100
,
0001
0010
1000
1001
,
0001
0100
0010
0000
1000
0000
0100
0000
,
0001
0010
1000
1001
,
0010
1000
0100
0000
0001
0000
0010
0000
,
1000
0000
0100
0000
0002
0000
0000
0003
,
1000
0000
1000
0000
,
0001
0000
0001
0000
,
1000
0000
1000
0000
,
0001
0100
0001
1000
,
0010
0000
0010
0000
,
0100
0000
0100
0000
,
0010
0000
0010
0000
,
0100
0010
1000
0001
,
2002
0000
0000
0000
,
0000
0000
0000
0000
,
0000
0000
0000
0000
,
0000
0000
0000
0000
,
3003
0000
0000
0000
;

//---------------dance-single - ----------------
#NOTES:
     dance-single:
     :
     Medium:
     14:
     0.620815,1.072266,0.517578,0.195313,0.522461,445.000000,392.000000,53.000000,20.000000,0.000000,0.000000,0.620815,1.072266,0.517578,0.195313,0.522461,445.000000,392.000000,53.000000,20.000000,0.000000,0.000000:
0000
0000
0000
0000
,
0000
0000
0000
0000
,
0000
0000
0000
0000
,
0000
0000
0000
0000
,
0000
0000
0000
0000
,
0010
0100
0000
0000
0100
0000
0000
0101
0000
0000
1100
0000
0000
0000
0000
0000
,
0010
0100
0000
0000
0100
0000
0000
1100
0000
0000
0001
0100
0001
0100
0010
0000
,
1000
0001
0000
0000
0001
0000
0000
1001
0000
0000
0110
0000
0000
0000
0000
0000
,
0001
0000
0100
0010
0000
0010
1000
0000
1000
0100
0000
0100
0010
0000
0001
0000
,
0100
0101
0000
1001
0000
0101
0101
0101
0000
1000
0100
0010
0002
0000
0000
0000
,
1003
0000
1100
0000
0000
0000
1001
0000
0000
0000
1100
0000
1100
0000
1100
0000
0000
0000
0001
0000
0100
0000
0010
0000
1000
0000
0000
0101
0000
0000
1100
0000
,
0001
0011
0000
1001
0000
1100
1100
1100
0000
0010
0001
0100
2000
0000
0000
0000
,
3100
0000
0110
0000
0000
0000
1001
0000
0000
0000
0110
0000
0110
0000
0110
0000
0000
0000
1000
0000
0100
0000
0001
0000
0010
0000
0000
0110
0000
0000
1100
0000
,
0001
1000
0001
0000
0010
0000
0100
0000
0000
0000
0100
0000
0010
0000
0100
0000
,
0000
0100
0010
0100
2000
0000
3010
0000
,
1000
0001
1000
0000
0010
0000
0100
0000
0000
0000
0100
0000
0010
0000
0100
0000
,
0000
0000
0100
0000
0010
0000
0100
0000
0101
0000
0000
1001
0000
0000
1100
0000
,
0000
0000
0100
1000
0002
0000
0103
0000
0000
0000
0100
0010
0100
0000
0100
0000
,
0000
0001
1000
0100
0020
0000
0000
0000
,
0130
1000
0001
0000
0100
0000
0001
0000
0000
0000
1000
0000
0100
1000
0001
0000
,
0000
0000
0010
0000
0001
0100
0001
0000
0101
0000
0000
1010
0000
0000
1001
0000
,
0100
1000
0100
0001
0010
0001
0100
1000
,
0100
0000
0100
0000
0001
0100
0001
0100
0001
0000
2000
0000
0000
0000
0000
0000
,
3001
0100
0010
0100
1000
0010
1000
0100
,
0001
0000
1000
0000
0001
0100
0001
0100
0001
0000
0020
0000
0000
0000
0000
0000
,
0031
1000
0001
0000
0010
0000
1000
0000
0100
0000
1000
0000
0010
0000
0001
0000
,
0100
0000
0010
0000
1000
0100
0010
0001
0100
0000
0020
0000
0000
0000
0000
0000
,
0130
0000
0001
0000
1000
0000
0010
0000
0100
0000
0001
0000
0100
0010
1000
0001
,
0100
0001
0010
1000
0010
0200
0000
0000
,
1300
2200
3300
0000
,
0000
0000
0000
0000
0000
0000
0000
0000
0100
0000
0000
0001
0000
0000
0010
0000
,
0011
0022
0033
0000
,
0000
0000
0000
0000
0000
0000
0000
0000
0100
0000
0000
1000
0000
0000
0010
0000
,
0100
0000
0100
0000
0001
0100
0001
0000
0010
0000
0010
0000
0100
1000
0100
0000
,
1000
0000
1000
0000
0010
0100
0010
0000
0110
0000
0000
0101
0000
0000
1100
0000
,
1000
0100
1000
0000
0001
0100
0001
0000
1000
0100
0010
0001
1000
0001
1000
0001
,
0020
0000
0000
0130
,
1000
0000
0000
0000
0000
0000
0000
0000
0000
0000
0000
0000
1100
0000
0000
0000
0000
0000
0000
0000
0000
0000
0000
0000
0000
0000
0000
0000
0000
0000
0000
0000
0000
0000
0000
0000
0001
0000
0000
0000
0000
0000
1000
0000
0000
0000
0000
0000
0100
0000
0000
0000
0000
0000
0000
0000
0000
0000
0000
0000
0100
0000
0000
0000
0000
0000
0000
0000
0000
0000
0000
0000
0000
0000
0000
0000
0000
0000
0000
0000
0000
0000
0000
0000
1001
0000
0000
0000
0000
0000
0000
0000
0000
0000
0000
0000
0000
0000
0000
0000
0000
0000
0000
0000
0000
0000
0000
0000
0100
0000
0000
0000
0000
0000
0000
0000
0000
0000
0000
0000
0010
0000
0000
0000
0000
0000
0000
0000
0000
0000
0000
0000
1000
0000
0000
0000
0000
0000
0000
0000
0000
0000
0000
0000
0001
0000
0000
0000
0000
0000
0000
0000
0100
0000
0000
0000
0000
0000
0000
0000
0001
0000
0000
0000
0000
0000
0000
0000
2000
0000
0000
0000
0000
0000
0000
0000
0000
0000
0000
0000
0000
0000
0000
0000
0000
0000
0000
0000
0000
0000
0000
0000
,
3000
0000
0000
0000
0000
0000
0000
0000
0000
0000
0000
0000
0100
0000
0000
0000
0000
0000
0010
0000
0000
0000
0000
0000
0000
0000
0000
0000
0000
0000
0000
0000
0000
0000
0000
0000
0100
0000
0000
0000
0000
0000
0010
0000
0000
0000
0000
0000
0000
0000
0000
0000
0000
0000
0000
0000
0000
0000
0000
0000
0110
0000
0000
0000
0000
0000
0000
0000
0000
0000
0000
0000
0000
0000
0000
0000
0000
0000
0000
0000
0000
0000
0000
0000
1100
0000
0000
0000
0000
0000
0000
0000
0000
0000
0000
0000
0000
0000
0000
0000
0000
0000
0000
0000
0000
0000
0000
0000
0010
0000
0000
0000
0000
0000
0000
0000
0000
0000
0000
0000
0100
0000
0000
0000
0000
0000
0000
0000
0000
0000
0000
0000
0001
0000
0000
0000
0000
0000
0000
0000
0000
0000
0000
0000
1000
0000
0000
0000
0000
0000
0000
0000
0100
0000
0000
0000
0000
0000
0000
0000
1000
0000
0000
0000
0000
0000
0000
0000
0020
0000
0000
0000
0000
0000
0000
0000
0000
0000
0000
0000
0000
0000
0000
0000
0000
0000
0000
0000
0000
0000
0000
0000
,
0130
0001
0100
0001
0100
0000
0000
0000
0010
1000
0010
1000
0010
0000
0100
0000
0000
0000
0001
0000
0000
0010
0000
0000
1000
0000
0000
0100
0000
0000
0001
0000
,
1000
0100
1000
0100
1000
0000
0000
0000
0010
0000
0100
0000
0000
0000
0101
0000
0000
0000
0000
0000
0020
0000
0000
0000
0000
0000
0000
0000
0130
0000
0000
0000
,
0001
0100
0001
0100
0010
1000
0010
1000
,
0001
0010
0001
0011
0000
1100
1000
0001
,
1000
0100
1000
0100
0001
0100
0001
0100
,
0010
1000
0010
0110
0000
0011
0010
1000
,
0010
0001
0010
0001
0010
1000
0010
1000
,
0001
0100
1000
1001
0000
0101
0100
0001
,
1000
0000
0001
0000
1000
0001
1000
0000
0010
0000
0100
0000
0010
0100
0010
0000
,
1000
0100
0010
0002
0000
0000
0003
0000
,
1000
0000
0001
0000
0100
0001
0100
0000
,
0010
0000
1000
0000
0001
1000
0001
0000
,
0100
0000
0001
0000
0010
0100
0010
0000
,
0001
0000
1000
0000
0100
0010
0100
0000
,
1000
0000
0001
0000
0100
0001
1000
0000
,
0010
0000
1000
0000
0001
1000
0010
0000
,
0100
0000
0010
0000
0100
0010
1000
0000
,
0001
1000
0001
1000
0010
0100
0001
0000
,
2002
0000
0000
0000
,
0000
0000
0000
0000
,
0000
0000
0000
0000
,
0000
0000
0000
0000
,
3003
0000
0000
0000
;

//---------------dance-single - ----------------
#NOTES:
     dance-single:
     :
     Hard:
     17:
     0.837054,1.429688,0.556641,0.224609,0.942383,600.000000,543.000000,57.000000,23.000000,0.000000,0.000000,0.837054,1.429688,0.556641,0.224609,0.942383,600.000000,543.000000,57.000000,23.000000,0.000000,0.000000:
// measure 0
0000
0000
0000
0000
,  // measure 1
0000
0000
0000
0000
,  // measure 2
0000
0000
0000
0000
,  // measure 3
0000
0000
0000
0000
,  // measure 4
0000
0000
0000
0000
,  // measure 5
0100
0001
0000
0000
1010
0000
0100
1000
0000
0000
0100
0000
0011
0000
0000
0000
,  // measure 6
0010
0100
0000
0000
1100
0000
0010
0100
0000
0000
0001
1000
0010
0001
0010
0000
,  // measure 7
1000
0010
0000
0000
0101
0000
0001
1000
0000
0000
0010
0000
1001
0000
0000
0000
,  // measure 8
1000
0001
0100
0010
1000
0100
1000
0001
0010
0100
1000
0010
0100
0001
2000
0000
,  // measure 9
3001
0000
0000
0000
0000
0000
0100
0000
0000
0000
0000
0000
0001
0000
0000
0000
0000
0000
0000
0000
0000
0000
0000
0000
0000
0000
0000
0000
0000
0000
0000
0000
0000
0000
0000
0000
0100
0000
0000
0000
0001
0000
0000
0000
0100
0000
0000
0000
0001
0000
0000
0000
0000
0000
0000
0000
0000
0000
0000
0000
0010
0000
0000
0000
0000
0000
0000
0000
0000
0000
0000
0000
1100
0000
0000
0000
0000
0000
0000
0000
0000
0000
0000
0000
1100
0000
0000
0000
0000
0000
0000
0000
0000
0000
0000
0000
0000
0000
0000
0000
0000
0000
0000
0000
0000
0000
0000
0000
1010
0000
0000
0000
0000
0000
0000
0000
0000
0000
0000
0000
0100
0000
0000
0000
0000
0000
0000
0000
0000
0000
0000
0000
0001
0000
0000
0000
0000
0000
0000
0000
0000
0000
0000
0000
0020
0000
0000
0000
0000
0000
0000
0000
0000
0000
0000
0000
0130
0000
0000
0000
1000
0000
0000
0000
0100
0000
0000
0000
1000
0000
0000
0000
0000
0000
0000
0000
0000
0000
0000
0000
0000
0000
0000
0000
0000
0000
0000
0000
0000
0000
0000
0000
,  // measure 10
0010
0000
0000
0000
0000
0000
1000
0000
0000
0000
0000
0000
0010
0000
0000
0000
0000
0000
0000
0000
0000
0000
0000
0000
0000
0000
0000
0000
0000
0000
0000
0000
0000
0000
0000
0000
1000
0000
0000
0000
0010
0000
0000
0000
1000
0000
0000
0000
0010
0000
0000
0000
0000
0000
0000
0000
0000
0000
0000
0000
0100
0000
0000
0000
0000
0000
0000
0000
0000
0000
0000
0000
0101
0000
0000
0000
0000
0000
0000
0000
0000
0000
0000
0000
0101
0000
0000
0000
0000
0000
0000
0000
0000
0000
0000
0000
0000
0000
0000
0000
0000
0000
0000
0000
0000
0000
0000
0000
0110
0000
0000
0000
0000
0000
0000
0000
0000
0000
0000
0000
1000
0000
0000
0000
0000
0000
0000
0000
0000
0000
0000
0000
0100
0000
0000
0000
0000
0000
0000
0000
0000
0000
0000
0000
0101
0000
0000
0000
0000
0000
0000
0000
0000
0000
0000
0000
0000
0000
0000
0000
0000
0000
0011
0000
0000
0000
0000
0000
0000
0000
0000
0000
0000
0000
0000
0000
0000
0000
0000
0000
1010
0000
0000
0000
0000
0000
0000
0000
0000
0000
0000
0000
,  // measure 11
1000
0000
0000
0000
0000
0000
0100
0000
0000
0000
0000
0000
1000
0000
0000
0000
0000
0000
0000
0000
0000
0000
0000
0000
0000
0000
0000
0000
0000
0000
0000
0000
0000
0000
0000
0000
0001
0000
0000
0000
0100
0000
0000
0000
0001
0000
0000
0000
0100
0000
0000
0000
0000
0000
0000
0000
0000
0000
0000
0000
0010
0000
0000
0000
0000
0000
0000
0000
0000
0000
0000
0000
1100
0000
0000
0000
0000
0000
0000
0000
0000
0000
0000
0000
1100
0000
0000
0000
0000
0000
0000
0000
0000
0000
0000
0000
0000
0000
0000
0000
0000
0000
0000
0000
0000
0000
0000
0000
0011
0000
0000
0000
0000
0000
0000
0000
0000
0000
0000
0000
0100
0000
0000
0000
0000
0000
0000
0000
0000
0000
0000
0000
1000
0000
0000
0000
0000
0000
0000
0000
0000
0000
0000
0000
0020
0000
0000
0000
0000
0000
0000
0000
0000
0000
0000
0000
0130
0000
0000
0000
0001
0000
0000
0000
1000
0000
0000
0000
0100
0000
0000
0000
0000
0000
0000
0000
0000
0000
0000
0000
0000
0000
0000
0000
0000
0000
0000
0000
0000
0000
0000
0000
,  // measure 12
0010
0000
0000
0000
0000
0000
0001
0000
0000
0000
0000
0000
1000
0000
0000
0000
0000
0000
0000
0000
0000
0000
0000
0000
0000
0000
0000
0000
0000
0000
0000
0000
0000
0000
0000
0000
0010
0000
0000
0000
1000
0000
0000
0000
0001
0000
0000
0000
0010
0000
0000
0000
0000
0000
0000
0000
0000
0000
0000
0000
0100
0000
0000
0000
0000
0000
0000
0000
0000
0000
0000
0000
1100
0000
0000
0000
0000
0000
0000
0000
0000
0000
0000
0000
1001
0000
0000
0000
0000
0000
0000
0000
0000
0000
0000
0000
0000
0000
0000
0000
0000
0000
0000
0000
0000
0000
0000
0000
1010
0000
0000
0000
0000
0000
0000
0000
0000
0000
0000
0000
0100
0000
0000
0000
0000
0000
0000
0000
0000
0000
0000
0000
0001
0000
0000
0000
0000
0000
0000
0000
0000
0000
0000
0000
0011
0000
0000
0000
0000
0000
0000
0000
0000
0000
0000
0000
0000
0000
0000
0000
0000
0000
0110
0000
0000
0000
0000
0000
0000
0000
0000
0000
0000
0000
0000
0000
0000
0000
0000
0000
1100
0000
0000
0000
0000
0000
0000
0000
0000
0000
0000
0000
,  // measure 13
0001
1000
0001
0000
0010
0000
0100
0000
0001
0000
0100
0000
1000
0000
0001
0100
,  // measure 14
0000
0000
0100
0000
0010
0000
0100
0001
2000
0000
0100
0000
3010
0100
0010
0100
,  // measure 15
0001
1000
0001
0000
0010
0000
0100
0000
1000
0000
0100
0000
0001
0000
0100
1000
,  // measure 16
0000
0000
0000
0000
0000
0000
0100
0000
0000
0000
0000
0000
0010
0000
0000
0000
0000
0000
0100
0000
0000
1000
0000
0000
0001
0000
0000
0000
0000
0000
0100
0000
0001
0000
0100
0000
0001
0000
0000
0000
0000
0000
1001
0000
0000
0000
0000
0000
,  // measure 17
0000
0000
0100
1000
0010
0000
0101
0000
0000
0000
0100
0001
0010
0000
1100
0000
,  // measure 18
0000
0000
0001
0000
1000
0000
0100
0000
0020
0000
0031
0100
0001
1000
0001
0100
,  // measure 19
0001
0000
1000
0001
0010
0000
0010
0001
1000
0000
1000
0100
0010
0000
0100
0000
,  // measure 20
0010
0001
0100
0010
1000
0001
0100
0010
1000
0100
1000
0010
0100
0001
0010
0100
,  // measure 21
0010
1000
0001
0100
1000
0001
0010
1000
,  // measure 22
0010
0000
0001
0000
0100
0001
1000
0001
0010
0000
0200
0000
0000
0000
0000
0000
,  // measure 23
1300
0010
0001
1000
0100
0010
1000
0100
,  // measure 24
0001
0000
1000
0000
0010
0001
0100
0001
0010
0000
0200
0000
0000
0000
0000
0000
,  // measure 25
1300
0010
1000
0001
0000
0000
0010
0000
0000
1000
0000
0000
0010
0000
0000
0001
0000
0000
0100
0000
0000
1000
0000
0000
,  // measure 26
0010
0000
1000
0000
0100
0001
0010
0001
0100
0000
0020
0000
0000
0000
0000
0000
,  // measure 27
0130
0000
0001
0000
0100
0000
1000
0000
0001
0000
0010
0000
1000
0100
0001
0100
,  // measure 28
1000
0010
0100
0001
1000
2002
0000
3003
,  // measure 29
1100
2020
3030
0000
,  // measure 30
0000
0000
0000
0000
0000
0000
0000
0000
0110
0000
1000
0010
0000
0001
0010
0000
,  // measure 31
0101
0022
0033
0000
,  // measure 32
0000
0000
0000
0000
0000
0000
0000
0000
1001
0000
0010
1000
0000
0010
0001
0000
,  // measure 33
0100
0000
1010
0000
1000
0001
1000
0100
0010
0000
0011
0000
0001
1000
0001
0100
,  // measure 34
0010
0000
1010
0000
1000
0001
1000
0100
0001
0000
0000
1010
0000
0000
0011
0000
,  // measure 35
0001
0100
0001
1000
0010
0100
0010
1000
0100
0010
0100
1000
0001
1000
0100
0010
,  // measure 36
0001
0100
1000
0100
0001
0100
1000
0100
0001
1000
0100
0010
0001
0100
0010
1000
,  // measure 37
0100
0000
0000
0000
0000
0000
0000
0000
0000
0000
0000
0000
0110
0000
0000
0000
0000
0000
0000
0000
0000
0000
0000
0000
0000
0000
0000
0000
0000
0000
0000
0000
0000
0000
0000
0000
0001
0000
0000
0000
0000
0000
1000
0000
0000
0000
0000
0000
0010
0000
0000
0000
0000
0000
0000
0000
0000
0000
0000
0000
0100
0000
0000
0000
0000
0000
0000
0000
0000
0000
0000
0000
0010
0000
0000
0000
0000
0000
0000
0000
0000
0000
0000
0000
0102
0000
0000
0000
0000
0000
0000
0000
0000
0000
0000
0000
0000
0000
0000
0000
0000
0000
0000
0000
0000
0000
0000
0000
1003
0000
0000
0000
0000
0000
0000
0000
0000
0000
0000
0000
1010
0000
0000
0000
0000
0000
0000
0000
0000
0000
0000
0000
1100
0000
0000
0000
0000
0000
0000
0000
0000
0000
0000
0000
0010
0000
0000
0000
0000
0000
0000
0000
0001
0000
0000
0000
0000
0000
0000
0000
0100
0000
0000
0000
0000
0000
0000
0000
1000
0000
0000
0000
0000
0000
0100
0000
0000
0000
0000
0000
0001
0000
0000
0000
0000
0000
0000
0000
0000
0000
0000
0000
,  // measure 38
0010
0000
0000
0000
0000
0000
0000
0000
0000
0000
0000
0000
0100
0000
0000
0000
0000
0000
1000
0000
0000
0000
0000
0000
0010
0000
0000
0000
0000
0000
0000
0000
0000
0000
0000
0000
0100
0000
0000
0000
0000
0000
0001
0000
0000
0000
0000
0000
0010
0000
0000
0000
0000
0000
0000
0000
0000
0000
0000
0000
0100
0000
0000
0000
0000
0000
0000
0000
0000
0000
0000
0000
0001
0000
0000
0000
0000
0000
0000
0000
0000
0000
0000
0000
2100
0000
0000
0000
0000
0000
0000
0000
0000
0000
0000
0000
0000
0000
0000
0000
0000
0000
0000
0000
0000
0000
0000
0000
3010
0000
0000
0000
0000
0000
0000
0000
0000
0000
0000
0000
0100
0000
0000
0000
0000
0000
0001
0000
0000
0000
0000
0000
0010
0000
0000
0000
0000
0000
0100
0000
0000
0000
0000
0000
1000
0000
0000
0000
0000
0000
0000
0000
0010
0000
0000
0000
0000
0000
0000
0000
0001
0000
0000
0000
0000
0000
0000
0000
0020
0000
0000
0000
0000
0000
0000
0000
0000
0000
0000
0000
0000
0000
0000
0000
0000
0000
0000
0000
0000
0000
0000
0000
,  // measure 39
1030
0100
0010
0100
2000
0000
0000
0000
3001
0100
0010
0100
0002
0000
1003
0000
0000
0000
1100
0000
0000
0101
0000
0000
0011
0000
0000
1010
0000
0000
1100
0000
,  // measure 40
0001
0100
1000
0100
0010
0000
0001
1000
0010
0000
0110
0000
1000
0000
1001
0000
0100
0001
0010
0100
0010
0100
0010
0100
0010
0100
0010
0100
1000
0000
0000
0000
,  // measure 41
0001
0001
1000
1000
0010
0010
0100
0100
,  // measure 42
0001
0001
0010
0110
0000
1100
0001
0001
,  // measure 43
0100
0101
0010
0010
1000
1000
0100
0100
,  // measure 44
0010
0011
0001
1001
0000
1010
0100
0100
,  // measure 45
0010
0001
0010
0000
0001
0100
0001
0000
1000
0010
1000
0000
0100
1000
0100
0000
,  // measure 46
0010
0001
0010
0000
0001
0100
0001
0000
1000
0100
1000
0000
0010
0100
0010
0000
,  // measure 47
1000
0100
1000
0001
0010
0100
0010
0001
0100
0001
1000
0100
0010
0100
1000
0010
,  // measure 48
0100
0001
0010
0100
0010
1000
0020
0000
0000
0000
0000
0000
0200
0000
0330
0000
,  // measure 49
0001
0100
0010
0100
0001
0100
0010
1000
,  // measure 50
0100
0001
0100
0010
0100
1000
0010
0100
,  // measure 51
0001
0010
0100
0010
0001
1000
0100
1000
,  // measure 52
0001
1000
0010
0100
0001
1000
0001
0100
,  // measure 53
0010
1000
0100
0010
0001
0100
0001
0010
,  // measure 54
0100
1000
0010
0100
1000
0100
0010
1000
,  // measure 55
0100
0010
0001
0100
0010
0100
0001
0010
,  // measure 56
1000
0001
0100
0010
0001
1000
0010
0000
,  // measure 57
2002
0000
0000
0000
,  // measure 58
0000
0000
0000
0000
,  // measure 59
0000
0000
0000
0000
,  // measure 60
0000
0000
0000
0000
,  // measure 61
3003
0000
0000
0000
;

//---------------dance-double - ----------------
#NOTES:
     dance-double:
     :
     Easy:
     7:
     0.272042,0.416992,0.117188,0.136719,0.000000,195.000000,183.000000,12.000000,14.000000,0.000000,0.000000,0.272042,0.416992,0.117188,0.136719,0.000000,195.000000,183.000000,12.000000,14.000000,0.000000,0.000000:
00000000
00000000
00000000
00000000
,
00000000
00000000
00000000
00000000
,
00000000
00000000
00000000
00000000
,
00000000
00000000
00000000
00000000
,
00000000
00000000
00000000
00000000
,
00010000
00000100
00000010
00000000
,
00000001
00001000
00000010
00000100
,
00001000
01000000
00100000
00000000
,
20020000
00000000
00000000
30030000
,
01000000
00000000
01000000
00000000
01000000
00010000
00002000
00000000
,
00003100
00000000
00000100
00000000
00000100
00000001
00001000
00000010
,
00000100
00000000
00000100
00000000
00000100
00001000
00020000
00000000
,
01030000
00000000
01000000
00000000
01000000
00100000
01000000
01000000
,
00100000
00010000
10000000
00010000
,
00100000
00001000
00020000
00030000
,
00000100
00001000
00000010
00001000
,
00000100
00000010
00000001
00000100
,
00000000
00011000
00000000
01000000
,
10000000
00010000
00200000
00300000
,
01000000
10000000
00100000
00010000
,
00001000
00000100
00000110
00000000
,
00000001
00000100
00001000
00000100
,
00000001
00000000
00000100
00000000
00001000
00010000
00000000
00000000
,
10000000
01000000
00010000
01000000
,
10000000
00000000
01000000
00000000
00010000
00001000
00000000
00000000
,
00000001
00000010
00001000
00000010
,
00000001
00000000
00000010
00000000
00001000
00010000
00000000
00000000
,
10000000
00100000
00010000
00100000
,
10000000
01000000
00020000
00030000
,
00011000
00011000
00000000
00000000
,
00000000
00000000
00000010
00000100
,
00001001
00001001
00000000
00000000
,
00000000
00000000
00000010
00000100
,
00001000
00001000
00000000
00000000
00100000
00100000
00000000
00000000
,
00010000
00010000
00000000
00000000
00000010
00000010
00000000
00000000
,
00000001
00000100
00001000
00010000
,
00022000
00000000
00000000
00033000
,
01000000
00000000
01100000
00000000
10000000
00100000
01000000
00000000
,
00010000
00010000
00001000
00000000
00200000
00000000
00310000
00001000
,
00000100
00000000
00000011
00000100
00000000
00000000
00000000
00000000
,
00101000
00000000
00010000
00000000
02000000
00000000
00000000
03000000
,
00100000
00100000
10000000
10000000
,
01000000
00000000
00100000
00100000
00000000
00010000
00010000
00000000
,
00001000
00001000
00000100
00000100
,
00000010
00000000
00000001
00000001
00000000
00001000
00001000
00000000
,
00000010
00000010
00000100
00000100
,
00001000
00000000
00010000
00010000
00000000
00001000
00001000
00000000
,
00010000
01000000
10000000
00100000
,
00010000
00000000
00001000
00000000
00000020
00000000
00000000
00000030
,
00000001
00000000
00000001
00000000
,
00000100
00000000
00000100
00000000
,
00001000
00000000
00001000
00000000
,
00010000
00001000
00010000
00000000
,
00100000
00000000
00100000
00000000
,
10000000
00000000
10000000
00000000
,
01000000
00000000
01000000
00000000
,
00010000
00001000
00010000
00001000
,
00022000
00000000
00000000
00000000
,
00000000
00000000
00000000
00000000
,
00000000
00000000
00000000
00000000
,
00000000
00000000
00000000
00000000
,
00033000
00000000
00000000
00000000
;

//---------------dance-double - ----------------
#NOTES:
     dance-double:
     :
     Medium:
     14:
     0.601283,1.042480,0.302734,0.185547,0.537109,431.000000,400.000000,31.000000,19.000000,0.000000,0.000000,0.601283,1.042480,0.302734,0.185547,0.537109,431.000000,400.000000,31.000000,19.000000,0.000000,0.000000:
00000000
00000000
00000000
00000000
,
00000000
00000000
00000000
00000000
,
00000000
00000000
00000000
00000000
,
00000000
00000000
00000000
00000000
,
00000000
00000000
00000000
00000000
,
01000000
00100000
00000000
00000000
00010000
00000000
00000000
00000100
00000000
00000000
00001010
00000000
00000000
00000000
00000000
00000000
,
00000100
00000010
00000000
00000000
00001000
00000000
00000000
00010000
00000000
00000000
00001000
00100000
00001000
00100000
00010000
00000000
,
10000000
00100000
00000000
00000000
01000000
00000000
00000000
00010000
00000000
00000000
00101000
00000000
00000000
00000000
00000000
00000000
,
00010000
00000000
00010000
00001000
00000000
00001000
00000100
00000000
00000100
00000001
00000000
00000001
00000010
00000000
00000100
00000000
,
00001000
00000010
00000000
00001010
00000000
00000010
00010000
00100000
00000000
10000000
01000000
00100000
00002000
01000000
00010000
00000000
,
00003100
00000000
00000010
00000000
00000000
00000000
00000110
00000000
00000000
00000000
00000001
00000000
00000010
00000000
00001000
00000000
00000000
00000000
00010000
00000000
01000000
00000000
10000000
00000000
00010000
00000000
00000000
00011000
00000000
00000000
00001100
00000000
,
00000010
00000001
00000000
00000101
00000000
00000100
00010000
01000000
00000000
00100000
10000000
01000000
00020000
00001000
00000010
00000000
,
00030100
00000000
00000010
00000000
00000000
00000000
00000011
00000000
00000000
00000000
00000001
00000000
00000100
00000000
00001000
00000000
00000000
00000000
00000100
00000000
00000001
00000000
00000010
00000000
00000100
00000000
00000000
00010100
00000000
00000000
00011000
00000000
,
00001000
00010000
00001000
00000000
00100000
00000000
00010000
00000000
01000000
00000000
10000000
00000000
01000000
00000000
01000000
00000000
,
00000000
01000000
00100000
01000000
00020000
00000000
00130000
00000000
,
00001000
00010000
00001000
00000000
00100000
00000000
00001000
00000000
00010000
00000000
00001000
00000000
00000100
00000000
00000100
00000000
,
00000000
00000000
00000001
00000000
00000100
00000000
00000010
00000000
00001010
00000000
00000000
00010100
00000000
00000000
00101000
00000000
,
00000000
00000000
01000000
00010000
10000000
00000000
01000000
00000000
00000000
00000000
10000000
00010000
01000000
00000000
01000000
00000000
,
00000000
00100000
00010000
00001000
00020000
00000000
00000000
00000000
,
01030000
10000000
01000000
00000000
00010000
00000000
00001000
00000000
00000010
00000000
00000100
00000000
00001000
00000100
00001000
00000000
,
00000000
00000000
00000001
00000000
00000100
00000001
00000100
00000000
00000110
00000000
00000000
00001100
00000000
00000000
00011000
00000000
,
00010000
00100000
10000000
01000000
00010000
00001000
00010000
00100000
,
10000000
00000000
01000000
00000000
00010000
00001000
00010000
00001000
00010000
00000000
00000200
00000000
00000000
00000000
00000000
00000000
,
00000310
00000001
00000100
00001000
00010000
00001000
00000010
00000001
,
00000100
00000000
00001000
00000000
00010000
00001000
00010000
00001000
00010000
00000000
00200000
00000000
00000000
00000000
00000000
00000000
,
00310000
00001000
00010000
00000000
00100000
00000000
10000000
00000000
01000000
00000000
00010000
00000000
00001000
00000000
00000010
00000000
,
00000001
00000000
00000100
00000000
00001000
00010000
00001000
00010000
00001000
00000000
00020000
00000000
00000000
00000000
00000000
00000000
,
01030000
00000000
10000000
00000000
00100000
00000000
00010000
00000000
00001000
00000000
00000100
00000000
00000001
00001000
00000001
00001000
,
00000001
00000010
00001000
00010000
01000000
20000000
00000000
00000000
,
30010000
02020000
03030000
00000000
,
00000000
00000000
00000000
00000000
00000000
00000000
00000000
00000000
00010000
00000000
00000000
00000010
00000000
00000000
00001000
00000000
,
00001001
00000202
00000303
00000000
,
00000000
00000000
00000000
00000000
00000000
00000000
00000000
00000000
00001000
00000000
00000000
00100000
00000000
00000000
00010000
00000000
,
10000000
00000000
10000000
00000000
01000000
10000000
01000000
00000000
00100000
00000000
00100000
00000000
00010000
00100000
00010000
00000000
,
00001000
00000000
00001000
00000000
00000100
00001000
00000100
00000000
00000010
00000000
00000010
00000001
00000000
00000001
00000100
00000000
,
00000010
00001000
00000010
00000000
00010000
00000100
00010000
00000000
00001000
00100000
00010000
10000000
00100000
10000000
00010000
00100000
,
02000000
00000000
00000000
03100000
,
00001000
00000000
00000000
00000000
00000000
00000000
00000000
00000000
00000000
00000000
00000000
00000000
00011000
00000000
00000000
00000000
00000000
00000000
00000000
00000000
00000000
00000000
00000000
00000000
00000000
00000000
00000000
00000000
00000000
00000000
00000000
00000000
00000000
00000000
00000000
00000000
00000100
00000000
00000000
00000000
00000000
00000000
00010000
00000000
00000000
00000000
00000000
00000000
00001000
00000000
00000000
00000000
00000000
00000000
00000000
00000000
00000000
00000000
00000000
00000000
00000100
00000000
00000000
00000000
00000000
00000000
00000000
00000000
00000000
00000000
00000000
00000000
00000000
00000000
00000000
00000000
00000000
00000000
00000000
00000000
00000000
00000000
00000000
00000000
00001001
00000000
00000000
00000000
00000000
00000000
00000000
00000000
00000000
00000000
00000000
00000000
00000000
00000000
00000000
00000000
00000000
00000000
00000000
00000000
00000000
00000000
00000000
00000000
00000100
00000000
00000000
00000000
00000000
00000000
00000000
00000000
00000000
00000000
00000000
00000000
00000010
00000000
00000000
00000000
00000000
00000000
00000000
00000000
00000000
00000000
00000000
00000000
00000100
00000000
00000000
00000000
00000000
00000000
00000000
00000000
00000000
00000000
00000000
00000000
00000100
00000000
00000000
00000000
00000000
00000000
00000000
00000000
00001000
00000000
00000000
00000000
00000000
00000000
00000000
00000000
00010000
00000000
00000000
00000000
00000000
00000000
00000000
00000000
00200000
00000000
00000000
00000000
00000000
00000000
00000000
00000000
00000000
00000000
00000000
00000000
00000000
00000000
00000000
00000000
00000000
00000000
00000000
00000000
00000000
00000000
00000000
00000000
,
00300000
00000000
00000000
00000000
00000000
00000000
00000000
00000000
00000000
00000000
00000000
00000000
10000000
00000000
00000000
00000000
00000000
00000000
01000000
00000000
00000000
00000000
00000000
00000000
00000000
00000000
00000000
00000000
00000000
00000000
00000000
00000000
00000000
00000000
00000000
00000000
00010000
00000000
00000000
00000000
00000000
00000000
01000000
00000000
00000000
00000000
00000000
00000000
00000000
00000000
00000000
00000000
00000000
00000000
00000000
00000000
00000000
00000000
00000000
00000000
11000000
00000000
00000000
00000000
00000000
00000000
00000000
00000000
00000000
00000000
00000000
00000000
00000000
00000000
00000000
00000000
00000000
00000000
00000000
00000000
00000000
00000000
00000000
00000000
01010000
00000000
00000000
00000000
00000000
00000000
00000000
00000000
00000000
00000000
00000000
00000000
00000000
00000000
00000000
00000000
00000000
00000000
00000000
00000000
00000000
00000000
00000000
00000000
00100000
00000000
00000000
00000000
00000000
00000000
00000000
00000000
00000000
00000000
00000000
00000000
00001000
00000000
00000000
00000000
00000000
00000000
00000000
00000000
00000000
00000000
00000000
00000000
00010000
00000000
00000000
00000000
00000000
00000000
00000000
00000000
00000000
00000000
00000000
00000000
01000000
00000000
00000000
00000000
00000000
00000000
00000000
00000000
00010000
00000000
00000000
00000000
00000000
00000000
00000000
00000000
00001000
00000000
00000000
00000000
00000000
00000000
00000000
00000000
00000020
00000000
00000000
00000000
00000000
00000000
00000000
00000000
00000000
00000000
00000000
00000000
00000000
00000000
00000000
00000000
00000000
00000000
00000000
00000000
00000000
00000000
00000000
00000000
,
00000130
00001000
00000100
00001000
00000100
00000000
00000000
00000000
01000000
00010000
01000000
00010000
01000000
00000000
00001000
00000000
00000000
00000000
00010000
00000000
00000000
00100000
00000000
00000000
10000000
00000000
00000000
01000000
00000000
00000000
00010000
00000000
,
00001000
00010000
00001000
00010000
00001000
00000000
00000000
00000000
00000100
00000000
00000001
00000000
00000000
00000000
00001001
00000000
00000000
00000000
00000000
00000000
00000020
00000000
00000000
00000000
00000000
00000000
00000000
00000000
00000130
00000000
00000000
00000000
,
00001000
00010000
00001000
00010000
01000000
00010000
01000000
00010000
,
01000000
10000000
01000000
11000000
00000000
10100000
00100000
00010000
,
00001000
00010000
00001000
00010000
00001000
00000010
00001000
00000010
,
00000001
00000010
00000001
00000011
00000000
00000101
00000001
00000100
,
00001000
00010000
00001000
00010000
00100000
10000000
00100000
10000000
,
01000000
00010000
00001000
00011000
00000000
00001100
00000100
00000001
,
00000010
00000000
00000100
00000000
00010000
00001000
00010000
00000000
01000000
00000000
00100000
00000000
00001000
00010000
00001000
00000000
,
00000100
00000001
00000010
00000200
00000000
00000000
00000300
00000000
,
00001000
00000000
00000001
00000000
00001000
00000010
00001000
00000000
,
00000100
00000000
00010000
00000000
00001000
00010000
00001000
00000000
,
01000000
00000000
00010000
00000000
10000000
01000000
10000000
00000000
,
00100000
00000000
01000000
00000000
00010000
10000000
00010000
00000000
,
00100000
00000000
00001000
00000000
00100000
00001000
00010000
00000000
,
00001000
00000000
00010000
00000000
00000010
00001000
00000001
00000000
,
00001000
00000000
00000100
00000000
00010000
00001000
01000000
00000000
,
00100000
10000000
00010000
00000000
01000000
00001000
00010000
00000000
,
00022000
00000000
00000000
00000000
,
00000000
00000000
00000000
00000000
,
00000000
00000000
00000000
00000000
,
00000000
00000000
00000000
00000000
,
00033000
00000000
00000000
00000000
;

//---------------dance-double - ----------------
#NOTES:
     dance-double:
     :
     Hard:
     17:
     0.784040,1.280762,0.332031,0.244141,0.898438,562.000000,528.000000,34.000000,25.000000,0.000000,0.000000,0.784040,1.280762,0.332031,0.244141,0.898438,562.000000,528.000000,34.000000,25.000000,0.000000,0.000000:
00000000
00000000
00000000
00000000
,
00000000
00000000
00000000
00000000
,
00000000
00000000
00000000
00000000
,
00000000
00000000
00000000
00000000
,
00000000
00000000
00000000
00000000
,
00010000
00000010
00000000
00000000
00001100
00000000
00000010
00000001
00000000
00000001
00000100
00000000
00000010
00000000
00000100
00000000
,
00001000
00100000
00000000
00000000
01010000
00000000
00100000
10000000
00000000
00000000
10000000
01000000
00100000
00010000
00100000
00000000
,
01000000
00010000
00000000
00000000
00011000
00000000
00001000
00000100
00000000
00000000
00000010
00000000
00001001
00000000
00000000
00000000
,
00000001
00000010
00000100
00001000
00000010
00000100
00001000
00010000
01000000
00100000
00010000
01000000
00100000
10000000
02000000
00000000
,
13000000
00000000
00000000
00000000
00000000
00000000
00010000
00000000
00000000
00000000
00000000
00000000
10000000
00000000
00000000
00000000
00000000
00000000
00000000
00000000
00000000
00000000
00000000
00000000
00000000
00000000
00000000
00000000
00000000
00000000
00000000
00000000
00000000
00000000
00000000
00000000
01000000
00000000
00000000
00000000
10000000
00000000
00000000
00000000
01000000
00000000
00000000
00000000
10000000
00000000
00000000
00000000
00000000
00000000
00000000
00000000
00000000
00000000
00000000
00000000
00100000
00000000
00000000
00000000
00000000
00000000
00000000
00000000
00000000
00000000
00000000
00000000
01000000
00000000
00000000
00000000
00000000
00000000
00000000
00000000
00000000
00000000
00000000
00000000
00010000
00000000
00000000
00000000
00000000
00000000
00000000
00000000
00000000
00000000
00000000
00000000
00000000
00000000
00000000
00000000
00000000
00000000
00000000
00000000
00000000
00000000
00000000
00000000
00100000
00000000
00000000
00000000
00000000
00000000
00000000
00000000
00000000
00000000
00000000
00000000
01000000
00000000
00000000
00000000
00000000
00000000
00000000
00000000
00000000
00000000
00000000
00000000
00001000
00000000
00000000
00000000
00000000
00000000
00000000
00000000
00000000
00000000
00000000
00000000
00020000
00000000
00000000
00000000
00000000
00000000
00000000
00000000
00000000
00000000
00000000
00000000
00130000
00000000
00000000
00000000
00001000
00000000
00000000
00000000
00100000
00000000
00000000
00000000
00001000
00000000
00000000
00000000
00000000
00000000
00000000
00000000
00000000
00000000
00000000
00000000
00000000
00000000
00000000
00000000
00000000
00000000
00000000
00000000
00000000
00000000
00000000
00000000
,
00010000
00000000
00000000
00000000
00000000
00000000
00001000
00000000
00000000
00000000
00000000
00000000
00010000
00000000
00000000
00000000
00000000
00000000
00000000
00000000
00000000
00000000
00000000
00000000
00000000
00000000
00000000
00000000
00000000
00000000
00000000
00000000
00000000
00000000
00000000
00000000
00000100
00000000
00000000
00000000
00001000
00000000
00000000
00000000
00000100
00000000
00000000
00000000
00001000
00000000
00000000
00000000
00000000
00000000
00000000
00000000
00000000
00000000
00000000
00000000
00000010
00000000
00000000
00000000
00000000
00000000
00000000
00000000
00000000
00000000
00000000
00000000
00000100
00000000
00000000
00000000
00000000
00000000
00000000
00000000
00000000
00000000
00000000
00000000
00000001
00000000
00000000
00000000
00000000
00000000
00000000
00000000
00000000
00000000
00000000
00000000
00000000
00000000
00000000
00000000
00000000
00000000
00000000
00000000
00000000
00000000
00000000
00000000
00000010
00000000
00000000
00000000
00000000
00000000
00000000
00000000
00000000
00000000
00000000
00000000
00000100
00000000
00000000
00000000
00000000
00000000
00000000
00000000
00000000
00000000
00000000
00000000
00010000
00000000
00000000
00000000
00000000
00000000
00000000
00000000
00000000
00000000
00000000
00000000
00001010
00000000
00000000
00000000
00000000
00000000
00000000
00000000
00000000
00000000
00000000
00000000
00000000
00000000
00000000
00000000
00000000
00000000
00011000
00000000
00000000
00000000
00000000
00000000
00000000
00000000
00000000
00000000
00000000
00000000
00000000
00000000
00000000
00000000
00000000
00000000
00101000
00000000
00000000
00000000
00000000
00000000
00000000
00000000
00000000
00000000
00000000
00000000
,
00010000
00000000
00000000
00000000
00000000
00000000
10000000
00000000
00000000
00000000
00000000
00000000
00010000
00000000
00000000
00000000
00000000
00000000
00000000
00000000
00000000
00000000
00000000
00000000
00000000
00000000
00000000
00000000
00000000
00000000
00000000
00000000
00000000
00000000
00000000
00000000
10000000
00000000
00000000
00000000
01000000
00000000
00000000
00000000
10000000
00000000
00000000
00000000
01000000
00000000
00000000
00000000
00000000
00000000
00000000
00000000
00000000
00000000
00000000
00000000
00100000
00000000
00000000
00000000
00000000
00000000
00000000
00000000
00000000
00000000
00000000
00000000
00010000
00000000
00000000
00000000
00000000
00000000
00000000
00000000
00000000
00000000
00000000
00000000
10000000
00000000
00000000
00000000
00000000
00000000
00000000
00000000
00000000
00000000
00000000
00000000
00000000
00000000
00000000
00000000
00000000
00000000
00000000
00000000
00000000
00000000
00000000
00000000
00100000
00000000
00000000
00000000
00000000
00000000
00000000
00000000
00000000
00000000
00000000
00000000
00010000
00000000
00000000
00000000
00000000
00000000
00000000
00000000
00000000
00000000
00000000
00000000
00001000
00000000
00000000
00000000
00000000
00000000
00000000
00000000
00000000
00000000
00000000
00000000
00200000
00000000
00000000
00000000
00000000
00000000
00000000
00000000
00000000
00000000
00000000
00000000
00301000
00000000
00000000
00000000
00010000
00000000
00000000
00000000
00001000
00000000
00000000
00000000
00010000
00000000
00000000
00000000
00000000
00000000
00000000
00000000
00000000
00000000
00000000
00000000
00000000
00000000
00000000
00000000
00000000
00000000
00000000
00000000
00000000
00000000
00000000
00000000
,
00000010
00000000
00000000
00000000
00000000
00000000
00000100
00000000
00000000
00000000
00000000
00000000
00000010
00000000
00000000
00000000
00000000
00000000
00000000
00000000
00000000
00000000
00000000
00000000
00000000
00000000
00000000
00000000
00000000
00000000
00000000
00000000
00000000
00000000
00000000
00000000
00000100
00000000
00000000
00000000
00000001
00000000
00000000
00000000
00000100
00000000
00000000
00000000
00000001
00000000
00000000
00000000
00000000
00000000
00000000
00000000
00000000
00000000
00000000
00000000
00000010
00000000
00000000
00000000
00000000
00000000
00000000
00000000
00000000
00000000
00000000
00000000
00001000
00000000
00000000
00000000
00000000
00000000
00000000
00000000
00000000
00000000
00000000
00000000
00010000
00000000
00000000
00000000
00000000
00000000
00000000
00000000
00000000
00000000
00000000
00000000
00000000
00000000
00000000
00000000
00000000
00000000
00000000
00000000
00000000
00000000
00000000
00000000
00000100
00000000
00000000
00000000
00000000
00000000
00000000
00000000
00000000
00000000
00000000
00000000
00001000
00000000
00000000
00000000
00000000
00000000
00000000
00000000
00000000
00000000
00000000
00000000
00010000
00000000
00000000
00000000
00000000
00000000
00000000
00000000
00000000
00000000
00000000
00000000
00110000
00000000
00000000
00000000
00000000
00000000
00000000
00000000
00000000
00000000
00000000
00000000
00000000
00000000
00000000
00000000
00000000
00000000
01100000
00000000
00000000
00000000
00000000
00000000
00000000
00000000
00000000
00000000
00000000
00000000
00000000
00000000
00000000
00000000
00000000
00000000
11000000
00000000
00000000
00000000
00000000
00000000
00000000
00000000
00000000
00000000
00000000
00000000
,
00010000
10000000
00010000
00000000
00100000
00000000
01000000
00000000
10000000
00000000
00010000
00000000
01000000
00000000
00100000
01000000
,
00000000
00000000
00001000
00000000
00000100
00000000
00000010
00000100
00000001
00000000
00001000
00000000
00000100
00000010
00000100
00000010
,
00001000
00010000
00001000
00000000
00000100
00000000
00001000
00000000
00100000
00000000
00010000
00000000
01000000
00000000
00100000
01000000
,
00000000
00000000
00000000
00000000
00000000
00000000
00001000
00000000
00000000
00000000
00000000
00000000
00100000
00000000
00000000
00000000
00000000
00000000
00010000
00000000
00000000
10000000
00000000
00000000
00100000
00000000
00000000
00000000
00000000
00000000
01000000
00000000
00010000
00000000
01000000
00000000
00010000
00000000
00000000
00000000
00000000
00000000
10000000
00000000
00000000
00000000
00000000
00000000
,
00000000
00000000
01000000
00100000
00010000
00000000
00011000
00000000
00000000
00000000
00000100
00000010
00001000
00000000
00011000
00000000
,
00000000
00000000
01000000
00000000
00010000
00000000
00100000
00000000
00001000
00000000
00010000
00001000
00010000
00000100
00000010
00000100
,
00001000
00000000
00000001
00000100
00000010
00000000
00001000
00000100
00000010
00000000
00001000
00010000
01000000
00000000
00001000
00010000
,
00100000
00000000
00010000
01000000
00100000
10000000
01000000
10000000
00010000
00100000
00001000
00010000
00001000
01000000
00001000
00010000
,
00000010
00001000
00000100
00000010
00001000
00010000
00000010
00000100
,
00001000
00000000
00000001
00000000
00000010
00001000
00000010
00001000
00010000
00000000
02000000
00000000
00000000
00000000
00000000
00000000
,
03001000
00010000
01000000
00001000
00010000
00100000
00001000
00010000
,
01000000
00000000
00001000
00000000
00010000
00100000
00010000
00100000
01000000
00000000
20000000
00000000
00000000
00000000
00000000
00000000
,
30010000
01000000
00100000
10000000
00000000
00000000
00010000
00000000
00000000
00100000
00000000
00000000
00010000
00000000
00000000
01000000
00000000
00000000
00001000
00000000
00000000
00010000
00000000
00000000
,
00100000
00000000
10000000
00000000
00100000
00010000
00100000
00010000
00001000
00000000
00000200
00000000
00000000
00000000
00000000
00000000
,
00010300
00000000
00001000
00000000
00000100
00000000
00010000
00000000
00001000
00000000
00000010
00000000
00010000
00001000
00010000
00001000
,
00000100
00010000
00001000
00000010
00000001
00002002
00000000
00003003
,
00010010
00020200
00030300
00000000
,
00000000
00000000
00000000
00000000
00000000
00000000
00000000
00000000
01100000
00000000
10000000
00100000
00000000
01000000
00010000
00000000
,
01001000
00202000
00303000
00000000
,
00000000
00000000
00000000
00000000
00000000
00000000
00000000
00000000
00000110
00000000
00000001
00000010
00000000
00000100
00001000
00000000
,
00000010
00000000
00010000
00000000
00000100
00001000
00000100
00010000
00001000
00000000
00100000
00000000
00010000
01000000
00010000
10000000
,
00100000
00000000
01000000
00000000
00010000
10000000
00010000
00100000
00001000
00000000
00001000
00000100
00000000
00000100
00000001
00000000
,
00001000
00000010
00001000
00000010
00010000
00001000
00010000
00001000
00100000
00010000
00100000
00010000
10000000
00100000
10000000
00100000
,
01000000
00010000
10000000
00010000
00100000
00001000
00010000
00001000
00010000
00000100
00001000
00000100
00000010
00000001
00001000
00000010
,
00000100
00000000
00000000
00000000
00000000
00000000
00000000
00000000
00000000
00000000
00000000
00000000
00000110
00000000
00000000
00000000
00000000
00000000
00000000
00000000
00000000
00000000
00000000
00000000
00000000
00000000
00000000
00000000
00000000
00000000
00000000
00000000
00000000
00000000
00000000
00000000
00000010
00000000
00000000
00000000
00000000
00000000
00001000
00000000
00000000
00000000
00000000
00000000
00010000
00000000
00000000
00000000
00000000
00000000
00000000
00000000
00000000
00000000
00000000
00000000
00001000
00000000
00000000
00000000
00000000
00000000
00000000
00000000
00000000
00000000
00000000
00000000
00000100
00000000
00000000
00000000
00000000
00000000
00000000
00000000
00000000
00000000
00000000
00000000
00000020
00000000
00000000
00000000
00000000
00000000
00000000
00000000
00000000
00000000
00000000
00000000
00000000
00000000
00000000
00000000
00000000
00000000
00000000
00000000
00000000
00000000
00000000
00000000
00000031
00000000
00000000
00000000
00000000
00000000
00000000
00000000
00000000
00000000
00000000
00000000
00000100
00000000
00000000
00000000
00000000
00000000
00000000
00000000
00000000
00000000
00000000
00000000
00001000
00000000
00000000
00000000
00000000
00000000
00000000
00000000
00000000
00000000
00000000
00000000
00010000
00000000
00000000
00000000
00000000
00000000
00000000
00000000
00001000
00000000
00000000
00000000
00000000
00000000
00000000
00000000
00100000
00000000
00000000
00000000
00000000
00000000
00000000
00000000
00010000
00000000
00000000
00000000
00000000
00000000
01000000
00000000
00000000
00000000
00000000
00000000
00010000
00000000
00000000
00000000
00000000
00000000
00000000
00000000
00000000
00000000
00000000
00000000
,
10000000
00000000
00000000
00000000
00000000
00000000
00000000
00000000
00000000
00000000
00000000
00000000
01000000
00000000
00000000
00000000
00000000
00000000
00010000
00000000
00000000
00000000
00000000
00000000
01000000
00000000
00000000
00000000
00000000
00000000
00000000
00000000
00000000
00000000
00000000
00000000
01000000
00000000
00000000
00000000
00000000
00000000
10000000
00000000
00000000
00000000
00000000
00000000
01000000
00000000
00000000
00000000
00000000
00000000
00000000
00000000
00000000
00000000
00000000
00000000
00100000
00000000
00000000
00000000
00000000
00000000
00000000
00000000
00000000
00000000
00000000
00000000
00010000
00000000
00000000
00000000
00000000
00000000
00000000
00000000
00000000
00000000
00000000
00000000
02000000
00000000
00000000
00000000
00000000
00000000
00000000
00000000
00000000
00000000
00000000
00000000
00000000
00000000
00000000
00000000
00000000
00000000
00000000
00000000
00000000
00000000
00000000
00000000
03100000
00000000
00000000
00000000
00000000
00000000
00000000
00000000
00000000
00000000
00000000
00000000
01000000
00000000
00000000
00000000
00000000
00000000
00010000
00000000
00000000
00000000
00000000
00000000
00100000
00000000
00000000
00000000
00000000
00000000
00001000
00000000
00000000
00000000
00000000
00000000
00010000
00000000
00000000
00000000
00000000
00000000
00000000
00000000
00001000
00000000
00000000
00000000
00000000
00000000
00000000
00000000
00010000
00000000
00000000
00000000
00000000
00000000
00000000
00000000
00000200
00000000
00000000
00000000
00000000
00000000
00000000
00000000
00000000
00000000
00000000
00000000
00000000
00000000
00000000
00000000
00000000
00000000
00000000
00000000
00000000
00000000
00000000
00000000
,
00000310
00000001
00000100
00001000
00020000
00000000
00000000
00000000
00130000
10000000
01000000
00010000
00002000
00000000
00013000
00000000
00000000
00000000
00001100
00000000
00000000
00000101
00000000
00000000
00000011
00000000
00000000
00001010
00000000
00000000
00010100
00000000
,
00001000
00010000
01000000
10000000
00100000
00000000
10000000
00010000
10000000
00000000
01000000
00000000
00100000
00000000
01010000
00000000
00000000
00000000
00000000
00000000
00002000
00000000
00000000
00000000
00003200
00000000
00000000
00000000
00000301
00000000
00000000
00000000
,
00001000
00000100
00000001
00000100
00010000
00001000
00000100
00001000
,
00010000
01000000
00010000
00011000
00000000
01001000
10000000
01000000
,
00010000
00100000
10000000
00100000
00001000
00010000
00100000
00010000
,
00001000
00000110
00000001
00000101
00000000
00011000
01000000
10000000
,
00100000
00000000
00010000
00100000
00010000
00000000
00001000
00010000
00001000
00000000
00000010
00001000
00000010
00000000
00000001
00000010
,
00000001
00000000
00000100
00000001
00000100
00000000
00001010
00000000
00000000
00000000
00110000
00000000
01000000
10000000
01000000
00000000
,
10000000
00010000
10000000
00010000
00100000
00001000
00100000
00001000
00010000
00000010
00010000
00000010
00001000
00000001
00001000
00000001
,
00000100
00000010
00000100
00000010
00010000
00001000
00020000
00000000
00000000
00000000
00000000
00000000
00002000
00000000
00033000
00000000
,
00001000
00010000
00001000
00000000
00100000
00001000
00010000
00000000
,
00001000
01000000
00010000
01000000
00010000
10000000
00010000
00100000
,
01000000
10000000
01000000
00000000
00100000
00001000
00010000
00000000
,
00001000
00010000
00000100
00001000
00000002
00000000
00002003
00000000
,
00003001
00000100
00000001
00001000
00000010
00000100
00000010
00010000
,
00001000
00010000
00000100
00000010
00000100
00010000
00001000
00100000
,
00001000
01000000
00010000
10000000
01000000
00100000
01000000
10000000
,
00010000
00100000
00001000
00010000
00000100
00001000
00000100
00000000
,
00000220
00000000
00000000
00000000
,
00000000
00000000
00000000
00000000
,
00000000
00000000
00000000
00000000
,
00000000
00000000
00000000
00000000
,
00000330
00000000
00000000
00000000
;

//---------------dance-single - ----------------
#NOTES:
     dance-single:
     :
     Challenge:
     18:
     1.010045,1.816895,0.898438,0.390625,1.318359,724.000000,632.000000,92.000000,40.000000,0.000000,0.000000,1.010045,1.816895,0.898438,0.390625,1.318359,724.000000,632.000000,92.000000,40.000000,0.000000,0.000000:
// measure 0
0000
0000
0000
0000
,  // measure 1
0000
0000
0000
0000
,  // measure 2
0000
0000
0000
0000
,  // measure 3
0000
0000
0000
0000
,  // measure 4
0000
0000
0000
0000
,  // measure 5
1000
0001
0000
0100
0001
0000
0010
0100
0000
0010
0100
0000
1000
0001
1000
0000
,  // measure 6
0001
0010
0000
0100
0010
0000
0001
1000
0000
0010
1000
0100
1000
0001
0010
0000
,  // measure 7
0001
0000
0100
0000
0000
0000
0010
0000
0100
0000
0000
0000
0001
0000
1000
0000
0100
0000
0010
0100
0010
0000
0001
1000
0001
1000
0001
0000
0100
0000
0000
0000
,  // measure 8
0010
0000
0000
0000
0000
0000
0000
0000
0000
0000
0000
0000
1000
0000
0000
0000
0000
0000
0000
0000
0000
0000
0000
0000
0001
0000
0000
0000
0000
0000
0000
0000
0000
0000
0000
0000
0100
0000
0000
0000
0000
0000
0000
0000
0000
0000
0000
0000
0010
0000
0000
0000
0000
0000
0000
0000
0000
0000
0000
0000
0100
0000
0000
0000
0000
0000
0000
0000
0000
0000
0000
0000
0001
0000
0000
0000
0000
0000
0000
0000
0000
0000
0000
0000
1000
0000
0000
0000
0000
0000
0000
0000
0000
0000
0000
0000
0010
0000
0000
0000
0000
0000
0000
0000
0000
0000
0000
0000
0100
0000
0000
0000
0000
0000
0000
0000
0000
0000
0000
0000
0001
0000
0000
0000
0000
0000
1000
0000
0000
0000
0000
0000
0001
0000
0000
0000
0000
0000
0000
0000
0000
0000
0000
0000
0010
0000
0000
0000
0000
0000
0000
0000
0100
0000
0000
0000
0000
0000
0000
0000
1000
0000
0000
0000
0000
0000
0000
0000
0001
0000
0000
0000
0000
0000
0000
0000
1000
0000
0000
0000
0000
0000
0000
0000
0001
0000
0000
0000
0000
0000
0000
0000
,  // measure 9
0100
0000
0000
0000
0000
0000
0010
0000
0000
0000
0000
0000
0100
0000
0000
0000
0000
0000
0000
0000
0000
0000
0000
0000
0000
0000
0000
0000
0000
0000
0000
0000
0001
0000
0000
0000
1000
0000
0000
0000
0001
0000
0000
0000
1000
0000
0000
0000
0001
0000
0000
0000
0000
0000
0000
0000
0000
0000
0000
0000
0010
0000
0000
0000
0000
0000
0000
0000
0000
0000
0000
0000
0011
0000
0000
0000
0000
0000
0000
0000
0000
0000
0000
0000
1001
0000
0000
0000
0000
0000
0000
0000
0000
0000
0000
0000
0000
0000
0000
0000
0000
0000
0000
0000
0000
0000
0000
0000
1010
0000
0000
0000
0000
0000
0000
0000
0000
0000
0000
0000
0101
0000
0000
0000
0000
0000
0000
0000
0000
0000
0000
0000
1010
0000
0000
0000
0000
0000
0000
0000
0000
0000
0000
0000
0102
0000
0000
0000
0000
0000
0000
0000
0000
0000
0000
0000
0103
0000
0000
0000
0010
0000
0000
0000
1000
0000
0000
0000
0010
0000
0000
0000
0000
0000
0000
0000
0000
0000
0000
0000
0100
0000
0000
0000
0000
0000
0000
0000
0000
0000
0000
0000
,  // measure 10
0001
0000
0000
0000
0000
0000
1000
0000
0000
0000
0000
0000
0001
0000
0000
0000
0000
0000
0000
0000
0000
0000
0000
0000
0000
0000
0000
0000
0000
0000
0000
0000
0000
0000
0000
0000
1000
0000
0000
0000
0010
0000
0000
0000
1000
0000
0000
0000
0010
0000
0000
0000
0000
0000
0000
0000
0000
0000
0000
0000
0100
0000
0000
0000
0000
0000
0000
0000
0000
0000
0000
0000
0101
0000
0000
0000
0000
0000
0000
0000
0000
0000
0000
0000
0202
0000
0000
0000
0000
0000
0000
0000
0000
0000
0000
0000
0303
0000
0000
0000
0000
0000
0000
0000
0000
0000
0000
0000
1001
0000
0000
0000
0000
0000
0000
0000
0000
0000
0000
0000
1001
0000
0000
0000
0000
0000
0000
0000
0000
0000
0000
0000
1010
0000
0000
0000
0000
0000
0000
0000
0000
0000
0000
0000
2020
0000
0000
0000
0000
0000
0000
0000
0000
0000
0000
0000
3030
0000
0000
0000
0000
0000
0202
0000
0000
0000
0000
0000
0000
0000
0000
0000
0000
0000
0303
0000
0000
0000
0000
0000
1002
0000
0000
0000
0000
0000
0000
0000
0000
0000
0000
0000
,  // measure 11
1003
0000
0000
0000
0000
0000
0100
0000
0000
0000
0000
0000
1000
0000
0000
0000
0000
0000
0000
0000
0000
0000
0000
0000
0000
0000
0000
0000
0000
0000
0000
0000
0000
0000
0000
0000
0010
0000
0000
0000
0100
0000
0000
0000
0001
0000
0000
0000
0100
0000
0000
0000
0000
0000
0000
0000
0000
0000
0000
0000
1001
0000
0000
0000
0000
0000
0000
0000
0000
0000
0000
0000
1010
0000
0000
0000
0000
0000
0000
0000
0000
0000
0000
0000
2020
0000
0000
0000
0000
0000
0000
0000
0000
0000
0000
0000
3030
0000
0000
0000
0000
0000
0000
0000
0000
0000
0000
0000
0101
0000
0000
0000
0000
0000
0000
0000
0000
0000
0000
0000
0101
0000
0000
0000
0000
0000
0000
0000
0000
0000
0000
0000
0011
0000
0000
0000
0000
0000
0000
0000
0000
0000
0000
0000
0012
0000
0000
0000
0000
0000
0000
0000
0000
0000
0000
0000
1003
0000
0000
0000
0010
0000
0000
0000
1000
0000
0000
0000
0100
0000
0000
0000
0000
0000
0000
0000
0000
0000
0000
0000
0100
0000
0000
0000
0000
0000
0000
0000
0000
0000
0000
0000
,  // measure 12
0010
0000
0000
0000
0000
0000
0001
0000
0000
0000
0000
0000
0010
0000
0000
0000
0000
0000
0000
0000
0000
0000
0000
0000
0001
0000
0000
0000
0000
0000
0000
0000
0000
0000
0000
0000
1000
0000
0000
0000
0010
0000
0000
0000
1000
0000
0000
0000
0010
0000
0000
0000
0000
0000
0000
0000
0000
0000
0000
0000
0110
0000
0000
0000
0000
0000
0000
0000
0000
0000
0000
0000
0101
0000
0000
0000
0000
0000
0000
0000
0000
0000
0000
0000
0022
0000
0000
0000
0000
0000
0000
0000
0000
0000
0000
0000
0033
0000
0000
0000
0000
0000
0000
0000
0000
0000
0000
0000
1100
0000
0000
0000
0000
0000
0000
0000
0000
0000
0000
0000
1010
0000
0000
0000
0000
0000
0000
0000
0000
0000
0000
0000
0110
0000
0000
0000
0000
0000
0000
0000
0000
0000
0000
0000
0100
0000
0000
0000
0001
0000
0000
0000
0010
0000
0000
0000
0001
0000
0000
0000
0010
0000
0000
0000
0100
0000
0000
0000
1000
0000
0000
0000
0100
0000
0000
0000
1000
0000
0000
0000
0010
0000
0000
0000
0100
0000
0000
0000
0010
0000
0000
0000
,  // measure 13
0100
0001
0101
0000
0100
0000
1000
0000
0100
0001
0010
0100
1000
0000
0010
1000
,  // measure 14
0000
0000
0001
0000
1001
0000
1000
0010
0200
0000
0001
0000
0301
0010
0001
1000
,  // measure 15
0100
1000
0010
0000
0100
0000
0101
0000
0001
0010
1000
0010
0001
0000
0100
0001
,  // measure 16
0000
0000
0000
0000
0000
0000
1001
0000
0000
0000
0000
0000
1000
0000
0000
0000
0000
0000
0010
0000
0000
1000
0000
0000
0100
0000
0000
0000
0000
0000
0010
0000
0001
0000
0010
0000
0001
0000
0000
0000
0000
0000
1001
0000
0000
0000
0000
0000
,  // measure 17
0000
0000
0100
0010
1000
0000
1200
0000
0300
0000
0010
0001
0100
0000
0202
0000
,  // measure 18
0303
0000
1001
0000
1010
0000
0110
0000
0102
0000
1003
0010
0100
0010
0001
0010
,  // measure 19
0100
0001
1000
0001
0100
0000
0100
0010
1000
0000
0001
1000
0100
0010
0001
0010
,  // measure 20
0100
0000
0000
1000
0000
0000
0001
0000
0000
0100
0000
0000
0010
0000
0000
0100
0000
0000
0001
0000
0000
0010
0000
0000
0001
0000
1000
0000
0001
0000
1000
0000
0000
0010
0000
0000
0100
0000
0000
0001
0000
0000
0010
0000
0000
0000
0000
0000
,  // measure 21
0012
0000
0203
0000
2300
0000
3200
0000
0302
0000
0023
0000
0130
1000
0001
1000
,  // measure 22
0010
0000
0100
0000
0001
0010
1000
0010
0001
0000
0102
0000
0000
0000
0000
0000
,  // measure 23
1003
0010
0100
0000
0010
0000
0001
0000
0010
1000
0010
0000
1000
0000
0100
0000
,  // measure 24
0010
0001
0100
0000
0001
0010
0100
0010
0001
0000
2001
0000
0000
0000
0000
0000
,  // measure 25
3001
0000
0100
0000
0001
0000
0010
0000
0000
0000
0000
0000
0100
0000
0000
0000
0000
0000
1000
0000
0000
0001
0000
0000
1000
0000
0000
0000
0000
0000
0010
0000
0000
0000
0000
0000
0100
0000
0000
0001
0000
0000
0010
0000
0000
0001
0000
0000
,  // measure 26
1000
0000
0001
0000
0100
0001
0010
0001
1000
0000
1020
0000
0000
0000
0000
0000
,  // measure 27
0130
0000
0001
0000
0010
0000
0100
1000
0100
0000
1000
0000
0001
1000
0010
1000
,  // measure 28
0100
0110
0010
0011
0001
2002
0000
3003
,  // measure 29
1010
0220
0330
0000
,  // measure 30
0000
0000
0000
0000
0000
0000
0000
0000
1001
0000
0001
0100
0000
1000
0100
0000
,  // measure 31
0101
0022
0033
0000
,  // measure 32
0000
0000
0000
0000
0000
0000
0000
0000
1001
0000
1000
0010
0000
0001
0010
0000
,  // measure 33
1000
0000
1100
0000
0100
0010
0100
0000
0110
0000
0011
0000
0001
1000
0001
0000
,  // measure 34
0101
0000
0110
0000
0010
1000
0100
0010
0001
0100
0000
0101
0000
0000
1010
0000
,  // measure 35
1000
0100
0010
0001
0100
0010
1000
0100
0010
0001
0100
0010
1000
0001
0100
0001
,  // measure 36
0010
0000
0100
0000
0010
0000
0100
0000
0010
0000
0100
0000
1000
0000
0000
0001
0000
0000
1000
0000
0000
0001
0000
0000
0100
0000
0001
0000
0100
0000
0001
0000
0100
0000
0001
0000
0010
0000
0000
0100
0000
0000
1000
0000
0000
0001
0000
0000
,  // measure 37
1000
0000
0000
0000
0000
0000
0010
0000
0000
0000
0000
0000
1000
0000
0000
0000
0000
0000
0001
0000
0000
0000
0000
0000
1000
0000
0000
0000
0000
0000
0000
0000
0000
0000
0000
0000
0001
0000
0000
0000
0000
0000
0100
0000
0000
0000
0000
0000
0010
0000
0000
0000
0000
0000
0000
0000
0000
0000
0000
0000
0110
0000
0000
0000
0000
0000
0000
0000
0000
0000
0000
0000
0100
0000
0000
0000
0000
0000
0001
0000
0000
0000
0000
0000
0010
0000
0000
0000
0000
0000
0100
0000
0000
0000
0000
0000
1000
0000
0000
0000
0000
0000
0000
0000
0000
0000
0000
0000
0010
0000
0000
0000
0000
0000
0000
0000
0000
0000
0000
0000
1000
0000
0000
0000
0000
0000
0010
0000
0000
0000
0000
0000
1000
0000
0000
0000
0000
0000
0001
0000
0000
0000
0000
0000
0100
0000
0000
0000
0000
0000
0000
0000
0010
0000
0000
0000
0000
0000
0000
0000
1000
0000
0000
0000
0000
0000
0000
0000
0100
0000
0000
0000
0000
0000
0010
0000
0000
0000
0000
0000
0100
0000
0000
0000
0000
0000
0000
0000
0000
0000
0000
0000
,  // measure 38
0011
0000
0000
0000
0000
0000
0000
0000
0000
0000
0000
0000
0001
0000
0000
0000
0000
0000
0100
0000
0000
0000
0000
0000
0001
0000
0000
0000
0000
0000
0000
0000
0000
0000
0000
0000
1000
0000
0000
0000
0000
0000
0010
0000
0000
0000
0000
0000
1000
0000
0000
0000
0000
0000
0100
0000
0000
0000
0000
0000
1000
0000
0000
0000
0000
0000
0000
0000
0000
0000
0000
0000
0001
0000
0000
0000
0000
0000
0000
0000
0000
0000
0000
0000
0100
0000
0000
0000
0000
0000
0001
0000
0000
0000
0000
0000
0100
0000
0000
0000
0000
0000
0010
0000
0000
0000
0000
0000
1000
0000
0000
0000
0000
0000
0100
0000
0000
0000
0000
0000
0010
0000
0000
0000
0000
0000
0001
0000
0000
0000
0000
0000
0100
0000
0000
0000
0000
0000
0010
0000
0000
0000
0000
0000
1000
0000
0000
0000
0000
0000
0000
0000
1010
0000
0000
0000
0000
0000
0000
0000
0110
0000
0000
0000
0000
0000
0000
0000
0102
0000
0000
0000
0000
0000
0000
0000
0000
0000
0000
0000
0000
0000
0000
0000
0000
0000
0000
0000
0000
0000
0000
0000
,  // measure 39
1003
0000
0000
0000
0000
0000
0010
0000
0000
0000
0000
0000
1000
0000
0000
0000
0000
0000
0010
0000
0000
0000
0000
0000
0200
0000
0000
0000
0000
0000
0000
0000
0000
0000
0000
0000
0000
0000
0000
0000
0000
0000
0000
0000
0000
0000
0000
0000
0301
0000
0000
0000
0000
0000
0010
0000
0000
0000
0000
0000
0001
0000
0000
0000
0000
0000
0010
0000
0000
0000
0000
0000
0100
0000
0000
0000
1000
0000
0000
0000
0100
0000
0000
0000
2000
0000
0000
0000
0000
0000
0000
0000
0000
0000
0000
0000
3001
0000
0000
0000
0000
0000
0000
0000
0000
0000
0000
0000
0101
0000
0000
0000
0000
0000
0000
0000
0000
0000
0000
0000
0000
0000
0000
0000
0000
0000
1010
0000
0000
0000
0000
0000
0000
0000
0000
0000
0000
0000
0000
0000
0000
0000
0000
0000
1100
0000
0000
0000
0000
0000
0000
0000
0000
0000
0000
0000
0000
0000
0000
0000
0000
0000
0110
0000
0000
0000
0000
0000
0000
0000
0000
0000
0000
0000
0000
0000
0000
0000
0000
0000
0011
0000
0000
0000
0000
0000
0000
0000
0000
0000
0000
0000
,  // measure 40
0001
0000
0000
0000
1000
0000
0000
0000
0001
0000
0000
0000
1000
0000
0000
0000
0001
0000
0000
0000
1000
0000
0000
0000
0010
0000
0000
0000
0000
0000
0000
0000
0000
0000
0000
0000
0100
0000
0000
0000
0000
0000
0000
0000
0000
0000
0000
0000
1010
0000
0000
0000
0000
0000
0000
0000
0000
0000
0000
0000
0010
0000
0000
0000
0000
0000
0000
0000
0000
0000
0000
0000
1000
0000
0000
0000
0000
0000
0100
0000
0000
0000
0000
0000
0010
0000
0000
0000
0000
0000
0001
0000
0000
0000
0000
0000
0100
0000
0000
0000
0000
0000
0010
0000
0000
0000
0000
0000
1000
0000
0000
0000
0001
0000
0000
0000
1000
0000
0000
0000
0001
0000
0000
0000
1000
0000
0000
0000
0001
0000
0000
0000
1000
0000
0000
0000
0001
0000
0000
0000
1000
0000
0000
0000
0010
0000
0000
0000
0100
0000
0000
0000
0010
0000
0000
0000
0100
0000
0000
0000
0010
0000
0000
0000
0100
0000
0000
0000
0010
0000
0000
0000
0000
0000
0000
0000
0000
0000
0000
0000
0110
0000
0000
0000
0000
0000
0000
0000
0000
0000
0000
0000
,  // measure 41
1001
0001
0101
0100
0110
0010
1010
1000
,  // measure 42
1100
1100
0011
0022
0033
1001
1000
1100
,  // measure 43
0100
0101
0001
1100
1000
1010
0010
0110
,  // measure 44
0100
0101
0001
1001
1000
1010
0010
0110
,  // measure 45
0001
1000
0001
0000
1000
0010
1000
0000
0100
0010
0001
0000
0010
0100
1000
0000
,  // measure 46
1000
0100
0001
0000
0001
0100
1000
0000
0001
0010
1000
0000
1000
0010
0001
0000
,  // measure 47
0100
0010
1000
0100
0010
0001
0100
0010
1000
0100
1000
0001
0010
0001
0100
0010
,  // measure 48
1000
0000
0000
0100
0000
0000
1000
0000
0000
0100
0000
0000
0010
0000
0001
0000
0010
0000
0001
0000
0000
0100
0000
0000
0010
0000
1000
0000
0010
0000
1000
0000
0000
0001
0000
0000
0100
0000
0010
0000
0100
0000
0010
0000
1000
0000
0010
0000
,  // measure 49
1000
0100
0001
0100
1000
0010
0001
0010
,  // measure 50
1000
0100
0010
1000
0010
0001
0010
0100
,  // measure 51
0001
0100
1000
0010
0100
0001
0010
0100
,  // measure 52
1000
0010
0100
0010
1000
0001
1001
0000
,  // measure 53
1010
0010
0100
0001
1000
0010
0001
0010
,  // measure 54
1000
0100
0010
0001
0100
0010
1000
0100
,  // measure 55
0010
0001
0100
0010
1000
0001
0100
0010
,  // measure 56
1000
0000
0100
0000
0001
0000
0100
0000
0010
0100
0010
0000
0110
0000
0000
0000
,  // measure 57
2002
0000
0000
0000
,  // measure 58
0000
0000
0000
0000
,  // measure 59
0000
0000
0000
0000
,  // measure 60
0000
0000
0000
0000
,  // measure 61
3003
0000
0000
0000
;
