
//----- song id: pran2
#TITLE:PRANA+REVOLUTIONARY ADDICT (U1 DJ Mix);
#ARTIST:underground & overground;
#BANNER:PRANA+REVOLUTIONARY ADDICT (U1 DJ Mix).png;
#BACKGROUND:PRANA+REVOLUTIONARY ADDICT (U1 DJ Mix)-bg.png;
#CDTITLE:./CDTitles/DDR (2014).png;
#MUSIC:PRANA+REVOLUTIONARY ADDICT (U1 DJ Mix).ogg;
#SAMPLESTART:61.895;
#SAMPLELENGTH:15;
#DISPLAYBPM:190;
#BPMS:0=190;
#STOPS:164=0.316,305.938=0.316;
#NOTES:
     dance-single:
     :
     Challenge:
     18:
     1.000000,0.997507,0.901289,0.040599,0.998725,823.000000,111.000000,5.000000,0.000000,0.000000,0.000000,1.000000,0.997507,0.901289,0.040599,0.998725,823.000000,111.000000,5.000000,0.000000,0.000000,0.000000:
0000
0000
0000
0000
,
0000
0000
0000
0000
,
0000
0000
0000
0000
,
0000
0000
0000
0000
,
0000
0000
0000
0000
,
1000
0000
0100
0000
0010
0000
0001
0000
0100
0010
0100
0000
1000
0000
0100
0000
,
0010
0000
0001
0100
0010
0000
1000
0000
0001
0100
0001
0000
0100
0000
0010
0000
,
1000
0001
0100
0001
1000
0010
0100
0010
1000
0001
0100
0001
1000
0001
0100
0010
,
0200
0000
0000
0000
0310
0000
0100
0010
0100
0000
0000
1100
0000
0000
0110
0000
,
1000
0000
0100
0000
0001
0000
0100
0000
0010
1000
0100
0000
1000
0000
0101
0000
,
0000
1000
0100
0010
0011
0000
1100
0000
,
0001
0000
0100
0000
1000
0000
0100
0001
0010
0000
0100
0000
0001
0000
0100
0000
,
0001
0100
1000
0001
1000
0010
0100
0000
0001
0000
1000
0000
0001
0000
0000
0000
,
0110
0100
0001
1000
0010
1000
0001
1000
,
0100
0010
0001
1000
1100
0000
0101
0000
,
1010
0000
1000
0010
0100
0010
0220
0330
,
0001
0100
0010
0100
0001
1000
0001
1000
0001
0100
0001
0100
0010
1000
0010
1000
,
0010
1000
0100
0010
0101
0100
0010
1000
,
0101
0000
0010
0000
0001
0000
0100
0000
0101
0000
0010
0000
0100
0000
1000
0100
,
1000
0010
1000
0001
0100
1000
0001
1000
,
0001
0010
0100
1000
0001
0000
1000
0000
1100
0000
1100
0000
1100
0000
1100
0000
,
1000
0100
0010
0001
0100
0010
1001
0100
,
0010
0000
0001
0000
0100
0000
0010
0000
1000
0000
0100
0000
0010
0000
0001
0010
,
0001
0010
0100
0100
0010
1000
1000
0010
,
0100
0000
0100
0000
0010
0000
0001
0000
1000
0010
0100
0001
0100
0010
0100
0001
,
0100
0000
0000
0101
0000
0000
1001
0000
0000
1010
0000
0000
0100
0000
1010
0000
,
0100
0000
0000
0101
0000
0000
1001
0000
0000
1010
0000
0000
0001
0000
1000
0001
,
0100
0000
0000
1001
0000
0000
1010
0000
0000
0110
0000
0000
1000
0000
0010
0000
,
1010
1010
1010
1010
0101
0101
0101
0101
,
0010
0000
0000
1001
0000
0000
1010
0000
0000
0101
0000
0000
1000
0000
0100
1000
,
0100
0000
0000
0101
0000
0000
1001
0000
0000
1010
0000
0000
0001
0000
1000
0001
,
0100
0000
0000
1001
0000
0000
1010
0000
0000
0110
0000
0000
0001
0000
1100
0000
,
0001
1000
0100
0010
0001
0010
0100
1000
0100
1000
0100
0010
0100
1000
0001
0100
,
0001
0000
0001
0100
0000
0100
0001
0100
,
0001
0000
1000
0000
0100
0010
0001
0100
0001
0000
0100
0000
0010
0100
0010
1000
,
0010
0000
0000
0000
0001
0000
0100
0000
0000
0010
0100
0001
0100
0010
0100
0000
,
0001
0000
1000
0000
0100
0000
0010
0000
0001
1000
0100
0000
1000
0010
0100
0001
,
1000
0000
0010
0100
0000
0100
0010
0100
,
1001
0000
0010
0101
0000
0100
0010
0100
,
1001
0000
0110
0000
1001
0000
0110
1100
,
0000
0000
0110
0000
0000
0000
0011
0000
0000
0000
0010
0000
1000
0100
1000
0000
,
0010
0100
0000
0100
1000
0010
0100
0001
,
0010
0100
0001
0000
0001
0010
0100
0010
0001
1000
0100
0000
0101
0000
0000
0000
,
1000
0000
1100
0000
0000
0000
0100
0000
0001
0000
0100
0000
1000
0000
0010
0001
,
0000
0001
0100
0000
0010
0000
1000
0000
0010
0100
0000
0100
0010
0000
1000
0000
,
0001
1000
0010
1000
0001
1000
1001
1000
,
0001
0000
1000
0000
0001
0010
0001
0010
0100
1000
0100
1000
0001
0000
0000
0000
,
1000
0000
0010
0000
0100
0000
0010
0000
0100
0000
0010
0001
0010
0000
0100
0010
,
0100
0000
1000
0100
1000
0000
0010
0001
0010
0000
0000
0000
0110
0000
0000
1010
,
0000
0000
0101
0000
0000
0110
0000
0000
1000
0000
0001
0100
0010
0000
0000
1010
,
0000
0000
1001
0000
0000
1001
0000
0000
0001
0010
0100
1000
0001
0000
0000
0101
,
0000
0000
0110
0000
0000
1100
0000
0000
1000
0000
0001
0000
0010
0100
1000
0100
,
0010
0100
1000
0100
0010
0100
0010
0001
1000
0010
0001
0010
1000
0000
0000
0110
,
0000
0000
1001
0000
0000
0101
0000
0000
1001
0000
1000
0010
0100
0000
0000
0110
,
0000
0000
0101
0000
0000
1001
0000
0000
1000
0100
0010
0001
1000
0000
0000
1010
,
0000
0000
0110
0000
0000
0101
0000
0000
1000
0000
0100
0010
0001
0010
0100
1000
,
0001
0000
0000
0000
0100
0010
0100
0001
1000
0001
0100
0001
1000
0000
0100
0010
,
0001
0000
0010
0100
0000
0000
1000
0001
1000
0010
1000
0000
0010
0000
0100
0010
,
0100
0000
0001
1000
0000
0000
0010
0000
0100
0010
0100
0000
0001
0000
0100
0010
,
1000
0000
0010
0100
0000
0000
0001
1000
0010
1000
0001
0000
0110
0000
1100
0000
,
0110
0000
0011
0000
0101
0000
1010
0000
0100
0010
0100
0000
1000
0000
0100
0010
,
0001
0000
0010
0100
0000
0000
1000
0001
0010
0001
1000
0000
0010
0000
0100
0010
,
0100
0000
0001
1000
0000
0000
0010
0000
0100
0010
0100
0000
0001
0000
0100
0010
,
1000
0000
0010
0100
0000
0000
0001
0000
0010
0000
0001
0000
1000
0010
0100
0001
,
0010
0001
0100
0001
1000
0100
0010
0001
1000
0100
0010
0001
1000
0000
0010
0000
,
0100
0010
0000
0001
0010
0000
0001
0100
0000
0001
0010
0000
0100
0000
1000
0000
,
0001
0010
0000
0100
0001
0000
0100
1000
0100
0010
0001
0100
0010
0000
1000
0000
,
0010
0001
0000
0010
0001
0000
0010
0001
0000
0010
0001
0000
1000
0010
0100
0001
,
1000
0100
1000
0100
1000
0010
0100
0010
1000
0001
0100
0000
0001
0000
0100
0000
,
0001
0100
0000
0001
1000
0000
0001
1000
0000
0010
1000
0000
0010
0100
0010
1000
,
0001
0010
0100
1000
0001
0010
0001
1000
0100
1000
0010
0000
0100
0000
0001
0000
,
0100
0001
0000
0100
0001
0000
0010
0001
0000
1000
0001
0000
1000
0100
0010
0001
,
0100
0010
1000
0001
1000
0100
0010
0000
0100
1000
0001
0000
1001
0000
0100
0000
,
0001
0000
0100
0000
0000
1000
0100
0000
0001
0010
0100
0000
0110
0000
0000
0000
,
0001
0000
0010
0001
0000
0100
0010
1000
0001
0100
0010
0000
1001
0000
0000
0000
,
0100
0000
0010
0000
0000
0001
1000
0000
0001
0000
0100
0010
1000
0000
0100
0000
,
0010
0000
0000
0000
0001
0000
0000
0000
0000
0000
0001
0000
0000
0000
0000
1001
1001
0000
0000
0000
0001
0000
0000
0000
1000
0000
0001
0000
0000
0000
0001
0000
,
0100
0000
0010
1000
0000
1000
0100
0000
0001
0000
0100
0000
0100
0010
0000
0010
,
1000
0000
0100
0001
1000
0001
0100
0000
1000
0000
0000
0000
0011
0000
0110
0000
,
0000
0000
0100
0000
0001
1000
0100
1000
0001
0000
0001
0000
0010
0000
0000
0000
,
0001
0010
0100
1000
0100
1000
0100
0010
0001
0000
1000
0000
0010
0000
0100
0000
,
0101
1100
0110
0000
1001
0110
1100
0000
,
0011
0000
1001
0000
0011
0000
0000
0000
1000
0100
0001
0100
1000
0010
0100
0010
,
1000
0001
1000
0001
0100
0000
0001
0000
1000
0100
1000
0000
0010
0100
0010
0000
,
0100
0010
0100
0000
0001
1000
0010
0000
1001
0000
1001
0000
0000
0000
0000
0000
,
0001
0010
0100
1000
0100
1000
0100
0010
0100
0000
1000
0000
0000
0000
0100
0000
,
0001
0000
0010
0001
1000
0001
0100
0010
0100
0000
1000
0000
0110
0000
0001
0000
,
0010
1000
0001
0110
0000
1010
0000
0101
,
0010
0000
1000
0000
0010
0000
0100
0000
1001
0000
1000
0001
0000
1000
0000
0000
,
0010
0001
0100
0001
0100
0000
0100
0010
0100
0000
0001
1000
0000
0001
1000
0000
,
0100
0000
0010
0000
0001
1000
0010
0100
0010
0000
0000
1010
0000
0000
1000
0000
,
1100
0000
0000
0101
0000
0000
0001
0010
0100
1000
0100
1000
0100
1000
0010
0100
,
0001
0010
0001
0010
0001
0000
1000
0000
2002
0000
0000
0000
0000
0000
0000
0000
,
0000
0000
0000
0000
,
0000
0000
3003
0000
;
#NOTES:
     dance-single:
     :
     Beginner:
     4:
     :
0000
0000
0000
0000
,
0000
0000
0000
0000
,
0000
0000
0000
0000
,
0000
0000
0000
0000
,
0000
0000
0000
0000
,
1000
0000
0010
0000
,
0001
0000
0100
0000
,
1000
0000
0001
0000
,
1001
0000
0000
0000
,
0010
0000
1000
0000
,
0100
0000
0010
0010
,
0010
0000
0001
0000
,
0100
0100
0100
0100
,
0100
0000
1000
0000
,
0001
0000
0010
0010
,
0010
0000
0001
0000
,
1000
0000
0001
0000
,
1001
0000
0100
0000
,
0010
0010
0010
0000
,
1000
0000
0100
0000
,
0010
0010
0010
0000
,
0001
0000
0100
0000
,
1000
1000
1000
0000
,
0001
0000
0010
0000
,
0100
0000
1000
1000
,
1000
1000
0001
0001
,
0010
0000
0010
0010
,
1000
0000
1000
1000
,
0100
0000
0100
0100
,
0001
0000
0001
0001
,
0010
0000
0010
0010
,
0100
0000
0100
0100
,
1000
0000
1000
1000
,
0001
0000
0001
0000
,
1000
1000
1000
0000
,
0010
0000
0010
0000
,
0100
0100
0100
0000
,
1000
0000
0010
0000
,
0001
0000
0010
0000
,
0001
0000
0100
0000
,
1000
0000
0000
0000
0000
0000
0000
0000
0000
0000
0000
0000
0000
0000
0000
0000
0000
0000
0000
0000
0000
0000
0000
0000
0000
0000
0000
0000
0000
0000
0000
0000
0000
0000
0000
0000
0000
0000
0000
0000
0000
0000
0000
0000
0000
0000
0000
0000
0000
0000
0000
0000
0000
0000
0000
0000
0000
0000
0000
0000
0000
0000
0000
0000
0000
0000
0000
0000
0000
0000
0000
0000
0000
0000
0000
0000
0000
0000
0000
0000
0000
0000
0000
0000
0000
0000
0000
0000
0000
0000
0000
0000
0000
0000
0000
0000
0200
0000
0000
0000
0000
0000
0000
0000
0000
0000
0000
0000
0000
0000
0000
0000
0000
0000
0000
0000
0000
0000
0000
0000
0000
0000
0000
0000
0000
0000
0000
0000
0000
0000
0000
0000
0000
0000
0000
0000
0000
0000
0000
0000
0000
0000
0000
0000
0000
0000
0000
0000
0000
0000
0000
0000
0000
0000
0000
0000
0000
0000
0000
0000
0000
0000
0000
0000
0000
0000
0000
0000
0000
0000
0000
0000
0000
0000
0000
0000
0000
0000
0000
0000
0000
0000
0000
0000
0000
0000
0000
0000
0000
0000
0000
0300
,
0000
1000
0000
0001
,
0000
0010
0010
0010
,
0000
0001
0000
1000
,
0000
0100
0100
0100
,
0000
0001
0000
0010
,
0000
1000
1000
1000
,
0000
0001
0000
0010
,
0000
0100
0000
0010
,
0000
0010
0000
0001
,
0000
0001
0000
0100
,
0000
0100
0000
1000
,
1000
1000
1000
0010
,
0000
0010
0000
1000
,
0000
1000
0000
0001
,
0000
0001
0000
0100
,
0100
0100
0000
1000
,
0000
0001
0000
1000
,
0000
0001
0000
0100
,
0000
0100
0000
0100
,
0100
0100
0000
0001
,
0000
1000
0000
0001
,
0000
1000
0000
0010
,
0000
0010
0000
0010
,
0010
0010
0000
1000
,
0000
1000
0000
1000
,
1000
0000
0000
0010
,
0000
0010
0000
0010
,
0010
0000
0000
0001
,
0000
0001
0000
0001
,
0001
0000
0000
0100
,
0000
0100
0000
0100
,
0100
0100
0000
0010
,
0000
0000
0000
1000
,
0000
0000
0000
0100
,
0000
0000
0000
0010
,
0000
0000
0001
0001
,
0001
0000
1000
1000
,
1000
0000
0001
0001
,
0001
0000
0100
0100
,
0100
0100
0100
0000
,
0100
0000
1000
0000
,
0100
0000
0001
0000
,
0010
0000
1000
0000
,
0100
0000
0100
0000
,
0000
0000
0001
0001
,
0001
0000
0100
0100
,
0000
0000
1000
0000
,
0000
0000
0001
0000
,
0001
0000
1000
0000
,
1000
0000
0010
0010
,
0010
0000
0100
0100
,
0100
0000
1001
0000
,
0000
0000
0000
0000
;
#NOTES:
     dance-single:
     :
     Easy:
     9:
     :
0000
0000
0000
0000
,
0000
0000
0000
0000
,
0000
0000
0000
0000
,
0000
0000
0000
0000
,
0000
0000
0000
0000
,
1000
0010
0001
0100
,
1000
0100
0001
0010
,
0001
1000
2000
3001
,
0110
0000
1001
1001
,
0100
1000
0010
1000
,
0001
0100
0010
0010
,
0001
1000
0100
0010
,
0200
0320
0230
1300
,
0010
1000
0100
0001
,
0010
1000
1001
1001
,
1000
0100
0010
0001
,
2000
0000
3002
0000
0100
0100
0103
0000
,
1000
0001
0010
0001
,
1000
0100
0010
0110
,
1000
0001
0100
0010
,
1000
1000
1000
0000
0001
0001
0001
0000
,
0010
0001
0100
1000
,
0010
0001
1000
1000
,
0001
0100
0010
1000
,
0100
0010
1001
0110
,
2000
0100
0001
3100
,
0010
0001
0100
0010
,
0002
0100
1000
0103
,
0110
1001
0110
1001
,
0002
0010
2003
0010
,
3002
0010
2003
0010
,
3001
0100
1000
1001
,
1001
0110
1001
0110
,
0010
0000
0000
1000
0000
1000
0000
0000
,
0010
0010
0010
0000
0100
0100
0100
0000
,
0010
0000
0000
0010
0000
0010
0000
0000
,
0010
0010
0010
0000
1000
1000
1000
0000
,
0001
0000
0000
0010
0000
0010
0000
0000
,
1001
0000
0000
0100
0000
0100
0000
0000
,
1000
0010
0001
0100
,
0000
0010
0000
1000
0000
0100
0000
0001
,
0000
0100
0000
0100
0000
0100
0010
0000
,
0000
0000
0000
1010
,
0000
0100
0000
0100
0000
0100
0010
0000
,
0000
0000
0000
1001
,
0000
0100
0000
0100
0000
0100
0010
0000
,
0000
0000
0000
0010
,
0100
0010
0100
1000
,
0010
0000
0000
0000
0100
0000
0000
0000
0001
0000
0000
0000
0001
0000
0000
0001
,
0000
0000
0001
0000
0000
0001
0000
0000
0001
0000
0000
0000
0010
0000
0000
0010
,
0000
0000
0010
0000
0000
0010
0000
0000
0010
0000
0000
0000
1000
0000
0000
1000
,
0000
0000
1000
0000
0000
1000
0000
0000
1000
0000
0000
0000
0100
0000
0000
0000
,
0001
0000
0000
0000
0100
0000
0000
0000
1000
0000
0000
0000
0001
0000
0000
0100
,
0000
0000
0001
0000
0000
0100
0000
0000
0001
0000
0000
0000
1000
0000
0000
0100
,
0000
0000
1000
0000
0000
0100
0000
0000
1000
0000
0000
0000
0001
0000
0000
0010
,
0000
0000
0001
0000
0000
0010
0000
0000
0001
0000
0000
0000
1000
0000
1000
0000
,
1000
0100
0100
0001
,
0001
1000
0001
0010
,
0010
1000
0010
0100
,
0100
0000
0001
0000
0100
0000
1000
0001
,
1000
0001
1000
0000
0000
0000
0001
0000
,
0001
0001
0100
0010
,
0010
0010
1000
0100
,
0100
0000
0100
0000
0010
0000
0001
1000
,
0001
1000
0001
0000
0000
0000
1000
0000
,
0010
0001
0100
0001
,
0010
0000
0001
1000
0100
0000
0000
0000
,
0010
0100
1000
0001
,
0100
0100
0100
0000
0020
0000
0130
0000
,
0001
1000
0001
1000
,
1000
0001
1000
0001
1000
0000
0000
0000
,
0010
0001
0010
0100
,
0100
0100
0100
0001
,
0010
0010
0000
0000
0100
0000
0010
0000
,
0100
0100
0000
0000
1000
0000
0100
0000
,
1000
1000
0000
0000
0010
0000
0001
0000
,
1000
1000
0000
0000
0001
0000
1000
0001
,
0000
0000
1000
0000
0001
0000
1000
0001
,
0000
0000
1000
0000
0001
0000
1000
0001
,
0000
0000
1000
0000
0100
0100
0100
0000
,
0100
0100
1000
0000
,
0001
0000
0001
1000
,
0001
0010
0100
1000
,
0100
0010
0001
0100
,
0001
0000
0010
0000
0100
0100
0000
0000
,
0000
0000
0000
0000
0100
1000
0000
0100
,
0000
0001
0000
0000
0010
0010
0010
0000
,
0000
0000
0100
0010
,
0100
0010
1100
0000
,
0000
0000
0011
0000
,
0000
0000
1001
0000
,
0110
0000
1001
0110
,
1001
0110
2002
0000
,
0000
0000
3003
0000
,
0000
0000
0000
0000
;
#NOTES:
     dance-single:
     :
     Medium:
     13:
     :
0000
0000
0000
0000
,
0000
0000
0000
0000
,
0000
0000
0000
0000
,
0000
0000
0000
0000
,
0000
0000
0000
0000
,
0001
0100
0010
0000
1000
0100
0010
0000
,
0001
1000
0010
0000
0100
0001
1000
0000
,
0200
0320
0032
1003
,
0110
0000
0000
0000
0010
0000
1000
0000
0100
0000
0000
0100
0000
0000
0100
0000
,
0010
0001
0000
0100
0000
0100
0010
0100
,
0000
0010
1000
0000
1010
0000
0101
0000
,
1100
0000
0001
0100
0000
0100
1000
0100
,
0000
0001
1000
0001
0100
0000
1001
0000
,
0100
1000
0000
0001
0000
0010
1000
0010
,
0000
0010
0100
0000
0101
0000
1100
0000
,
0010
0000
0001
0010
0000
0001
0100
0010
,
0000
1000
0001
1000
0001
1000
0010
0100
,
0010
0000
1000
0100
0000
0100
0010
0100
,
0000
0010
0001
0000
0011
0000
1100
0000
,
0101
0000
1000
0100
0000
0100
0001
0100
,
0000
1000
0000
0001
0000
0110
0000
1001
,
0100
0010
0001
1000
0000
0010
1000
0001
,
0000
0010
0100
0000
1100
0000
0101
0000
,
1010
0000
1000
0010
0000
1000
0100
0010
,
0000
0001
0010
0001
1000
0100
0010
0000
,
0000
0001
0000
0010
0000
1000
0010
0100
,
0000
0010
0000
1000
0001
0000
1000
0100
,
0000
0001
0000
0010
0000
0100
1000
0010
,
0000
0100
0010
1000
0000
0010
0100
0001
,
0100
0000
0000
0001
0000
1000
0100
0001
,
0000
0100
0000
1000
0100
0000
0010
0001
,
0000
1000
0010
0000
0100
0010
0000
0001
,
0010
0000
0100
0010
0000
1000
0010
1000
,
0010
0000
1000
0100
0000
0100
1000
0100
,
1000
0001
0010
0001
0100
0000
1100
0000
,
1010
0000
0001
0100
0000
0100
0001
0100
,
1000
1000
0001
0010
0100
0001
0001
1000
,
1001
0000
0000
0010
0000
0100
0000
0010
,
1001
0000
0000
0100
0000
0010
0000
0100
,
1001
0000
0010
0000
1001
0000
0100
0001
,
0000
0010
0000
1000
0000
1100
0000
0001
,
0010
0100
0000
0100
0010
0100
1000
0000
,
0010
0000
0001
0010
0100
1000
0010
1000
,
0100
1000
0000
0100
1000
0100
0010
0001
,
1000
0100
0010
0000
0100
0000
0110
0000
,
1000
0001
0000
0010
0001
1000
0100
0001
,
0010
0001
1000
0100
0010
0000
0011
0000
,
0001
0010
0000
0001
0100
0010
0000
1000
,
0010
0000
1000
0000
0001
0000
0100
0000
0010
0000
0000
0000
0010
0000
0000
0010
,
0000
0000
0100
0000
0000
0100
0000
0000
0001
0000
1000
0000
0010
0000
0000
0010
,
0000
0000
0100
0000
0000
0100
0000
0000
0010
0000
1000
0000
0100
0000
0000
0100
,
0000
0000
0010
0000
0000
0010
0000
0000
0001
0000
1000
0000
0001
0000
0010
0000
,
0100
0000
1000
0000
0100
0000
1000
0000
0010
0000
0100
0000
0001
0000
0000
0001
,
0000
0000
0100
0000
0000
0100
0000
0000
0010
0000
0100
0000
0001
0000
0000
0001
,
0000
0000
0010
0000
0000
0010
0000
0000
0100
0000
1000
0000
0010
0000
0000
0010
,
0000
0000
0100
0000
0000
0100
0000
0000
0010
0000
0100
0000
1000
0000
1000
0000
,
1000
0000
0100
0010
0100
0010
0001
0100
,
0001
0000
0001
0000
1000
0000
0100
1000
,
0100
0000
0100
0000
0010
0000
0010
0100
,
0010
0000
0010
0000
0001
0000
0001
0100
,
0001
0010
0100
1000
0100
0010
0001
0100
,
0010
0000
0100
0000
0010
0000
1000
0010
,
0100
0000
0010
0000
1000
0000
0100
1000
,
0001
0000
1000
0000
0100
0000
0010
0001
,
0010
0100
0010
0100
1000
0100
0001
0000
,
0100
0000
1000
0000
0100
1000
0100
0000
,
0010
0000
1000
0100
0001
0000
0100
0000
,
1000
0010
0001
0010
,
1000
0100
0001
0010
0001
0010
1000
0000
,
0100
0001
0010
1000
,
0010
0000
0001
0100
1000
0000
0100
0000
,
0001
0000
1000
0100
0001
0000
0001
0010
,
0100
0000
0000
0000
0000
0000
0000
0000
0000
0000
0000
0000
0000
0000
0000
0000
0000
0000
0000
0000
0000
0000
0000
0000
1000
0000
0000
0000
0000
0000
0000
0000
0000
0000
0000
0000
0000
0000
0000
0000
0000
0000
0000
0000
0000
0000
0000
0000
0002
0000
0000
0000
0000
0000
0000
0000
0000
0000
0000
0000
0000
0000
0000
0000
0000
0000
0000
0000
0000
0000
0000
0000
0010
0000
0000
0000
0000
0000
0000
0000
0000
0000
0000
0000
0000
0000
0000
0000
0000
0000
0000
0000
0000
0000
0000
0000
0000
0000
0000
0000
0000
0000
0000
0000
0000
0000
0000
0000
0000
0000
0000
0000
0000
0000
0000
0000
0000
0000
0000
0000
0000
0000
0000
0000
0000
0000
0000
0000
0000
0000
0000
0000
0000
0000
0000
0000
0000
0000
0000
0000
0000
0000
0000
0003
1000
0000
0000
0000
0000
0000
0000
0000
0000
0000
0000
0000
0000
0000
0000
0000
0000
0000
0000
0000
0000
0000
0000
0000
0000
0000
0000
0000
0000
0000
0000
0000
0000
0000
0000
0000
0000
0000
0000
0000
0000
0000
0000
0000
0000
0000
0000
0000
,
1000
0100
0000
1000
0000
0100
0010
0000
,
0001
0010
0000
0001
0000
0010
0001
0000
,
0001
0100
0000
0001
0000
0100
0010
0000
,
1000
0010
0000
1000
1000
0000
1100
0000
,
0010
0001
0100
0001
0110
0000
0110
0000
,
1000
0100
0110
0011
,
0100
0010
1000
0010
0100
0100
0100
0000
,
1000
0100
0011
0101
,
1000
1000
0000
0000
1010
0000
0110
0000
,
0001
0001
0000
0000
1100
0000
1100
0000
,
0011
0000
0011
0000
1000
0010
0000
1010
,
0000
0100
0001
0010
0001
0000
0000
0000
,
1000
0100
0010
0100
0001
0100
0000
0010
,
1000
0010
0110
0000
0010
0000
1001
0000
,
0100
0010
1000
0100
0010
0001
0010
0100
,
1000
0100
0010
0001
1001
0000
0000
0000
,
0010
0001
0100
0001
1000
0001
0000
0100
,
0010
0000
1000
0000
0100
0000
0000
0000
0100
0000
0000
0001
0000
0000
0100
0000
,
1000
0000
0000
0001
0000
0000
0100
0000
0001
0000
0000
1000
0000
0000
0100
0000
,
1000
0100
0001
0010
0020
0000
0000
0000
,
0000
0000
0000
0000
,
0000
0000
0030
0000
,
0000
0000
0000
0000
;
#NOTES:
     dance-single:
     :
     Hard:
     17:
     :
0000
0000
0000
0000
,
0000
0000
0000
0000
,
0000
0000
0000
0000
,
0000
0000
0000
0000
,
0000
0000
0000
0000
,
1000
0000
0100
0000
0010
0000
0001
0000
0100
0010
0100
0000
1000
0000
0100
0000
,
0010
0000
0001
0000
0010
0000
0100
0000
1000
0100
1000
0000
0100
0000
0010
0000
,
2000
0100
3200
0010
0310
0010
0001
0000
,
1001
0000
0000
0000
0010
0000
0100
0010
0100
0000
0000
1100
0000
0000
0110
0000
,
1000
0100
0001
0100
0010
0100
1000
0101
,
0000
1000
0100
0010
0011
0000
1100
0000
,
0001
0100
1000
0100
0010
0100
0001
0100
,
0001
1000
0001
1000
0001
0100
0010
0000
0100
0000
0001
0000
0100
0000
0000
0000
,
0110
0000
0001
1000
0010
1000
0001
1000
,
0100
0010
0001
1000
1100
0000
0101
0000
,
1010
0000
1000
0010
0100
0010
0220
0330
,
0001
0100
0010
0100
0001
1000
0001
1000
0001
0000
0100
0000
0210
0000
0010
0000
,
0310
1000
0100
0010
0001
0100
0010
1000
,
0100
0000
0010
0000
0001
0000
0100
0000
0001
0000
0010
0000
0100
0000
1000
0100
,
1000
0010
1000
0001
0100
1000
0001
1000
,
0001
0010
0100
1000
0001
0000
1000
0000
1100
0000
1100
0000
1100
0000
1100
0000
,
1000
0100
0010
0001
0100
0010
1000
0100
,
0010
0000
0001
0000
0100
0000
0010
0000
1000
0000
0100
0000
0010
0000
0001
0010
,
0001
0010
0100
0100
0010
1000
1000
0010
,
0100
0000
0100
0000
0010
0000
0001
0000
1000
0010
0100
0001
0100
0010
0100
0001
,
0100
0000
0000
0001
0000
0000
1000
0000
0000
0001
0000
0000
0100
0000
1010
0000
,
0100
0000
0000
0001
0000
0000
1000
0000
0000
0010
0000
0000
0001
0000
1000
0001
,
0100
0000
0000
0001
0000
0000
0010
0000
0000
0100
0000
0000
1000
0000
0110
0000
,
0010
0000
0100
0000
0010
0000
0100
0000
0001
1000
0001
0000
0010
0000
0100
0000
,
0010
0000
0000
0001
0000
0000
1000
0000
0000
0001
0000
0000
1000
0000
0100
1000
,
0100
0000
0000
0001
0000
0000
1000
0000
0000
0010
0000
0000
0001
0000
1000
0001
,
0100
0000
0000
0001
0000
0000
0010
0000
0000
0100
0000
0000
1000
0000
1100
0000
,
0001
1000
0100
0010
0001
0010
0100
1000
0100
1000
0100
0010
0100
1000
0001
0100
,
0001
0000
0001
0100
0000
0100
0001
0100
,
0001
0000
1000
0000
0100
0010
0001
0000
0100
0000
0001
0000
1000
0100
0010
0001
,
0010
0000
0000
0000
0001
0000
0100
0000
0000
0010
0100
0001
0100
0010
0100
0000
,
0001
0000
1000
0000
0100
0000
0010
0000
0001
1000
0100
0000
1000
0010
0100
0001
,
1000
0000
0010
0100
0000
0100
0010
0100
,
1001
0000
0010
0100
0000
0100
0010
0100
,
1001
0000
0110
0000
1001
0000
0110
1100
,
0000
0000
0110
0000
0000
0000
0011
0000
0000
0000
0010
0000
1000
0100
1000
0000
,
0010
0100
0000
0100
1000
0010
0100
0001
,
0010
0000
0100
0000
0001
0010
0100
0010
0001
0000
0100
0000
0101
0000
0000
0000
,
1000
1100
0000
0100
0001
0100
1000
0010
,
0001
0100
0010
1000
0010
0100
0110
0000
,
0001
1000
0010
1000
0001
1000
1001
1000
,
0001
0000
1000
0000
0001
0010
0001
0010
0100
1000
0100
1000
0001
0000
0000
0000
,
1000
0000
0010
0000
0100
0000
0010
0000
0100
0000
0010
0001
0000
0000
0100
0010
,
0000
0000
1000
0100
0000
0000
0010
0001
0000
0000
0000
0000
0010
0000
0000
1010
,
0000
0000
0100
0000
0000
0110
0000
0000
1000
0000
0001
0100
0010
0000
0000
1010
,
0000
0000
1000
0000
0000
1001
0000
0000
0001
0010
0100
1000
0001
0000
0000
0101
,
0000
0000
0100
0000
0000
1100
0000
0000
1000
0000
0001
0000
0100
0000
1000
0000
,
0100
0000
1000
0000
0100
0000
0010
0001
0010
0001
0010
0001
0010
0000
0000
0110
,
0000
0000
0001
0000
0000
0101
0000
0000
0001
0000
1000
0010
0100
0000
0000
0110
,
0000
0000
0001
0000
0000
1001
0000
0000
1000
0100
0010
0001
1000
0000
0000
1010
,
0000
0000
0100
0000
0000
0101
0000
0000
1000
0000
0100
0010
0001
0010
0100
1000
,
0001
0000
0000
0000
0100
0010
0100
0000
0010
0100
0001
0000
1000
0000
0100
0010
,
0001
0000
0010
0100
0000
0000
1000
0000
0010
0000
1000
0000
0010
0000
0100
0010
,
0100
0000
0001
1000
0000
0000
0010
0000
0100
0010
0100
0000
0001
0000
0100
0010
,
1000
0000
0010
0100
0000
0000
0001
0000
0010
0000
0001
0000
0110
0000
1100
0000
,
0110
0000
0011
0000
0100
0000
0010
0000
0100
0010
0100
0000
1000
0000
0100
0010
,
0001
0000
0010
0100
0000
0000
1000
0000
0010
0000
1000
0000
0010
0000
0100
0010
,
0100
0000
0001
1000
0000
0000
0010
0000
0100
0010
0100
0000
0001
0000
0100
0010
,
1000
0000
0010
0100
0000
0000
0001
0000
0010
0000
0001
0000
1000
0010
0100
0001
,
0100
0001
0100
0001
1000
0100
0010
0001
1000
0100
0010
0001
1000
0000
0001
0000
,
1000
0001
0000
1000
0001
0000
1000
0001
0000
1000
0001
0000
0100
0000
0001
0000
,
0100
0001
0000
0100
0001
0000
0100
0001
0100
0001
0010
0100
1000
0000
0001
0000
,
0010
0001
0000
0010
0001
0000
0010
0001
0000
0010
0001
0000
1000
0010
0100
0001
,
1000
0100
1000
0100
1000
0010
0100
0010
1000
0001
0100
0000
0001
0000
0100
0000
,
0001
0100
0000
0001
1000
0000
0001
1000
0000
0010
1000
0000
0010
0000
0100
0000
,
0001
0010
0100
1000
0001
0010
0001
1000
0100
1000
0010
0000
0100
0000
0001
0000
,
0100
0001
0000
0100
0001
0000
0010
0001
0000
1000
0001
0000
1000
0100
0010
0000
,
0100
0010
0001
0000
1000
0100
0010
0000
0100
1000
0001
0000
1001
0000
0000
0000
,
0010
0000
0100
0000
0000
1000
0100
0000
0001
0000
0100
0000
0110
0000
0000
0000
,
0100
0000
0010
0000
0000
1000
0100
0000
1000
0000
0001
0000
1000
0000
0000
0000
,
0100
0000
0010
0000
0000
0001
0100
0000
0001
0000
0010
0000
0100
0000
0000
0000
,
0010
0000
0100
0000
0000
1000
0000
0000
1001
0000
0000
0000
1000
0000
0101
0000
,
0000
0100
0010
0100
0001
0000
1100
0110
,
0000
0100
1000
0100
1000
0000
0011
0110
,
0000
0100
0001
0100
0001
0001
0010
0000
,
0001
0010
0100
1000
0100
1000
0100
0010
0001
0000
1000
0000
0010
0000
0100
0000
,
0101
0000
0110
0000
1000
0100
1100
0000
,
0011
0000
0011
0000
1000
0100
0001
0100
,
0010
0000
1000
0000
0010
0000
0001
0000
1000
0100
1000
0000
0010
0100
0010
0000
,
0100
0010
0100
0000
0001
1000
0010
0000
1001
0000
1001
0000
0000
0000
0000
0000
,
0001
0010
0100
1000
0100
1000
0100
0010
0100
0000
1000
0000
0000
0000
0100
0000
,
0001
0000
0010
0000
0001
0000
0100
0010
0100
0000
1000
0000
0110
0000
0001
0000
,
0010
1000
0001
0200
0000
0320
0000
0230
,
0010
1300
0010
0100
1001
0000
0000
0000
,
0010
0001
0100
0001
0100
0000
0100
0010
0100
0000
0001
0000
0000
0000
1000
0000
,
0100
0000
0010
0000
1001
0000
0000
0000
0010
0000
0000
0010
0000
0000
1000
0000
,
1100
0000
0000
0100
0000
0000
0001
0010
0100
1000
0100
1000
0100
1000
0010
0100
,
0001
0010
0001
0010
0001
0000
1000
0000
2002
0000
0000
0000
0000
0000
0000
0000
,
0000
0000
0000
0000
,
0000
0000
3003
0000
,
0000
0000
0000
0000
;
#NOTES:
     dance-double:
     :
     Easy:
     9:
     :
00000000
00000000
00000000
00000000
,
00000000
00000000
00000000
00000000
,
00000000
00000000
00000000
00000000
,
00000000
00000000
00000000
00000000
,
00000000
00000000
00000000
00000000
,
00000001
00000010
00001000
00000100
,
00000001
00000000
00000100
00000000
00001000
00001000
00010000
00000000
,
00200000
00000000
02000000
03300000
,
00010000
10000000
01100000
00000000
,
10000000
00000000
00000000
00010000
00000000
00100000
00000000
01000000
,
00000000
10000000
00000000
00100000
10000000
00000000
01000000
00000000
,
01000000
00000000
00000000
00010000
00000000
00001000
00000000
00000010
,
00000000
00000001
00000000
00001000
00000010
00000000
00000100
00000000
,
00000010
00001000
00000100
00000001
,
00000010
00000001
00001000
00001000
,
00000001
00000100
00000010
00001000
,
00110000
01100000
10100000
00000000
,
10000000
00100000
01000000
00010000
,
10000000
01000000
00100000
00100000
,
00001000
00010000
00001000
00000100
,
00000110
00001001
00000110
00001001
,
00000010
00001000
00000100
00000001
,
00000010
00001000
00010000
00010000
,
00001000
00010000
01000000
10000000
,
00010000
00000000
01100000
00000000
00010000
10000000
00010000
00000000
,
10000000
00100000
10000000
00100000
,
01000000
00001000
00010000
00000100
,
00001000
00000100
00001000
00000100
,
00000010
00000100
00000010
00000100
00000010
00000100
00000010
00000000
,
00001000
00000010
00000001
00000010
,
00001000
00010000
01000000
00100000
,
10000000
01000000
00010000
00100000
,
10000000
01000000
00010000
00001000
,
00011000
00000000
00000000
00000100
00000000
00000100
00000000
00000100
,
00000010
00000100
00000010
00000000
00000001
00000000
00000100
00000000
,
00011000
00000000
00000000
01000000
00000000
01000000
00000000
01000000
,
00100000
01000000
00100000
00000000
10000000
00000000
01000000
00000000
,
00011000
00000000
00000000
00000100
00000000
00000100
00000000
00000100
,
00000010
00000000
00000000
00000100
00000000
00000100
00000000
00000100
,
00000010
00000000
00001000
00000000
00000010
00000000
00000001
00000100
,
00000000
00001000
00000000
00010000
00000000
01000000
00000000
00100000
,
01000000
00100000
10000000
01000000
,
10000000
00000000
00100000
00010000
00001000
00000000
00001000
00000000
,
00001000
00000100
00000001
00001000
,
00000100
00000000
00000010
00000100
00000010
00000000
00000100
00000000
,
00001000
00000010
00000001
00000100
,
00000001
00000000
00001000
00001000
00001000
00000000
00000001
00000000
,
00000010
00001000
00010000
00100000
,
10000000
01000000
00000000
00100000
,
00000000
00010000
00000000
00000000
10000000
00000000
00020000
00000000
,
00000000
10000000
10030000
01000000
,
00000000
00010000
00000000
00000000
00001000
00000000
00010000
00001000
,
00010000
00001000
00010000
00000000
00001000
00000000
00000010
00000000
,
00000000
00000001
00000000
00000000
00001000
00000000
00000002
00000000
,
00000100
00000100
00000103
00000010
,
00000000
00001000
00000000
00000000
00000100
00000000
00010000
00000000
,
00000100
00000000
00010000
00000100
00010000
00001000
00010000
00000000
,
01000000
10000000
00100000
00100000
,
10000000
01000000
00010000
00001000
,
00000100
00000000
00000001
00000000
00000010
00000000
00000000
00000010
,
00000000
00000001
00000000
00000100
00000000
00000100
00000000
00000000
,
00001000
00010000
01000000
01000000
,
00010000
00001000
00000100
00000100
,
00001000
00000000
00010000
00000000
00100000
00000000
00000000
00100000
,
00000000
00010000
00000000
00001000
00000000
00000100
00000000
00000000
,
00000100
00000001
00000001
00000100
,
00000100
00000000
00000000
00001000
00000000
00001000
00010000
00000000
,
00010000
00000000
00001000
00000000
00001000
00000000
00000000
00100000
,
00000000
00010000
00000000
00100000
00000000
00010000
00000000
00000000
,
10000000
00000000
01000000
00000000
00100000
00000000
00000000
00010000
,
00000000
00100000
00000000
00001000
00000000
00010000
00000100
00000000
,
00001000
00000010
00000100
00000001
,
00001000
00000100
00000000
00001000
,
00000001
00000000
00000000
00000001
00000000
00000000
00000100
00000000
,
00001000
00000000
00000000
00001000
00000000
00000000
00010000
00000000
,
00100000
00000000
00000000
00100000
00000000
00000000
10000000
00000000
,
01000000
00000000
00000000
00010000
00000000
00000000
00001000
00000000
,
00000000
00010000
00000000
00000000
00000100
00000000
00000010
00000000
,
00000000
00000001
00000000
00000000
00001000
00000000
00000001
00000000
,
00000000
00000100
00000000
00000000
00001000
00000000
00010000
00000000
,
00000000
00001000
00000000
00000000
00011000
00000000
00000000
00000000
,
00001100
00000000
00011000
00000000
,
00110000
00000000
01100000
01000000
,
01000000
01000000
00001000
01000000
,
00010000
00000000
10000000
00000000
10000000
10000000
00000000
00000000
,
01000000
00010000
00001000
00001000
,
00000100
00000001
00000100
00001001
,
00000000
00002000
00023000
00032000
,
00020000
00033000
00011000
00000000
,
01000000
00000000
10010000
00000000
,
00100000
00000000
01100000
00000000
,
00011000
00000000
00000100
00000100
,
00001000
00000001
00002002
00000000
,
00000000
00000000
00000000
00000000
,
00000000
00000000
00003003
00000000
,
00000000
00000000
00000000
00000000
;
#NOTES:
     dance-double:
     :
     Medium:
     12:
     :
00000000
00000000
00000000
00000000
,
00000000
00000000
00000000
00000000
,
00000000
00000000
00000000
00000000
,
00000000
00000000
00000000
00000000
,
00000000
00000000
00000000
00000000
,
00100000
10000000
01000000
00000000
00100000
00010000
01000000
00000000
,
00001000
00010000
00000010
00000000
00001000
00000100
00000010
00000000
,
00000002
00000203
00000320
00000130
,
00001001
00000000
00000000
00000000
00000100
00000000
00010000
00000000
00001000
00000000
00000000
00001000
00000000
00000000
00001000
00000000
,
00010000
00000000
00001000
00100000
00000000
00010000
01000000
00100000
,
00000000
10000000
01000000
00000000
01010000
00000000
00011000
00000000
,
00001100
00000000
00000010
00000001
00000000
00000100
00000010
00001000
,
00000000
00000010
00000100
00000010
00000100
00000000
00001000
00000000
,
00010000
00000000
01000000
10000000
00000000
01000000
10000000
00100000
,
00000000
01000000
00100000
00000000
01010000
00000000
00011000
00000000
,
00001010
00000000
00000001
00001000
00000000
00000100
00000010
00000001
,
00000000
00000100
00000010
00001000
00000100
00000010
00000100
00000010
,
00000100
00000000
00000001
00000000
00001000
00000100
00000010
00000000
,
00000001
00000000
00000100
00000010
00000000
00001000
00000001
00000000
,
00000100
00000000
00001000
00000000
00010000
00001000
01000000
00000000
,
00000000
00100000
00000000
01010000
00000000
10000000
00000000
01100000
,
00010000
00000000
00100000
00000000
10000000
00100000
00010000
00000000
,
01000000
00000000
00001000
00010000
00000000
01000000
10000000
00000000
,
00010000
01000000
00000000
00100000
00010000
00000000
00001000
00000100
,
00000000
00000001
00001000
00000000
00000100
00000010
00000001
00000100
,
00000010
00000000
00000000
00001000
00000000
00000000
00000001
00000000
00000000
00001000
00000000
00000000
00000110
00000000
00000000
00000000
,
00010000
00000000
00000000
00001000
00000000
00000000
00010000
00000000
00000000
01000000
00000000
00000000
00100000
00000000
00000000
00000000
,
00010000
00000000
00000000
01000000
00000000
00000000
00100000
00000000
00000000
10000000
00000000
00000000
01100000
00000000
00000000
00000000
,
00010000
00001000
00000100
00000001
00000100
00000001
00001000
00000000
,
00000002
00000000
00000000
00000010
00000000
00000000
00001000
00000000
00000000
00000010
00000000
00000000
00000203
00000000
00000000
00000000
,
00000010
00000000
00000000
00001000
00000000
00000000
00000010
00000000
00000000
00000001
00000000
00000000
00002300
00000000
00000000
00000000
,
00010000
00000000
00000000
00100000
00000000
00000000
01000000
00000000
00000000
00010000
00000000
00000000
00013000
00000000
00000000
00000000
,
00010000
00001000
00010000
00000100
00010000
00001000
00010000
00000100
,
00001000
00000000
00000100
00000010
00000000
00001000
00010000
00001000
,
00010000
00010000
00001000
00010000
00100000
10000000
00010000
00000000
,
10010000
00000000
01000000
00100000
00000000
00001000
00000010
00000001
,
00000100
00000100
00000001
00000001
00001000
00000100
00000020
00000000
,
00001030
00000000
00000000
00000100
00000000
00010000
00000000
00001000
,
00011000
00000000
00000000
00100000
00000000
10000000
00000000
01000000
,
10010000
00000000
01000000
00000000
10010000
00000000
00100000
10000000
,
00000000
01000000
00000000
00010000
00000000
00001000
00000000
00000010
,
00000100
00000001
00000000
00001000
00000100
00000010
00000001
00000010
,
00001000
00000000
00010000
00001000
00010000
00001000
00010000
00000000
,
00001000
00000000
00010000
01000000
00100000
00010000
10000000
01000000
,
10000000
00100000
01000000
10000000
01000000
00000000
00110000
00000000
,
00001000
00000100
00000000
00000100
00000001
00000010
00000001
00000010
,
00001000
00000000
00010000
00001000
00010000
00001000
00010000
00000000
,
00001000
00010000
00000000
01000000
00100000
10000000
00000000
01000000
,
00100000
00000000
00010000
00000000
01000000
00000000
00001000
00000000
00010000
00000000
00000000
00000000
00001000
00000000
00000000
00001000
,
00000000
00000000
00000100
00000000
00000000
00000100
00000000
00000000
00000001
00000000
00001000
00000000
00000200
00000000
00000000
00000000
,
00000000
00000000
00000310
00000000
00000001
00000000
00000000
00000010
00000000
00000000
00000100
00000000
00010000
00000000
00000000
00010000
,
00000000
00000000
00001000
00000000
00000000
00001000
00000000
00000000
00100000
00000000
01000000
00000000
10000000
00000000
01000000
00000000
,
00010000
00000000
00001000
00000000
00010000
00000000
00000000
00000000
00001000
00000000
00000000
00000000
00010000
00000000
00000000
00010000
,
00000000
00000000
00100000
00000000
00000000
00100000
00000000
00000000
00010000
00000000
00001000
00000000
00002000
00000000
00000000
00000000
,
00000000
00000000
00003100
00000000
00000001
00000000
00000000
00000010
00000000
00000000
00000100
00000000
00000010
00000000
00000000
00000010
,
00000000
00000000
00000001
00000000
00000000
00000001
00000000
00000000
00000100
00000000
00000010
00000000
00001000
00000000
00000001
00000000
,
00001000
00000001
00001000
00000001
00000100
00001000
00010000
00000000
,
01000000
10000000
00100000
02000000
,
00010000
00000000
03100000
10000000
00010000
00000000
00200000
00000000
,
01000000
00000000
00010000
00000000
00301000
00000000
00000000
00010000
,
00000000
00001000
00000000
00000100
00001000
00000010
00000200
00000000
,
00000010
00001000
00000310
00002000
,
00000100
00000000
00003001
00000010
00000100
00000000
00000020
00000000
,
00000001
00000000
00000100
00000000
00001030
00000000
00010000
00001000
,
00000100
00001000
00010000
00001000
00000100
00000000
00002000
00000000
,
00010000
00010000
00103000
00020000
,
01000000
00000000
10030000
01000000
00100000
00000000
02000000
00000000
,
00010000
10000000
03100000
00020000
,
00100000
00030000
00001100
00000020
,
00001000
00000001
00001030
00000200
,
00010000
00000000
00000310
00001000
00010000
00000000
00200000
00000000
,
10000000
00000000
00010000
00000000
01300000
00000000
00001000
00010000
,
00001000
00000000
00000100
00000010
00000100
00000000
00001000
00000000
,
00001000
00000000
00000000
00000101
00000000
00000000
00000010
00000000
,
00001100
00000000
00000000
00011000
00000000
00000000
00100000
00000000
,
01010000
00000000
00000000
10100000
00000000
00000000
01000000
00000000
,
00110000
00000000
00000000
00001000
00010000
00000000
00101000
00000000
,
00000000
00010100
00000000
00000000
00000010
00000000
00000101
00000000
,
00000000
00001010
00000000
00000000
00000100
00000000
00011000
00000000
,
00000000
01100000
00000000
00000000
10000000
00010000
10000000
00000000
,
00100000
00001000
00100000
00000000
00001000
00010000
00001000
00000000
,
00001000
00000100
00000010
00000000
00000100
00000010
00000100
00000000
,
00000001
00000001
00001000
00000000
00000001
00001000
00000001
00000000
,
00000100
00000010
00000100
00000000
00001000
00001000
00000000
00101000
,
00000000
00010000
01000000
00000000
10010000
00000000
10000000
01000000
,
00200000
00000000
00001000
00000000
00310000
00000000
01000000
00100000
,
02000000
00000000
00010000
00000000
03001000
00000000
00010000
00000100
,
00002000
00000000
00000010
00000000
00003001
00000000
00000100
00000010
,
00000110
00000000
00000110
00000000
00001001
00000000
00000001
00000100
,
00000000
00001000
00010000
01000000
00100000
00000000
01000000
00010000
,
00000000
00001000
00000100
00000010
00000100
00000000
00000110
00000000
,
00001000
00011000
00100000
01100000
,
00010000
10000000
01000000
00010000
00002000
00000000
00000000
00000000
,
00000000
00000000
00000000
00000000
,
00000000
00000000
00003000
00000000
,
00000000
00000000
00000000
00000000
;
#NOTES:
     dance-double:
     :
     Hard:
     16:
     :
00000000
00000000
00000000
00000000
,
00000000
00000000
00000000
00000000
,
00000000
00000000
00000000
00000000
,
00000000
00000000
00000000
00000000
,
00000000
00000000
00000000
00000000
,
00000010
00000000
00000001
00000000
00000010
00000000
00000001
00000000
00001000
00000000
00000100
00000000
00001000
00000000
00000100
00010000
,
00001000
00000000
00010000
00000000
00001000
00000000
00010000
00000000
01000000
00000000
10000000
00000000
01000000
00000000
10000000
00010000
,
00200000
00320000
20030000
30100000
,
01100000
00000000
00000000
00000000
00010000
00000000
10000000
01000000
10000000
00000000
00000000
00010000
00000000
00000000
10000000
00000000
,
01100000
00000000
00010000
01000000
00100000
10000000
01000000
00100000
,
00001000
00010000
00000100
00000010
00000011
00000000
00001100
00000000
,
00000001
00000100
00000010
00001000
00000100
00000010
00000100
00001000
,
00000000
00000001
00000010
00001000
00010000
00100000
10000000
11000000
,
01010000
00000000
00010000
01000000
00100000
10000000
01000000
00100000
,
00010000
01000000
00001000
00010000
00011000
00000000
00001100
00000000
,
00000011
00000000
00000000
00000000
00000001
00000000
00000010
00000000
00000100
00000000
00000010
00000000
00000100
00000000
00010000
00000010
,
00010000
00000010
00001000
00010000
00001000
00010000
00001000
00000000
00010000
00000000
00001000
00000000
00010000
00001000
00010000
00001000
,
00010000
00000000
00001000
00010000
01000000
00100000
10000000
01000000
,
00100000
01000000
00010000
10000000
00000000
11000000
00000000
01010000
,
00000000
00011000
00000010
00010000
00000100
00000010
00000100
00001000
,
00000110
00000110
00001000
00000001
00000010
00000001
00001000
00000001
,
00000110
00000000
00000001
00000100
00001000
00000100
00000010
00010000
,
00001000
00100000
00010000
10000000
00000000
10100000
00000000
01010000
,
11000000
00000000
00010000
01000000
00100000
01000000
00100000
01000000
,
00100000
00000000
10000000
00000000
01000000
00000000
00010000
00000000
00001000
00010000
00000010
00010000
00000100
00001000
00000100
00000000
,
00000010
00001000
00000100
00000010
00000001
00000120
00000000
00001030
,
00000100
00010000
00001000
00100000
00010000
01000000
00100000
01000000
,
00010000
10000000
01000000
00100000
00020000
10000000
00000000
01030000
,
00010000
00000000
10000000
00000000
01000000
00000000
00100000
00000000
00001000
00010000
00001000
00000000
00010000
00001000
00000100
00000000
,
00000010
00001000
00000100
00000010
00000100
00000002
00000000
00000103
,
00001000
00000100
00000010
00001000
00000001
00000010
00001000
00000010
,
00000100
00010000
00000010
00000100
00001000
00010000
00100000
01000000
,
00100000
01000000
00100000
01000000
00100000
10000000
00100000
10000000
00010000
00000000
10000000
00000000
01000000
00000000
00010000
00000000
,
00001000
00000000
00000100
00000001
00000000
00001000
00000001
00000010
,
00000001
00000000
00000001
00000000
00001000
00000000
00000010
00000100
00000010
00000000
00001000
00000000
00001000
00000000
00000010
00000100
,
00000010
00000000
00000000
00000000
00001000
00000000
00000100
00000000
00000010
00000000
00000001
00000010
00000100
00001000
00000100
00000000
,
00010000
00000000
00001000
00000000
01000000
00100000
01000000
00000000
00010000
01000000
00100000
01000000
00010000
00100000
00010000
00000000
,
10010000
00000000
00100000
10000000
00000000
01000000
00010000
00001000
,
00011000
00000000
00000100
00000001
00000000
00001000
00000100
00000010
,
00000011
00000000
00001100
00000000
00000011
00000000
00001100
00000010
,
00000000
00000000
00000001
00000000
00000000
00000000
00001000
00000000
00010000
00000000
00001000
00000000
00010000
00001000
00010000
00000000
,
00100000
00000000
01000000
00000000
00100000
00000000
10000000
00000000
01000000
00000000
00100000
00000000
00001000
00000000
00010000
00000100
,
00001000
00000010
00000011
00000000
00001100
00000000
00000101
00000000
,
00000010
00000000
00001000
00000000
00000100
00000000
00000010
00000000
00000100
00000000
00001000
00000000
00000010
00000100
00001000
00010000
,
00001000
00010000
00011000
00000000
00110000
00000000
11000000
00000000
,
00010000
00000000
01000000
00000000
00100000
00000000
10000000
00000000
01000000
00000000
00100000
00000000
00010000
01000000
00010000
01000000
,
00001000
00000000
00010000
00000000
00000010
00001000
00000010
00000000
00001000
00000100
00001000
00000000
00000001
00000010
00000000
00000000
,
00000001
00000010
00000100
00000010
00000100
00000010
00001000
00000010
,
00001000
00000000
00000010
00000000
00000001
00000000
00000100
00000000
00001000
00000000
00010000
00000000
01000000
00000000
00000000
01000000
,
00000000
00000000
10000000
00000000
00000000
10000000
00000000
00000000
00100000
00000000
10000000
00000000
00010000
00000000
00000000
00010000
,
00000000
00000000
01000000
00000000
00100000
01000000
00000000
00001000
00010000
00000000
00001000
00000000
00000010
00000000
00000000
00000010
,
00000000
00000000
00000001
00000000
00000000
00000001
00000000
00000000
00000010
00000000
00000100
00000000
00010000
00001000
00010000
00000000
,
00001000
00000000
00010000
00000000
00001000
00000000
00010000
00000000
00001000
00010000
00001000
00000000
01000000
00000000
00000000
01000000
,
00000000
00000000
00001000
00000000
00000000
00001000
00000000
00000000
00010000
00000000
00001000
00000000
00000100
00000000
00000000
00000100
,
00000000
00000000
00000001
00000000
00001000
00000100
00000000
00000010
00000001
00000000
00001000
00000000
00000010
00000000
00000000
00000010
,
00000000
00000000
00000100
00000000
00000000
00000100
00000000
00000000
00001000
00000000
00010000
00000000
01000000
00100000
10000000
00100000
,
01000000
00000000
00000000
00000000
10000000
00000000
01000000
00000000
00010000
00001000
00010000
00000000
00001000
00000000
00000100
00000010
,
00001000
00000000
00000010
00000100
00000000
00000000
00000001
00000000
00000010
00000000
00000100
00000000
00000010
00000000
00001000
00010000
,
00001000
00000000
00010000
00001000
00000000
00000000
00100000
00000000
01000000
00000000
10000000
00000000
00010000
00000000
10000000
00100000
,
10000000
00000000
01000000
00100000
00000000
00000000
00100000
00000000
00010000
00000000
10000000
00000000
01000000
00000000
00010000
00000000
,
00001000
00000000
00000010
00000000
00000001
00000000
00000100
00000000
00000001
00000010
00000001
00000010
00000001
00000000
00000100
00000010
,
00001000
00000000
00000010
00000100
00000000
00000000
00000001
00000000
00000010
00000000
00000100
00000000
00000010
00000000
00001000
00010000
,
00001000
00000000
00010000
00001000
00000000
00000000
00100000
00000000
01000000
00000000
10000000
00000000
00010000
00000000
10000000
00100000
,
10000000
00000000
01000000
00100000
00000000
00000000
00100000
00000000
00010000
00000000
00000010
00000000
00000001
00000100
00000001
00000100
,
00000001
00001000
00000001
00001000
00000001
00001000
00000100
00000000
00010000
00000000
00001000
00000000
00010000
00000000
00001000
00000000
,
00010000
00001000
00000000
00010000
00001000
00000000
00100000
00001000
00000000
00000000
00100000
00000000
00010000
00000000
01000000
00000000
,
00010000
01000000
00000000
00010000
01000000
00000000
00010000
10000000
00010000
01000000
00010000
01000000
00100000
00000000
00010000
00000000
,
00100000
00010000
00000000
00100000
00010000
00000000
00001000
00010000
00000000
00000000
00001000
00000000
00010000
00000000
00001000
00000000
,
00010000
00001000
00000000
00010000
00001000
00000000
00010000
00000100
00001000
00000100
00001000
00000100
00001000
00000000
00000010
00000000
,
00001000
00000010
00000000
00001000
00000010
00000000
00001000
00000001
00000000
00000000
00001000
00000000
00000010
00000000
00000100
00000000
,
00000010
00001000
00000000
00000010
00001000
00000000
00000010
00010000
00000000
00000000
00000010
00000000
00010000
00000000
00000100
00000000
,
00010000
00000100
00000000
00010000
00000100
00000000
00010000
00001000
00000000
00000000
00010000
00000000
00001000
00000000
00100000
00000000
,
01000000
10000000
00100000
01000000
00010000
00000000
00011000
00000000
,
00000100
00000000
00000010
00000000
00000000
00000100
00000000
00000000
00001000
00000000
00010000
00000000
00011000
00000000
00000000
00000000
,
01000000
00000000
01000000
00000000
00000000
00100000
00000000
00000000
10000000
00000000
00010000
00000000
10100000
00000000
00000000
00000000
,
01000000
00000000
00100000
00000000
00000000
00001000
00000000
00000000
00010000
00000000
01000000
00000000
01001000
00000000
00000000
00000000
,
00010000
00000000
00000100
00000000
00000000
00000010
00000000
00000000
00001001
00000000
00000000
00000000
00000110
00000000
00001000
00000000
,
00000001
00000100
00001000
00010000
00011000
00000000
00010000
01000000
,
00100000
10000000
00010000
00000000
01100000
00000000
11000000
01000000
,
00100000
00001000
00010000
00001000
00010000
00010000
00010000
00000010
,
00000100
00000001
00001000
00000000
00000001
00001000
00000001
00000000
,
00001000
00000000
00010100
00000000
00001000
00010000
00001000
00000000
,
00100000
00000000
11000000
00000000
10000000
00100000
01000000
00010000
,
00100000
00001000
00010000
00010000
00000100
00000010
00000001
00001000
,
00000001
00000100
00001000
00000000
00000001
00000100
00001000
00000100
,
00000010
00010000
00000010
00010000
00000100
00000000
00000010
00000000
00000001
00000000
00000010
00000000
00001000
00000000
00010000
00000000
,
00001000
00000000
00011000
01000000
00100000
00100000
10010000
00000000
,
01000000
00100000
00001000
00010000
00000020
00010000
00000000
00000100
,
00000000
00000000
00001030
00000000
00000000
00000000
00000000
00000000
00001001
00000000
00000000
00000000
00000000
00000000
00000001
00001000
,
00000100
00010000
00001000
00000000
00010000
00000000
00001000
00000000
00100000
00000000
00100000
00000000
00000000
00000000
00100000
00000000
,
00010000
00000000
10000000
00000000
01100000
00000000
00000000
00000000
00001000
00000000
00000000
00000100
00000000
00000000
00000001
00000000
,
00000010
00000000
00000000
00000001
00000000
00000000
00000010
00000000
00001000
00000000
00010000
00000000
00100000
00000000
00010000
00000000
,
00001000
00000000
00010000
00000000
01000000
00000000
10000000
00010000
20000000
00000000
00000000
00000000
00000000
00000000
00000000
00000000
,
00000000
00000000
00000000
00000000
,
00000000
00000000
30000000
00000000
,
00000000
00000000
00000000
00000000
;
