#TITLE:POSSESSION(EDP Live Mix);
#SUBTITLE:;
#ARTIST:TAG underground;
#TITLETRANSLIT:;
#SUBTITLETRANSLIT:;
#ARTISTTRANSLIT:;
#GENRE:;
#CREDIT:;
#BANNER:POSSESSION(EDP Live Mix).png;
#BACKGROUND:POSSESSION(EDP Live Mix)-bg.png;
#LYRICSPATH:;
#CDTITLE:;
#MUSIC:POSSESSION(EDP Live Mix).ogg;
#OFFSET:0.000000;
#SAMPLESTART:33.730000;
#SAMPLELENGTH:15.000000;
#SELECTABLE:YES;
#DISPLAYBPM:185.000000;
#BPMS:0.000000=185.000000
;
#STOPS:
;
#BGCHANGES:;
#KEYSOUNDS:;
#ATTACKS:;

//---------------dance-single - ----------------
#NOTES:
     dance-single:
     :
     Beginner:
     3:
     0.185246,0.263425,0.036272,0.181360,0.000000,143.000000,139.000000,4.000000,20.000000,0.000000,0.000000,0.185246,0.263425,0.036272,0.181360,0.000000,143.000000,139.000000,4.000000,20.000000,0.000000,0.000000:
0000
0000
0000
0000
,
0000
0000
0000
0000
,
0000
0000
0000
0000
,
0000
0000
0000
0000
,
0000
0000
0000
0000
,
0000
0000
0000
0000
,
0010
0000
1000
0000
,
0100
0000
0001
0000
,
0020
0000
0030
0000
,
0200
0000
0300
0000
,
1000
0000
0010
0000
,
0001
0000
0010
0000
,
0200
0000
0300
0000
,
0020
0000
0030
0000
,
1000
0000
0001
0000
,
1000
0000
0001
0000
,
0010
0000
1000
0000
,
0100
0000
0001
0000
,
2002
0000
0000
0000
,
0000
0000
3003
0000
,
0002
0000
2000
0000
,
3003
0000
0010
0010
,
0010
0000
0000
0000
,
0001
0000
0000
0000
,
1000
0000
0001
0000
,
1000
0000
1001
0000
,
1000
1000
1000
0000
,
1000
0000
0100
0000
,
0001
0001
0001
0000
,
0001
0000
0100
0000
,
1000
1000
1000
0000
,
0010
0000
0100
0000
,
0001
0001
0001
0000
,
0010
0000
0100
0000
,
0010
0000
0000
0000
,
0001
0000
0000
0000
,
0100
0000
0000
0000
,
1000
0000
0000
0000
,
0010
0000
1000
0000
,
0100
0000
0001
0000
,
0010
0000
1000
0000
,
0100
0000
0001
0000
,
0002
0000
0003
0000
,
0020
0000
0030
0000
,
0002
0000
0003
0000
,
2000
0000
3000
0000
,
0001
0000
0010
0000
,
1000
0000
0100
0000
,
0001
0000
1000
0000
,
2002
0000
3003
0000
,
0010
0010
0010
0000
,
1000
0000
0001
0000
,
0010
0010
0010
0000
,
0001
0000
1000
0000
,
0100
0100
0100
0000
,
1000
0000
0001
0000
,
0100
0100
0100
0000
,
0001
0000
1000
0000
,
0010
0010
0010
0000
,
1000
1000
1000
0000
,
0100
0100
0100
0000
,
0001
0001
0001
0000
,
0100
0000
0001
0000
,
0010
0000
1000
0000
,
0010
0000
0100
0000
,
1000
0000
0001
0000
,
0010
0000
0000
0000
,
0001
0000
0000
0000
,
0100
0000
0000
0000
,
1000
0000
0000
0000
,
0010
0000
1000
0000
,
0100
0000
0001
0000
,
0010
0000
1000
0000
,
0100
0000
0001
0000
,
0020
0000
0030
0000
,
0002
0000
0003
0000
,
2000
0000
3000
0000
,
0200
0000
0300
0000
,
0010
0000
0001
0000
,
0100
0000
1000
0000
,
0010
0000
0001
0000
,
0100
0000
1000
0000
,
2002
0000
0000
0000
,
3003
0000
0000
0000
,
0000
0000
0000
0000
;

//---------------dance-single - ----------------
#NOTES:
     dance-single:
     :
     Easy:
     9:
     0.396401,0.526850,0.072544,0.389924,0.208564,306.000000,298.000000,8.000000,43.000000,0.000000,0.000000,0.396401,0.526850,0.072544,0.389924,0.208564,306.000000,298.000000,8.000000,43.000000,0.000000,0.000000:
0000
0000
0000
0000
,
0000
0000
0000
0000
,
0000
0000
0000
0000
,
0000
0000
0000
0000
,
0000
0000
0000
0000
,
0000
0000
0000
0000
,
0100
1000
0100
1000
,
0001
0010
0100
0010
,
0001
0100
1000
0100
,
0001
1000
1000
0001
,
0001
0000
0100
0000
0001
0100
0001
0000
,
1000
0000
0100
0000
1000
0100
1000
0000
,
0010
0000
0100
0000
0010
0100
0010
0000
,
0001
0000
1000
0000
0001
1000
0001
0000
,
0001
0010
1000
0010
,
0001
0010
1000
0010
,
0100
1000
0010
0001
,
1000
0001
1000
0001
,
0220
0000
0000
0000
,
0000
0000
0000
0330
,
2000
0000
0000
0002
0000
0000
0000
0000
,
0000
3003
0010
0010
,
0002
0010
0000
0013
,
2000
0010
0000
3010
,
0001
0000
1000
0000
,
0001
0000
0110
1001
,
0001
1000
0100
0010
,
0001
0000
0010
0000
0100
0010
0100
0000
,
1000
0100
0010
0001
,
0100
0000
0100
0000
0010
1000
0010
0000
,
1000
0001
1000
0100
,
1000
0000
0001
0000
0010
0100
0010
0000
,
0001
0100
0001
1000
,
0010
0000
0100
0000
0001
0100
0001
0000
,
0200
0300
2000
3000
,
0020
0030
0002
0003
,
0200
0300
2000
3000
,
0020
0030
0002
0003
,
0100
0000
0100
0000
0100
0000
2000
0000
0000
3000
0000
0000
,
0010
0000
0010
0000
0010
0000
0002
0000
0000
0003
0000
0000
,
0100
0000
0100
0000
0100
0000
2000
0000
0000
3000
0000
0000
,
0010
0000
0010
0000
0010
0000
2002
0000
0000
3003
0000
0000
,
2000
0001
0000
0001
,
3200
0010
0000
0010
,
2300
0010
0000
0010
,
3002
0000
0000
0000
0000
0000
0000
0000
0000
0000
0000
0000
0000
0000
0000
0000
0000
0000
0000
0000
0000
0000
0000
0000
0000
0000
0000
0000
0000
0000
0000
0000
0000
0000
0000
0000
0000
0000
0000
0000
0000
0000
0000
0000
0000
0000
0000
0000
0100
0000
0000
0000
0000
0000
0000
0000
0000
0000
0000
0000
0000
0000
0000
0000
0000
0000
0000
0000
0000
0000
0000
0000
0000
0000
0000
0000
0000
0000
0000
0000
0000
0000
0000
0000
0000
0000
0000
0000
0000
0000
0000
0000
0000
0000
0000
0000
0000
0000
0000
0000
0000
0000
0000
0000
0000
0000
0000
0000
0000
0000
0000
0000
0000
0000
0000
0000
0000
0000
0000
0000
0000
0000
0000
0000
0000
0000
0000
0000
0000
0000
0000
0000
0000
0000
0000
0000
0000
0000
0000
0000
0000
0000
0000
0000
0100
0000
0000
0000
0000
0000
0000
0000
0000
0000
0000
0000
0000
0000
0000
0000
0000
0000
0000
0000
0000
0000
0000
0000
0000
0000
0000
0000
0000
0000
0000
0000
0000
0000
0000
0000
0000
0000
0000
0000
0000
0000
0000
0000
0000
0000
0000
0003
,
1000
1000
0100
0100
,
0001
0001
0010
0010
,
2000
0000
0002
3003
,
2002
0000
0000
3003
,
1000
0001
0100
0010
,
1000
0000
0010
0000
0100
0010
0100
0000
,
0001
0100
0010
1000
,
0100
0000
0100
0000
0010
0001
0010
0000
,
0001
1000
0001
0100
,
0001
0000
1000
0000
0010
0100
0010
0000
,
1000
0100
1000
0001
,
0010
0000
0100
0000
1000
0100
1000
0000
,
0010
0000
0010
0000
0100
0010
0100
0000
,
0001
0000
0001
0000
1000
0001
1000
0000
,
0100
0000
0100
0000
0010
0100
0010
0000
,
0001
0000
0001
0000
1000
0001
1000
0000
,
0001
0100
0001
0000
1000
0100
1000
0000
,
0001
0010
0001
0000
1000
0010
1000
0000
,
0001
0010
1000
0100
,
1000
0010
0001
1001
,
0200
0300
0002
0003
,
0020
0030
2000
3000
,
0200
0300
0002
0003
,
0020
0030
2000
3000
,
0100
0000
0100
0000
0100
0000
0002
0000
0000
0003
0000
0000
,
0010
0000
0010
0000
0010
0000
2000
0000
0000
3000
0000
0000
,
0100
0000
0100
0000
0100
0000
0002
0000
0000
0003
0000
0000
,
0010
0000
0010
0000
0010
0000
2000
0000
0000
3000
0000
0000
,
0001
0001
0001
0001
0001
0001
,
0010
0010
0010
0010
0010
0010
,
0100
0100
0100
0100
0100
0100
,
1000
1000
1000
1000
1000
1000
,
0010
0010
0010
1000
1000
1000
,
0001
0001
0001
0010
0010
0010
,
0001
0001
0001
1000
1000
1000
,
0010
0000
0010
0000
0010
0000
0220
0000
0000
0330
0000
0000
,
2002
0000
0000
0000
,
3003
0000
0000
0000
,
0000
0000
0000
0000
;

//---------------dance-single - ----------------
#NOTES:
     dance-single:
     :
     Medium:
     12:
     0.658077,0.978436,0.571283,0.589419,0.417128,508.000000,445.000000,63.000000,65.000000,0.000000,0.000000,0.658077,0.978436,0.571283,0.589419,0.417128,508.000000,445.000000,63.000000,65.000000,0.000000,0.000000:
0000
0000
0000
0000
,
0000
0000
0000
0000
,
0000
0000
0000
0000
,
0000
0000
0000
0000
,
0000
0000
0000
0000
,
0000
0000
0000
0000
,
0100
0000
0100
0000
0001
0100
0001
0000
,
1000
0010
0100
0010
0000
0010
1000
0200
,
0000
0310
0100
0000
1000
0100
1000
0000
,
0001
1000
0001
0100
0000
0001
0010
0100
,
1000
0000
1000
0000
0001
0100
0001
0000
,
0100
0010
1000
0100
0000
0100
0010
0200
,
0000
0310
0001
0000
1000
0001
0100
0000
,
0001
1000
0010
1000
0000
0010
1000
0001
,
1000
0000
1000
0000
0010
1000
0001
0000
,
1000
0100
0010
0100
0000
0100
0010
0002
,
0000
1003
0001
0000
1000
0100
1000
0000
,
0001
0010
0100
0010
0001
1000
0001
0000
,
0220
0000
0000
0000
,
0000
0000
0000
0000
0000
0000
0330
1000
,
0002
0000
0000
2000
0000
0000
0000
0000
,
0000
3003
0110
0110
,
1000
0000
0010
0100
0000
0100
0001
0000
,
0010
0000
0100
1000
0000
1000
0001
1000
,
1000
0000
0001
0101
0000
1000
1100
0000
,
0001
0011
0000
0010
0001
0100
0110
0000
,
0010
1000
0001
0010
0100
1000
0010
0010
,
1000
0001
0010
0000
0100
1000
0100
0000
,
0001
0010
0100
1000
0100
0010
0001
0001
,
0100
0010
0100
0000
0010
1000
0100
0000
,
0001
1000
0010
1000
0001
0010
0100
0100
,
1000
0001
0010
0000
0100
0010
0001
0000
,
0100
0001
1000
0100
1000
0001
0010
0010
,
0100
1000
0001
0000
0010
0001
1000
0000
,
0010
0010
0010
0110
0110
0110
,
0001
0001
0001
0101
0101
0101
,
1000
1000
1000
1100
1100
1100
,
0010
0010
0010
0011
0011
0011
,
0020
0032
2003
3020
2030
3002
,
0203
0302
2003
3200
2300
3002
,
2003
3020
0032
0203
2300
3020
,
0230
0000
0320
0000
0130
0000
2002
0000
0000
3003
0000
0000
,
0002
1000
0000
1000
,
0203
0010
0000
0010
,
0302
0010
0000
0010
,
2003
0000
0000
0000
0000
0000
0000
0000
0000
0000
0000
0000
0000
0000
0000
0000
0000
0000
0000
0000
0000
0000
0000
0000
0000
0000
0000
0000
0000
0000
0000
0000
0000
0000
0000
0000
0000
0000
0000
0000
0000
0000
0000
0000
0000
0000
0000
0000
0100
0000
0000
0000
0000
0000
0000
0000
0000
0000
0000
0000
0000
0000
0000
0000
0000
0000
0000
0000
0000
0000
0000
0000
0000
0000
0000
0000
0000
0000
0000
0000
0000
0000
0000
0000
0000
0000
0000
0000
0000
0000
0000
0000
0000
0000
0000
0000
0000
0000
0000
0000
0000
0000
0000
0000
0000
0000
0000
0000
0000
0000
0000
0000
0000
0000
0000
0000
0000
0000
0000
0000
0000
0000
0000
0000
0000
0000
0000
0000
0000
0000
0000
0000
0000
0000
0000
0000
0000
0000
0000
0000
0000
0000
0000
0000
0100
0000
0000
0000
0000
0000
0000
0000
0000
0000
0000
0000
0000
0000
0000
0000
0000
0000
0000
0000
0000
0000
0000
0000
0000
0000
0000
0000
0000
0000
0000
0000
0000
0000
0000
0000
0000
0000
0000
0000
0000
0000
0000
0000
0000
0000
0000
3000
,
0001
0100
0010
0000
1000
0100
0010
0000
,
0001
1000
0010
0000
0100
0001
1000
0000
,
0001
0100
0010
1000
0100
0010
0001
0010
,
0200
0000
0000
0300
,
0010
0001
1000
0010
0100
0001
0010
0010
,
0001
1000
0010
0000
0100
0001
0100
0000
,
1000
0010
0100
0001
0100
0010
1000
1000
,
0100
0010
0100
0000
0010
0001
0100
0000
,
1000
0001
0010
0001
1000
0010
0100
0100
,
0001
1000
0010
0000
0100
0010
1000
0000
,
0100
1000
0001
0100
0001
1000
0010
0010
,
0100
0001
1000
0000
0010
1000
0001
0000
,
0100
0010
0020
0000
1030
0010
1000
0010
,
0100
0001
2000
0000
3100
0010
0001
0100
,
0001
0010
0020
0000
0031
0010
0001
0010
,
0001
1000
0020
0000
0130
0010
1000
0100
,
0010
0100
1000
0100
0010
0100
1000
0001
,
0100
0010
0100
0001
0100
0010
1000
0001
,
0010
0001
0010
0001
1000
0010
1000
0010
,
0100
0001
0010
0100
1000
0001
1000
0000
,
0010
0010
0010
0110
0110
0110
,
1000
1000
1000
1100
1100
1100
,
0001
0001
0001
0101
0101
0101
,
0010
0010
0010
1010
1010
1010
,
0020
2030
3002
0023
0032
2003
,
3200
2300
3002
0203
0302
2003
,
3002
0023
2030
3200
0302
0023
,
0230
0320
0032
2003
3002
1003
,
0001
0100
0101
0010
1000
1010
,
0001
0010
0011
0100
1000
1100
,
0010
1000
1010
0001
0010
0011
,
0100
1000
1100
0001
0100
0101
,
1001
1001
1001
1010
1010
1010
,
0011
0011
0011
0101
0101
0101
,
1100
1100
1100
0110
0110
0110
,
1001
0000
1001
0000
1001
0000
0220
0000
0000
0330
0000
0000
,
2002
0000
0000
0000
,
3003
0000
0000
0000
,
0000
0000
0000
0000
;

//---------------dance-single - ----------------
#NOTES:
     dance-single:
     :
     Hard:
     16:
     0.919753,0.978436,0.961207,0.217632,0.875061,710.000000,604.000000,106.000000,24.000000,0.000000,0.000000,0.919753,0.978436,0.961207,0.217632,0.875061,710.000000,604.000000,106.000000,24.000000,0.000000,0.000000:
// measure 0
0000
0000
0000
0000
,  // measure 1
0000
0000
0000
0000
,  // measure 2
0000
0000
0000
0000
,  // measure 3
0000
0000
0000
0000
,  // measure 4
0000
0000
0000
0000
,  // measure 5
0000
0000
0000
0000
,  // measure 6
0010
2000
0001
3001
0200
0010
0310
0100
,  // measure 7
0010
1000
0100
0010
0100
1000
0001
0100
,  // measure 8
0000
0100
0001
1000
0010
0100
0001
1000
,  // measure 9
0001
0100
0010
0100
0001
0010
0100
0010
,  // measure 10
0001
2000
0010
3010
0200
0001
0301
0100
,  // measure 11
0010
0100
0001
0010
0100
1000
0100
1000
,  // measure 12
0000
1000
0001
0100
0010
0100
0001
0100
,  // measure 13
0010
1000
0100
0010
0100
1000
0100
0010
,  // measure 14
0001
0020
0100
0130
2000
0100
3100
0010
,  // measure 15
0100
1000
0010
0100
0001
0010
0100
1000
,  // measure 16
0000
1000
1010
0000
0001
0011
0000
0100
,  // measure 17
1100
0000
0001
0101
0000
0010
0000
0100
,  // measure 18
0220
0000
0000
0000
,  // measure 19
0000
0000
0000
0000
0000
0000
0330
0001
,  // measure 20
2000
0000
0000
0002
0000
0000
0000
0000
,  // measure 21
0000
3003
1010
0101
,  // measure 22
0001
0000
0001
0000
0100
0000
0010
0100
0010
0100
0010
0000
1000
0000
0100
0010
,  // measure 23
0100
0000
0100
0000
0010
0000
0001
0100
0001
0100
0001
0000
1000
0000
0001
0100
,  // measure 24
0001
1000
0010
1010
0000
0001
0011
0000
,  // measure 25
0100
1100
0000
0001
0100
0010
0110
0000
,  // measure 26
1000
0000
0001
0000
1000
0000
0100
0010
0100
0000
1000
0000
0001
0100
0001
0000
,  // measure 27
1000
0100
1000
0000
0001
0000
0100
0010
0100
0000
0001
0000
0010
0000
0100
0000
,  // measure 28
1000
0010
1000
0000
0001
0000
0010
0100
0010
0000
0100
0000
1000
0001
1000
0000
,  // measure 29
0001
0010
0001
0000
1000
0000
0001
0100
0001
0000
1000
0000
0010
0000
0100
0000
,  // measure 30
0010
1000
0001
0000
0010
0000
0001
1000
0010
0000
1000
0000
0001
0010
0100
0000
,  // measure 31
0010
0001
1000
0000
0010
0000
0100
0001
1000
0000
0001
0000
1000
0000
0010
0000
,  // measure 32
0100
0001
1000
0000
0100
0000
1000
0001
0100
0000
0010
0000
0100
0001
1000
0000
,  // measure 33
0100
1000
0001
0000
0100
0000
0001
0010
0100
0000
1000
0000
0001
0000
0100
0000
,  // measure 34
1010
0000
1010
0000
1010
0000
0101
0000
1100
0000
0101
0000
,  // measure 35
0011
0000
0011
0000
0011
0000
1100
0000
0101
0000
1100
0000
,  // measure 36
1010
0000
1010
0000
1010
0000
0101
0000
1100
0000
0101
0000
,  // measure 37
0011
0000
0011
0000
0011
0000
1100
0000
0101
0000
1100
0000
,  // measure 38
0011
0000
1001
0000
0101
0000
1010
0000
1001
0000
1100
0000
,  // measure 39
0011
0000
1001
0000
1010
0000
1100
0000
0110
0000
0101
0000
,  // measure 40
0011
0000
1001
0000
0101
0000
1010
0000
1001
0000
1100
0000
,  // measure 41
0011
0000
1001
0000
1010
0000
0220
0000
0000
0330
0000
0000
,  // measure 42
2000
0001
0000
0001
,  // measure 43
3020
0100
0000
0100
,  // measure 44
2030
0100
0000
0100
,  // measure 45
3002
0000
0000
0000
0000
0000
0000
0000
0000
0000
0000
0000
0000
0000
0000
0000
0000
0000
0000
0000
0000
0000
0000
0000
0000
0000
0000
0000
0000
0000
0000
0000
0000
0000
0000
0000
0000
0000
0000
0000
0000
0000
0000
0000
0000
0000
0000
0000
0010
0000
0000
0000
0000
0000
0000
0000
0000
0000
0000
0000
0000
0000
0000
0000
0000
0000
0000
0000
0000
0000
0000
0000
0000
0000
0000
0000
0000
0000
0000
0000
0000
0000
0000
0000
0000
0000
0000
0000
0000
0000
0000
0000
0000
0000
0000
0000
0000
0000
0000
0000
0000
0000
0000
0000
0000
0000
0000
0000
0000
0000
0000
0000
0000
0000
0000
0000
0000
0000
0000
0000
0000
0000
0000
0000
0000
0000
0000
0000
0000
0000
0000
0000
0000
0000
0000
0000
0000
0000
0000
0000
0000
0000
0000
0000
0010
0000
0000
0000
0000
0000
0000
0000
0000
0000
0000
0000
0000
0000
0000
0000
0000
0000
0000
0000
0000
0000
0000
0000
0000
0000
0000
0000
0000
0000
0000
0000
0000
0000
0000
0000
0000
0000
0000
0000
0000
0000
0000
0000
0000
0000
0000
0003
,  // measure 46
1000
0010
1000
0010
1000
0100
1000
0100
,  // measure 47
0010
0001
0010
0001
0100
0001
0100
0001
,  // measure 48
0010
0001
0010
0001
1000
0100
1000
0100
1000
0010
1000
0010
0100
0001
0100
0001
,  // measure 49
2000
0000
0000
3000
,  // measure 50
0001
0000
1000
0000
0001
0000
0100
0010
0100
0000
0001
0000
1000
0100
1000
0000
,  // measure 51
0001
0100
0001
0000
1000
0000
0100
0010
0100
0000
1000
0000
0010
0000
0100
0000
,  // measure 52
0001
0010
0001
0000
1000
0000
0010
0100
0010
0000
0100
0000
0001
1000
0001
0000
,  // measure 53
1000
0010
1000
0000
0001
0000
1000
0100
1000
0000
0001
0000
0010
0000
0100
0000
,  // measure 54
0010
0001
1000
0000
0010
0000
1000
0001
0010
0000
0001
0000
1000
0010
0100
0000
,  // measure 55
0010
1000
0001
0000
0010
0000
0100
1000
0001
0000
1000
0000
0001
0000
0010
0000
,  // measure 56
0100
1000
0001
0000
0100
0000
0001
1000
0100
0000
0010
0000
0100
1000
0001
0000
,  // measure 57
0100
0001
1000
0000
0100
0000
1000
0010
0100
0000
0001
0000
1000
0000
0100
0000
,  // measure 58
0010
0001
0010
0001
0010
0000
0100
1000
0100
0000
0010
0000
0001
1000
0001
0000
,  // measure 59
1000
0010
0100
0000
0001
0000
1000
0100
1000
0000
0001
0100
0001
0000
0100
0000
,  // measure 60
0010
1000
0010
1000
0010
0000
0100
0001
0100
0000
0010
0000
1000
0001
1000
0000
,  // measure 61
0001
0010
0100
0000
1000
0000
0001
0100
0001
0000
1000
0100
1000
0000
0001
0000
,  // measure 62
1000
0100
1000
0100
1000
0000
0001
0010
0001
0000
1000
0000
0001
0100
0001
0000
,  // measure 63
1000
0001
0010
0000
0100
0000
1000
0001
0100
0000
0010
0100
0010
0000
1000
0000
,  // measure 64
0001
0010
0001
0010
0001
0000
1000
0100
1000
0000
0001
0000
1000
0100
0010
0000
,  // measure 65
0001
0010
0001
0000
1000
0000
0001
1000
0100
0000
0010
0000
0001
0000
1000
0000
,  // measure 66
1010
0000
1010
0000
1010
0000
0101
0000
1100
0000
0101
0000
,  // measure 67
0011
0000
0011
0000
0011
0000
1100
0000
0101
0000
1100
0000
,  // measure 68
1010
0000
1010
0000
1010
0000
0101
0000
1100
0000
0101
0000
,  // measure 69
0011
0000
0011
0000
0011
0000
1100
0000
0101
0000
1100
0000
,  // measure 70
0011
0000
1001
0000
0101
0000
1010
0000
1001
0000
1100
0000
,  // measure 71
0011
0000
1001
0000
1010
0000
1100
0000
0110
0000
0101
0000
,  // measure 72
0011
0000
1001
0000
0101
0000
1010
0000
1001
0000
1100
0000
,  // measure 73
0011
0000
1001
0000
1010
0000
1100
0000
0110
0000
0101
0000
,  // measure 74
0010
1000
0010
0100
0001
0200
0010
0000
0010
0000
0310
0000
,  // measure 75
1000
0100
1000
0001
0010
0002
1000
0000
1000
0000
1003
0000
,  // measure 76
0010
1000
0010
0100
0001
0200
0010
0000
0010
0000
0310
0000
,  // measure 77
1000
0100
1000
0001
0010
0002
1000
0000
1000
0000
1003
0000
,  // measure 78
0100
1000
0100
1000
0100
1000
0100
0010
0001
0100
0010
1000
,  // measure 79
0001
0100
0001
0100
0001
0100
0010
1000
0100
0010
0001
0100
,  // measure 80
0010
1000
0100
0010
0100
1000
0001
0100
0010
0100
0001
1000
,  // measure 81
0001
0010
0100
1000
0010
0100
0020
0000
0000
0030
0000
0000
,  // measure 82
2002
0000
0000
0000
,  // measure 83
3003
0000
0000
0000
;

//---------------dance-double - ----------------
#NOTES:
     dance-double:
     :
     Easy:
     9:
     0.384742,0.489218,0.045340,0.489672,0.208564,297.000000,292.000000,5.000000,54.000000,0.000000,0.000000,0.384742,0.489218,0.045340,0.489672,0.208564,297.000000,292.000000,5.000000,54.000000,0.000000,0.000000:
00000000
00000000
00000000
00000000
,
00000000
00000000
00000000
00000000
,
00000000
00000000
00000000
00000000
,
00000000
00000000
00000000
00000000
,
00000000
00000000
00000000
00000000
,
00000000
00000000
00000000
00000000
,
00100000
00010000
10000000
01000000
,
00100000
00001000
00010000
00000100
,
00000010
00000010
00000001
00000001
,
00000100
00000100
00001000
00001000
,
00020000
00030020
00000230
00000320
,
00020030
00030020
00000230
00001300
,
00010000
00010000
00100000
00100000
,
10000000
10000000
01000000
00010000
,
00002000
00203000
02300000
03200000
,
00302000
00203000
02300000
03010000
,
00001000
00001000
00000010
00000010
,
00000001
00000001
00000100
00000100
,
00002002
00000000
00000000
00000000
,
00000000
00000000
00000000
00003003
,
00000020
00000000
00000000
00000200
00000000
00000000
00000000
00000000
,
00000000
00000330
00001000
00010000
,
00011000
00100000
00000000
00100000
,
01000000
10000000
00000000
10000000
,
01000000
00000000
00000000
00010000
00000000
00000000
00001000
00000000
,
00000000
00000100
00000000
00000000
00000001
00000000
00001001
00000000
,
00001000
00000001
00000100
00000100
,
00000010
00000000
00010000
00000000
00001000
00010000
00001000
00000000
,
01000000
00010000
00100000
01000000
,
10000000
00000000
10000000
00000000
00010000
10000000
00010000
00000000
,
00100000
00100000
01000000
00010000
,
00001000
00000000
00000010
00000000
00000100
00000010
00000100
00000000
,
00001000
00000100
00000010
00000001
,
00000100
00000000
00000100
00000000
00000010
00000100
00000010
00000000
,
00000200
00000300
00002000
00003000
,
00020000
00030000
00200000
00300000
,
20000000
30000000
02000000
03000000
,
00020000
00030000
00002000
00003000
,
00010000
00000000
00010000
00000000
00010000
00000000
00000020
00000000
00000000
00000030
00000000
00000000
,
00001000
00000000
00001000
00000000
00001000
00000000
00000002
00000000
00000000
00000003
00000000
00000000
,
00000010
00000000
00000010
00000000
00000010
00000000
00000200
00000000
00000000
00000300
00000000
00000000
,
00010000
00000000
00010000
00000000
00010000
00000000
00002000
00000000
00000000
00003000
00000000
00000000
,
00020000
00100000
00000000
00230000
,
20300000
01000000
00000000
32000000
,
03020000
00001000
00000000
00032000
,
00003200
00000001
00000000
00000301
,
00000010
00000010
00000001
00000001
,
00001000
00001000
00000100
00000100
,
00010000
00010000
01000000
01000000
,
20020000
00000000
00000000
30030000
,
00010000
10000000
01000000
01000000
,
00100000
00000000
00001000
00000000
00010000
00001000
00010000
00000000
,
00000100
00001000
00000010
00000100
,
00000001
00000000
00000001
00000000
00001000
00000001
00001000
00000000
,
00000010
00000010
00000100
00001000
,
00010000
00000000
00100000
00000000
01000000
00100000
01000000
00000000
,
00010000
01000000
00100000
10000000
,
01000000
00000000
01000000
00000000
00100000
01000000
00100000
00000000
,
00010000
00001000
00000100
00000010
,
00000001
00000000
00000100
00000000
00000010
00000100
00000010
00000000
,
00001000
00000100
00000010
00001000
,
00010000
00000000
00100000
00000000
01000000
00100000
01000000
00000000
,
00100000
10000000
01000000
00010000
,
00001000
00000000
00000010
00000000
00000001
00001000
00000001
00000000
,
00000100
00000010
00010000
00001000
,
00100000
00010000
10000000
10000000
,
02000000
03000000
00020000
00030000
,
00002000
00003000
00000020
00000030
,
00000002
00000003
00000200
00000300
,
00002000
00003000
00020000
00030000
,
00001000
00000000
00001000
00000000
00001000
00000000
00200000
00000000
00000000
00300000
00000000
00000000
,
00010000
00000000
00010000
00000000
00010000
00000000
20000000
00000000
00000000
30000000
00000000
00000000
,
00100000
00000000
00100000
00000000
00100000
00000000
02000000
00000000
00000000
03000000
00000000
00000000
,
00001000
00000000
00001000
00000000
00001000
00000000
00020000
00000000
00000000
00030000
00000000
00000000
,
00001000
00001000
00001000
00001000
00001000
00001000
,
00000010
00000010
00000010
00000010
00000010
00000010
,
00000001
00000001
00000001
00000001
00000001
00000001
,
00000100
00000100
00000100
00000100
00000100
00000100
,
00001000
00001000
00001000
00010000
00010000
00010000
,
01000000
01000000
01000000
10000000
10000000
10000000
,
00100000
00100000
00100000
00010000
00010000
00010000
,
00001000
00000000
00001000
00000000
00001000
00000000
00020000
00000000
00000000
00030000
00000000
00000000
,
00022000
00000000
00000000
00000000
,
00033000
00000000
00000000
00000000
,
00000000
00000000
00000000
00000000
;

//---------------dance-double - ----------------
#NOTES:
     dance-double:
     :
     Medium:
     12:
     0.610146,0.903172,0.362720,0.562216,0.417128,471.000000,431.000000,40.000000,62.000000,0.000000,0.000000,0.610146,0.903172,0.362720,0.562216,0.417128,471.000000,431.000000,40.000000,62.000000,0.000000,0.000000:
00000000
00000000
00000000
00000000
,
00000000
00000000
00000000
00000000
,
00000000
00000000
00000000
00000000
,
00000000
00000000
00000000
00000000
,
00000000
00000000
00000000
00000000
,
00000000
00000000
00000000
00000000
,
00000001
00000000
00000001
00000000
00000100
00000010
00001000
00000000
,
00000100
00010000
00001000
00100000
00000000
00100000
00001000
00010000
,
00000000
00010000
00002000
00000000
00103000
00001000
00020000
00000000
,
00030010
00010000
00002000
00010000
00003000
00010000
01000000
10000000
,
00100000
00000000
00100000
00000000
10000000
00100000
01000000
00000000
,
00001000
00010000
00000010
00001000
00000000
00001000
00000001
00000010
,
00000000
00000010
00000100
00000000
00010000
00001000
00000100
00000000
,
00000010
00001000
00000100
00000010
00000000
00001000
00010000
01000000
,
10000000
00000000
10000000
00000000
00010000
01000000
00100000
00000000
,
00010000
00001000
00010000
00001000
00000000
00001000
00000100
00000010
,
00000000
00000010
00001000
00000000
00000001
00000010
00000000
00000100
,
00010000
00000000
00001000
00100000
00000000
01000000
00000000
00100000
,
02200000
00000000
00000000
00000000
,
00000000
00000000
00000000
00000000
00000000
00000000
03300000
00010000
,
00002000
00000000
00000000
00020000
00000000
00000000
00000000
00000000
,
00000000
00033000
00010010
00001010
,
00000010
00001000
00000001
00001000
00000000
00000100
00001000
00000000
,
00000001
00000100
00001000
00010000
00000000
00100000
01000000
00000000
,
10100000
00000000
10000000
10000000
00000000
01000000
01000000
00000000
,
00100000
00100000
00000000
00001000
00010000
00001000
00011000
00000000
,
00010000
00000010
00000100
00000001
00001000
00000001
00000100
00000000
,
00000010
00010000
00001000
00000000
00100000
00010000
01000000
00000000
,
00100000
10000000
01000000
00100000
00010000
00100000
01000000
00000000
,
00010000
00001000
00000010
00000000
00000001
00000100
00000010
00000000
,
00001000
00000010
00000100
00000010
00010000
00001000
00100000
00000000
,
00010000
10000000
00100000
00000000
01000000
00010000
10000000
00000000
,
00010000
10000000
01000000
00100000
00010000
00001000
00000100
00000000
,
00000010
00000100
00000010
00000000
00000001
00001000
00000100
00000000
,
00000010
00000010
00000010
00000001
00000100
00001100
,
00010000
00010000
00010000
00001000
00010000
00011000
,
01000000
01000000
01000000
00010000
10000000
10010000
,
00100000
00100000
00100000
01000000
00010000
11000000
,
20000000
30020000
02030000
03002000
00023000
00030020
,
00002030
00003002
00000023
00000230
00020300
00032000
,
02003000
03020000
20030000
30200000
02300000
03020000
,
20030000
00000000
32000000
00000000
03020000
00000000
00032000
00000000
00000000
00003000
00000000
00000000
,
00002000
00000010
00000000
00000010
,
00023000
00100000
00000000
00100000
,
00032000
00000100
00000000
00000100
,
00023000
01000000
00000000
01030000
,
10000000
00100000
10000000
00000000
00010000
01000000
00010000
00000000
,
00001000
00010000
00001000
00000000
00000010
00001000
00000010
00000000
,
00001000
00000001
00000010
00000100
00001000
00000001
00000100
00001000
,
00020000
00000000
00000000
00030000
,
00001000
00100000
01000000
10000000
00010000
10000000
01000000
00000000
,
00100000
00001000
00010000
00000000
00000010
00001000
00000100
00000000
,
00000010
00000001
00000100
00000010
00001000
00000010
00000100
00000000
,
00001000
00010000
00100000
00000000
10000000
01000000
00100000
00000000
,
00010000
00100000
01000000
00100000
00001000
00010000
00000010
00000000
,
00001000
00000001
00000010
00000000
00000100
00001000
00000001
00000000
,
00001000
00000001
00000100
00000010
00001000
00010000
01000000
00000000
,
00100000
01000000
00100000
00000000
10000000
00010000
01000000
00000000
,
00100000
00010000
00001000
00000000
00100000
00010000
00001000
00000100
,
00000000
00000010
00000001
00000000
00000100
00001000
00010000
01000000
,
10000000
01000000
10000000
00000000
00010000
01000000
00100000
10000000
,
00000000
00010000
00100000
00000000
00010000
10000000
01000000
00010000
,
00001000
00010000
00001000
00000000
01000000
00010000
00001000
00000010
,
00000000
00000100
00000010
00000000
00001000
00000100
00000010
00000001
,
00000100
00000010
00000100
00000010
00010000
00001000
00010000
00001000
,
00100000
00010000
10000000
01000000
00100000
00010000
01000000
00000000
,
00100000
00100000
00100000
10000000
01000000
01010000
,
00001000
00001000
00001000
00010000
00001000
00011000
,
00000100
00000100
00000100
00001000
00000001
00001001
,
00000010
00000010
00000010
00000100
00001000
00000101
,
00000002
00002003
00003200
00020300
00032000
00203000
,
00320000
20030000
30200000
02300000
03002000
00023000
,
00030200
00002300
00003002
00000023
00000230
00002300
,
00003002
00000203
00002300
00023000
02030000
23000000
,
30100000
00100000
00100000
01100000
01100000
01100000
,
00010000
00010000
00010000
00011000
00011000
00011000
,
00000010
00000010
00000010
00000110
00000110
00000110
,
00000001
00000001
00000001
00001001
00001001
00001001
,
00000001
00000100
00000101
00001000
00000100
00001100
,
00010000
00001000
00011000
00100000
00010000
00110000
,
10100000
10100000
10100000
01100000
01100000
01100000
,
01010000
00000000
01010000
00000000
01010000
00000000
00022000
00000000
00000000
00033000
00000000
00000000
,
00002020
00000000
00000000
00000000
,
00003030
00000000
00000000
00000000
,
00000000
00000000
00000000
00000000
;

//---------------dance-double - ----------------
#NOTES:
     dance-double:
     :
     Hard:
     16:
     0.896436,0.978436,0.943071,0.172292,0.788915,692.000000,588.000000,104.000000,19.000000,0.000000,0.000000,0.896436,0.978436,0.943071,0.172292,0.788915,692.000000,588.000000,104.000000,19.000000,0.000000,0.000000:
00000000
00000000
00000000
00000000
,
00000000
00000000
00000000
00000000
,
00000000
00000000
00000000
00000000
,
00000000
00000000
00000000
00000000
,
00000000
00000000
00000000
00000000
,
00000000
00000000
00000000
00000000
,
00100000
10000000
00100000
10000000
00010000
00100000
00001000
00010000
,
00000010
00000100
00000010
00000100
00000001
00000010
00000100
00001000
,
00000010
00010000
00002000
00000000
01003000
00001000
00020000
00000000
,
00031000
00100000
00001000
00010000
00100000
10000000
01000000
00100000
,
00010000
10000000
00010000
10000000
01000000
00010000
00001000
00000010
,
00000001
00001000
00000001
00001000
00000001
00000100
00001000
00010000
,
00100000
01000000
00020000
00000000
00130000
00001000
02000000
00000000
,
03010000
00100000
00001000
01000000
00001000
00010000
00000100
00001000
,
00000001
00000010
00000001
00000010
00000100
00001000
00000100
00001000
,
00000010
00010000
00000010
00010000
00001000
01000000
00001000
01000000
,
00010000
10000000
00100000
01000000
00010000
10000000
01000000
00010000
,
00001000
00000010
00000001
00001000
00000010
00000100
00000001
00000010
,
00002002
00000000
00000000
00000000
,
00000000
00000000
00000000
00000000
00000000
00000000
00003003
00000010
,
00010000
00000000
00000000
00022000
00000000
00000000
00000000
00000000
,
00000000
00033000
00110000
10010000
,
01000000
00000000
01000000
00000000
10000000
00000000
00010000
00100000
00010000
00100000
00010000
00000000
01000000
00000000
00001000
00010000
,
00001000
00000000
00010000
00000000
00000010
00000000
00001000
00000001
00001000
00000001
00001000
00000000
00000100
00000000
00010000
00001000
,
00010000
00001000
00100000
00110000
00000000
01000000
01100000
00000000
,
10000000
10010000
00000000
00100000
00010000
00001000
00011000
00000000
,
00001000
00000000
00000100
00000000
00000010
00000000
00001000
00000100
00001000
00000000
00000100
00000000
00010000
00001000
00010000
00000000
,
00001000
00100000
00001000
00000000
00010000
00000000
00100000
00000000
10000000
00000000
01000000
00000000
00100000
00000000
01000000
00000000
,
00100000
00000000
00100000
00000000
00001000
00000000
00010000
00001000
00010000
00000000
00000010
00000000
00001000
00000001
00001000
00000000
,
00000100
00000010
00000100
00000000
00000010
00000000
00000001
00000000
00000100
00000000
00000010
00000000
00000100
00000000
00001000
00000000
,
00010000
00001000
00010000
00000000
00000100
00000000
00010000
00001000
00010000
00000000
00001000
00000000
00100000
00010000
00100000
00000000
,
00010000
01000000
00100000
00000000
10000000
00000000
01000000
00000000
00100000
00000000
01000000
00000000
00010000
00000000
00001000
00000000
,
00000010
00000100
00000010
00000000
00000100
00000000
00001000
00000001
00001000
00000000
00000010
00000000
00000100
00000010
00000100
00000000
,
00000010
00001000
00000001
00000000
00000010
00000000
00000100
00000000
00001000
00000000
00000010
00000000
00010000
00000000
00001000
00000000
,
00011000
00011000
00011000
00110000
00011000
00110000
,
10100000
10100000
10100000
10010000
10100000
10010000
,
01010000
01010000
01010000
00011000
01010000
00011000
,
00001010
00001010
00001010
00000011
00001001
00000011
,
00000101
00000101
00000110
00000110
00000110
00001010
,
00010010
00010010
00011000
00101000
00101000
00110000
,
10100000
11000000
01010000
01001000
00011000
00010100
,
00001100
00000000
00000110
00000000
00000011
00000000
00002002
00000000
00000000
00003003
00000000
00000000
,
00000002
00000100
00000000
00000100
,
00002003
00000100
00000000
00000100
,
00023000
00100000
00000000
00100000
,
20030000
00100000
00000000
00100000
,
30010000
00100000
00010000
00100000
01000000
00100000
01000000
00100000
,
01000000
00010000
01000000
00010000
00001000
00000100
00001000
00000100
,
00000001
00000010
00000001
00000010
00000100
00010000
00000100
00010000
00001000
00100000
00001000
00100000
01000000
10000000
01000000
10000000
,
00020000
00000000
00000000
00030000
,
10000000
00000000
01000000
00000000
00100000
00000000
00010000
01000000
00010000
00000000
01000000
00000000
00001000
00010000
00001000
00000000
,
00010000
00000010
00010000
00000000
00001000
00000000
00000010
00000000
00000001
00000000
00000100
00000000
00000010
00000000
00000100
00000000
,
00000010
00000000
00000010
00000000
00010000
00000000
00001000
00010000
00001000
00000000
00100000
00000000
00010000
10000000
00010000
00000000
,
01000000
00100000
01000000
00000000
00100000
00000000
10000000
00000000
01000000
00000000
00100000
00000000
01000000
00000000
00010000
00000000
,
00001000
00010000
00001000
00000000
01000000
00000000
00001000
00010000
00001000
00000000
00010000
00000000
00000010
00001000
00000010
00000000
,
00001000
00000100
00000010
00000000
00000001
00000000
00000100
00000000
00000010
00000000
00000100
00000000
00001000
00000000
00010000
00000000
,
00100000
01000000
00100000
00000000
01000000
00000000
00010000
10000000
00010000
00000000
00100000
00000000
01000000
00100000
01000000
00000000
,
00100000
00010000
10000000
00000000
00100000
00000000
01000000
00000000
00010000
00000000
00100000
00000000
00001000
00000000
00010000
00000000
,
00001000
00010000
00000100
00000000
00001000
00000000
00000100
00000010
00000100
00000000
00000010
00000000
00000001
00000100
00000001
00000000
,
00000100
00000010
00000100
00000000
00001000
00000000
00010000
00001000
00010000
00000000
00001000
00000000
00100000
00000000
01000000
00000000
,
10000000
01000000
00100000
00000000
01000000
00000000
10000000
00010000
10000000
00000000
00100000
00000000
01000000
00100000
01000000
00000000
,
00001000
00010000
00001000
00000000
00010000
00000000
00000010
00001000
00000010
00000000
00000100
00000000
00000001
00000000
00001000
00000000
,
00000100
00001000
00000100
00000000
00010000
00000000
00000010
00001000
00000010
00000000
00010000
00000000
00000100
00001000
00000100
00000000
,
00010000
00001000
00010000
00000000
00001000
00000000
00100000
00010000
00100000
00000000
01000000
00000000
10000000
00000000
00100000
00000000
,
01000000
00010000
01000000
00000000
00001000
00000000
00100000
00010000
00100000
00000000
00001000
00000000
01000000
00010000
01000000
00000000
,
00001000
00010000
00001000
00000000
00010000
00000000
00000010
00001000
00000010
00000000
00001000
00000000
00000100
00000000
00000010
00000000
,
00000011
00000011
00000011
00001100
00011000
00001100
,
00011000
00011000
00011000
00110000
10010000
00110000
,
01010000
01010000
01010000
00011000
01010000
00011000
,
00001010
00001010
00001010
00000011
00001001
00000011
,
00000101
00000101
00000110
00000110
00000110
00001010
,
00010010
00010010
00011000
00101000
00101000
00110000
,
10100000
11000000
01010000
01001000
00011000
00010100
,
00001100
00000110
00000011
00000101
00000110
00001010
,
00000001
00001000
00000100
00010000
00001000
01000000
00010000
00000000
00010000
00000000
00010000
00000000
,
10000000
00010000
01000000
00001000
00010000
00000100
00001000
00000000
00001000
00000000
00001000
00000000
,
00000001
00001000
00000010
00010000
00001000
00100000
00010000
00000000
00010000
00000000
00010000
00000000
,
10000000
00010000
00100000
00001000
00010000
00000010
00001000
00000000
00001000
00000000
00001000
00000000
,
00000001
00000100
00000001
00000100
00000010
00001000
00000100
00010000
00000100
00010000
00001000
00100000
,
00010000
10000000
00010000
10000000
00100000
01000000
00010000
01000000
00010000
01000000
00010000
10000000
,
01000000
00100000
00010000
01000000
00001000
00010000
00000010
00001000
00000100
00000010
00000001
00000100
,
00000010
00000000
00001000
00000000
00000001
00000000
00002002
00000000
00000000
00003003
00000000
00000000
,
00000220
00000000
00000000
00000000
,
00000330
00000000
00000000
00000000
,
00000000
00000000
00000000
00000000
;

//---------------dance-single - ----------------
#NOTES:
     dance-single:
     :
     Challenge:
     17:
     1.108886,1.166597,1.051887,0.489672,1.283121,856.000000,740.000000,116.000000,54.000000,0.000000,0.000000,1.108886,1.166597,1.051887,0.489672,1.283121,856.000000,740.000000,116.000000,54.000000,0.000000,0.000000:
// measure 0
0000
0000
0000
0000
,  // measure 1
0000
0000
0000
0000
,  // measure 2
0000
0000
0000
0000
,  // measure 3
0000
0000
0000
0000
,  // measure 4
0000
0000
0000
0000
,  // measure 5
0000
0000
0000
0000
,  // measure 6
1010
0002
0100
0103
0020
1000
1030
0100
,  // measure 7
0010
0001
0100
0000
0001
0000
0010
1000
0010
0000
0001
0100
0010
0000
0200
0001
,  // measure 8
0310
0000
0001
0000
1002
0000
0100
0000
0103
0000
0010
0000
1000
0100
0001
0000
,  // measure 9
0100
1000
0010
0000
0001
0000
0010
1000
0100
0000
0010
0100
0010
0001
0010
0000
,  // measure 10
0100
0020
0001
1030
0020
0001
0130
1000
,  // measure 11
0200
0000
0010
0000
0301
1000
0010
0000
0100
0001
0100
0000
0100
0010
1000
0010
,  // measure 12
0200
0001
2300
0100
3010
0100
0002
0100
,  // measure 13
1003
0010
0100
0000
0001
0000
0010
0100
1000
0000
0100
0010
0001
0010
0100
0000
,  // measure 14
1000
0000
0002
0000
0100
0000
0013
0000
2100
0000
0010
0000
3100
0000
0010
0100
,  // measure 15
0001
0000
1000
0000
0010
0000
0100
0001
0010
0000
0100
1000
0010
0000
2000
0000
,  // measure 16
0100
3100
1001
0000
0101
2002
3003
1010
,  // measure 17
2200
3300
1001
0202
0303
1001
0000
1001
,  // measure 18
0220
0000
0000
0000
,  // measure 19
0000
0000
0000
0000
0000
0000
0330
0001
,  // measure 20
1000
0010
1000
0100
0010
0001
0000
1001
,  // measure 21
0000
1000
0100
0001
1001
0000
0101
0000
,  // measure 22
0001
0010
0001
0100
0001
0000
0100
0010
0100
1000
0010
1000
0001
0000
1000
0010
,  // measure 23
0100
0000
0001
0010
0100
0000
1000
0000
0100
0001
0100
1000
0010
0000
1001
0000
,  // measure 24
1001
0000
1000
0010
0100
0000
0101
0000
0001
0010
0100
0000
1100
0000
1000
0000
,  // measure 25
0100
0000
0110
0000
0010
0001
0100
0010
0100
0001
0010
0100
1000
0001
1000
0001
,  // measure 26
1000
0010
0100
0010
1000
0001
0100
0000
0010
1000
0001
0010
0001
0100
0001
0000
,  // measure 27
0100
0010
0100
0001
0010
0000
0100
0000
0010
1000
0010
0100
0010
1000
0010
0000
,  // measure 28
0100
0000
0001
0010
0001
0000
0010
0000
0100
1000
0100
0000
1000
0000
0001
0100
,  // measure 29
0001
0000
1000
0010
1000
0100
0001
0000
0100
1000
0010
0100
0010
0001
0010
0000
,  // measure 30
0100
0001
1000
0001
0010
0000
0001
1000
0010
1000
0100
0000
0001
1000
0100
0000
,  // measure 31
0010
0100
0001
0100
0010
0000
1000
0010
0100
0001
0100
0010
1000
0010
0100
0000
,  // measure 32
0001
0000
1000
0010
0100
0000
0001
1000
0010
0100
0010
0000
0100
0000
0001
0010
,  // measure 33
0100
1000
0001
0000
0100
0010
1000
0010
0100
0001
0010
0001
0100
0010
0100
0000
,  // measure 34
1100
0000
0110
0000
0011
0000
0101
0000
1100
0000
0101
0000
,  // measure 35
0011
0000
1010
0000
0011
0000
1100
0000
0110
0000
1001
0000
,  // measure 36
0110
0000
1010
0000
0011
0000
1001
0000
1010
0000
0110
0000
,  // measure 37
0101
0000
1001
0000
1010
0000
0110
0000
0101
0000
1010
0000
,  // measure 38
1001
0000
0101
0000
0110
0000
1010
0000
1100
0000
1010
0000
,  // measure 39
0011
0000
0101
0000
1010
0000
1100
0000
0011
0000
1001
0000
,  // measure 40
0110
0000
0011
0000
1001
0000
0011
0000
1001
0000
1100
0000
,  // measure 41
0011
0000
0000
0000
0000
0000
0000
0000
1001
0000
0000
0000
0000
0000
0000
0000
1010
0000
0000
0000
0000
0000
0000
0000
0010
0000
0000
0000
0000
0000
0100
0000
0000
0000
0000
0000
0001
0000
0000
0010
0000
0000
0100
0000
0000
0010
0000
0000
,  // measure 42
0001
1000
0001
1000
0010
1000
0001
1000
,  // measure 43
0010
0100
0001
0100
0010
1000
0100
1000
,  // measure 44
0001
0010
0100
1000
0100
0010
0001
1000
,  // measure 45
0001
0100
0010
0100
0001
1000
0010
1000
,  // measure 46
1001
0010
0100
0010
1000
0010
0100
0010
,  // measure 47
1000
0010
0001
0100
0010
0100
0001
0100
,  // measure 48
0010
1000
0100
0010
0001
0100
0001
0100
0010
1000
0010
0100
0001
0010
0100
1000
,  // measure 49
0002
0000
0000
0000
0000
0000
1003
0010
1000
0000
0010
0000
0100
0000
0001
0000
,  // measure 50
0010
1000
0010
0000
0001
0000
0100
0010
0200
0000
0001
0000
1300
0010
0100
0000
,  // measure 51
0001
0010
0100
1000
0001
0000
0100
0010
0100
0001
1000
0001
0010
0100
1000
0000
,  // measure 52
0001
0010
0001
1000
0200
0000
0310
0100
0010
0100
0002
0000
1003
0010
2000
0000
,  // measure 53
3001
0010
0002
0000
0103
0000
0010
1000
0010
0100
0001
0010
0002
0000
0203
0000
,  // measure 54
0310
0001
1000
0010
2000
0000
3100
0010
0002
0000
0203
0000
1300
0010
0100
0000
,  // measure 55
0010
1000
0001
0000
0010
0000
0100
1000
0001
0000
1000
0001
0020
0000
0230
0000
,  // measure 56
1300
0001
0010
0000
0100
0001
1000
0001
0100
0010
0100
0000
1000
0000
0010
0100
,  // measure 57
0001
0000
1000
0010
0100
0010
1000
0010
0100
0001
0100
0010
1000
0010
0100
0000
,  // measure 58
0001
0010
0001
0010
0200
0000
1300
0010
1000
0010
0200
0000
0301
0000
1000
0001
,  // measure 59
1000
0010
0100
0001
0200
0000
0310
0100
1000
0001
0010
0001
0010
0001
0200
0000
,  // measure 60
0301
0010
0001
0100
0001
0000
1000
0010
1000
0010
0200
0000
0301
0010
0200
0000
,  // measure 61
0301
0010
0100
1000
0020
0000
0130
0001
0010
0100
1000
0100
1000
0001
2000
0000
,  // measure 62
3010
0100
0001
0100
0020
0000
1030
0010
1000
0001
0200
0000
0301
0000
0001
1000
,  // measure 63
0001
0000
0100
1000
0100
0001
2000
0000
3100
0010
0100
0010
0001
1000
0002
0000
,  // measure 64
0103
0010
0001
0010
0002
0000
1003
0100
1000
0100
2000
0000
3001
0100
0001
0000
,  // measure 65
0001
0010
0001
0100
0001
1000
0001
0010
0001
0100
0001
0010
0001
0100
0001
0000
,  // measure 66
1001
0000
1100
0000
1010
0000
0101
0000
1010
0000
1001
0000
,  // measure 67
0101
0000
0110
0000
1010
0000
1010
0000
0011
0000
1010
0000
,  // measure 68
1100
0000
0101
0000
1100
0000
1001
0000
0101
0000
1100
0000
,  // measure 69
0101
0000
0011
0000
0110
0000
1100
0000
1001
0000
0101
0000
,  // measure 70
0110
0000
1010
0000
1100
0000
0110
0000
0101
0000
1100
0000
,  // measure 71
0101
0000
0011
0000
0110
0000
1100
0000
1010
0000
0011
0000
,  // measure 72
1010
0000
1100
0000
0101
0000
1100
0000
1001
0000
0011
0000
,  // measure 73
1100
0000
1001
0000
0110
0000
1100
0000
0110
0000
0011
0000
,  // measure 74
0010
0100
0010
0100
1000
0200
0010
0000
0001
0000
0310
0000
,  // measure 75
0100
1000
0001
0010
0001
0020
1000
0000
0001
0000
1030
0000
,  // measure 76
0010
1000
0010
0100
0001
0200
0010
0000
0001
0000
0310
0000
,  // measure 77
0100
1000
0001
0010
0001
0200
0010
0000
1000
0000
0310
0000
,  // measure 78
0100
0001
0010
0100
1000
0100
0010
0001
0100
0010
1000
0100
,  // measure 79
0001
0100
1000
0010
0001
0010
1000
0100
0010
0001
0100
0010
,  // measure 80
1000
0100
0010
1000
0010
0001
0100
0010
1000
0010
0001
0010
,  // measure 81
1000
0000
0000
0000
0100
0000
0000
0000
0010
0000
0000
0000
0001
0000
0000
0000
0010
0000
0000
0000
0100
0000
0000
0000
0010
0000
0000
0000
0000
0000
0100
0000
0000
0000
0000
0000
1000
0000
0000
0001
0000
0000
1000
0000
0000
0000
0000
0000
,  // measure 82
0220
0000
0000
0000
,  // measure 83
0330
0000
0000
0000
;
