#TITLE:PARANOiA-Respect-;
#SUBTITLE:;
#ARTIST:.3k;
#TITLETRANSLIT:;
#SUBTITLETRANSLIT:;
#ARTISTTRANSLIT:;
#GENRE:;
#CREDIT:;
#BANNER:PARANOiA -Respect-.png;
#BACKGROUND:PARANOiA -Respect--bg.png;
#LYRICSPATH:;
#CDTITLE:;
#MUSIC:PARANOiA -Respect-.mp3;
#OFFSET:-0.024000;
#SAMPLESTART:0.380000;
#SAMPLELENGTH:15.000000;
#SELECTABLE:YES;
#DISPLAYBPM:300.000000;
#BPMS:0.000000=300.000000
,68.000000=299.679993
,99.000000=300.000000
,192.000000=300.309998
,256.000000=300.600006
,323.000000=300.059998
;
#STOPS:68.000000=0.607000,
99.000000=0.187000,
192.000000=0.407000,
256.000000=0.427000,
323.000000=0.820000
;
#BGCHANGES:;
#KEYSOUNDS:;
#ATTACKS:;

//---------------dance-single - ----------------
#NOTES:
     dance-single:
     :
     Easy:
     8:
     0.512802,0.584672,0.177998,0.098888,0.000000,363.000000,345.000000,18.000000,10.000000,0.000000,0.000000,0.512802,0.584672,0.177998,0.098888,0.000000,363.000000,345.000000,18.000000,10.000000,0.000000,0.000000:
0000
0000
0000
0000
,
0000
0000
0000
0000
,
0000
0000
0000
0000
,
0000
0000
0000
0000
,
0000
0000
0000
0000
,
0010
0010
0010
0000
,
0001
0000
1000
0000
,
0010
0010
0010
0000
,
0001
0000
0100
0000
,
1000
1000
1000
0000
,
0010
0000
0100
0000
,
0001
0001
0001
0000
,
1000
0000
0010
0000
,
0100
0100
0100
0000
,
1000
0000
0100
0000
,
0010
0010
0010
0000
,
0001
0000
0100
0000
,
0000
0010
1000
0001
,
0100
0001
0100
0001
,
0100
1000
0100
0001
,
0100
0001
0100
0001
,
0000
0010
1000
0100
,
1000
0001
1000
0100
,
0010
0100
1000
0010
,
0100
1000
0100
1001
,
0010
0001
1000
0100
,
1000
0100
1000
0100
,
0001
0100
1000
0100
,
1000
0100
1000
0000
,
0010
0001
0100
0001
,
1000
0001
0100
0010
,
0100
0001
0010
0100
,
1000
0010
0100
0000
,
0001
0001
1000
0000
,
0010
0010
0100
0000
,
1000
1000
0010
0010
,
0100
0100
0001
0000
,
0010
0100
0010
0000
,
1000
0001
1000
0000
,
0110
0000
0001
1001
,
0000
0000
0000
0000
,
1000
1000
0001
0001
,
0010
0010
0100
0100
,
1000
0001
1000
0001
,
0100
0100
0010
0000
,
1000
0100
1000
0000
,
0001
0100
0001
0000
,
1001
0000
0100
0110
,
0000
0000
1001
0000
,
0100
0000
0001
1000
,
0010
1000
1010
0000
,
0100
0000
1000
0001
,
0100
0000
1100
0000
,
1000
0000
0010
1000
,
0100
0010
0110
0000
,
0001
0000
1000
0010
,
0100
0000
0101
0000
,
0100
0000
1000
0100
,
0010
0001
0011
0000
,
1000
0000
0001
0100
,
0010
0000
0110
0000
,
1000
0000
0010
0100
,
0001
0010
0110
0000
,
1000
0000
1000
0100
,
0001
1000
0100
1000
,
0100
1000
0001
0000
,
0001
1000
0100
1000
,
0010
1000
0001
0000
,
1000
0001
0100
0001
,
0100
0001
1000
0000
,
1000
0001
0100
0001
,
0010
0001
1000
0001
,
1000
0100
1000
0000
,
0001
0100
0001
0000
,
0010
0100
1000
0000
,
0010
0100
0001
0000
,
0010
1000
0100
0001
,
0100
1000
0010
0000
,
0001
0010
1000
0010
,
0001
0100
0010
0100
,
1000
0000
0100
0000
0010
0000
0200
0300
,
0010
0000
0010
0000
,
0010
0000
0010
0000
,
1000
0000
1000
0000
,
1000
0000
1000
0000
,
0001
0000
0001
0000
,
0001
0000
0001
0000
,
0010
0000
0000
0100
0000
0000
1000
0000
,
0000
0010
0000
0000
0100
0000
0001
0000
,
0102
0000
0100
0000
,
1000
0000
1000
0000
,
0100
0000
0100
0000
,
0010
0000
0013
0000
,
2000
0000
3100
0000
,
0002
0000
0013
0000
,
2000
0000
3200
0000
,
0320
0032
0203
0320
,
0030
0000
0000
0000
,
0001
1000
0010
0100
,
0001
1000
0100
0000
,
0001
0100
1000
0100
,
0001
0100
1000
0000
,
0010
1000
0100
0001
,
0100
1000
0100
0000
,
1000
0001
0100
0010
,
1000
0001
0100
0000
,
0010
0001
1000
0100
,
0010
1000
0001
0000
,
0100
0010
0001
0100
,
1000
0100
0001
0000
,
0010
1000
0100
0001
,
0100
0010
0100
1000
,
0010
0100
0001
1000
,
0100
0010
0100
1000
,
0001
0100
0010
1000
,
0000
0000
0000
0010
,
0000
1001
0000
0000
0100
0000
0000
1001
,
0000
0000
0010
0000
0000
0110
0000
0000
,
0001
1001
0000
0000
;

//---------------dance-single - ----------------
#NOTES:
     dance-single:
     :
     Medium:
     11:
     0.634293,0.877009,0.355995,0.266996,0.000000,449.000000,413.000000,36.000000,27.000000,0.000000,0.000000,0.634293,0.877009,0.355995,0.266996,0.000000,449.000000,413.000000,36.000000,27.000000,0.000000,0.000000:
0000
0000
0000
0000
,
0000
0000
0000
0000
,
0000
0000
0000
0000
,
0000
0000
0000
0000
,
0000
0000
0000
0000
,
1010
0000
0000
0001
0000
0100
0000
0000
,
0000
0001
0010
0100
,
1100
0000
0000
0010
0000
0100
0000
0000
,
0000
0001
1000
0100
,
0110
0000
0000
0001
0000
0100
0000
0000
,
0000
1000
0100
0001
,
0101
0000
0000
1000
0000
0010
0000
0000
,
0000
0100
0001
0010
,
0110
0000
0000
1000
0000
0001
0000
0000
,
0000
0010
0001
0100
,
0101
0000
0000
0010
0000
1000
0000
0000
,
0000
0100
0010
0001
,
0000
1010
0001
0100
,
0001
0100
0001
0101
,
1000
1100
0010
0001
,
0100
0001
0100
0101
,
0010
0110
1000
0100
,
1000
0100
1000
0010
,
0100
0101
0001
0100
,
1000
0100
0001
1001
,
0011
1000
0100
1000
,
0100
1000
1100
0001
,
0101
0010
1000
0100
,
1000
0100
1100
0010
,
0110
0001
0100
0001
,
0100
0001
0010
0100
,
1100
1000
0100
0001
,
0100
0000
1000
0000
0001
1000
0001
1000
,
0010
0010
0100
0100
,
0001
0000
0001
0000
1000
0100
1000
0000
,
0100
0100
0010
0010
,
0001
0000
0001
0100
0000
0100
1000
0000
,
0100
0100
0001
0001
,
0010
0000
0010
0000
0100
1000
0100
0000
,
1100
0000
0001
0101
,
0000
0000
0000
0000
,
0010
0010
0100
0100
,
1000
0000
1000
0000
0001
0100
0001
0000
,
0100
0100
0010
0010
,
1000
0010
1000
0000
0100
0000
0100
0000
,
0010
0010
0001
0001
,
0010
0001
0010
0000
0001
0100
0001
0100
,
0001
1000
0100
1100
,
0000
0000
1001
0100
,
1000
0000
0010
0000
0000
0100
0001
0000
,
1000
0100
1100
0010
,
0001
0000
0100
0000
0000
0010
1000
0000
,
0001
0000
0011
0100
,
1000
0000
0010
0000
0000
0010
0100
0000
,
0001
1000
1001
0100
,
0010
0000
0001
0000
0000
1000
0001
0000
,
0100
0000
1001
0010
,
0100
0000
0001
0000
0000
1000
0100
0000
,
0010
0001
0011
0100
,
0010
0000
1000
0000
0000
0001
0100
0000
,
0010
0000
0110
0100
,
1000
0000
0100
0000
0000
0100
0001
0000
,
0010
0100
0110
1000
,
0001
0000
1000
0001
1000
0001
1000
0000
,
0010
0000
1000
0100
0000
0100
0010
0000
,
0010
0001
0000
0001
0100
0000
0000
0000
,
0000
0000
0010
1000
0000
1000
0001
0000
,
0001
0010
0000
0010
0100
0000
0000
0000
,
0000
0000
1000
0001
0000
0001
1000
0000
,
1000
0010
0000
0010
0100
0000
0000
0000
,
0000
0000
0001
1000
0000
1000
0001
0000
,
0001
0010
0000
0010
0100
0000
1000
0000
,
0010
1000
0100
0001
,
0100
1000
0010
0100
,
0001
0100
1000
0100
,
0001
0010
0100
1000
,
0001
0000
0001
0000
1000
0001
1000
0000
,
0001
0000
0001
0000
1000
0100
1000
0000
,
0010
0000
0010
0000
0100
0001
0100
0000
,
0010
0000
0010
0000
0010
1000
0001
0010
,
0100
1000
0001
0100
0010
1000
0100
0000
,
0110
0000
0010
0000
,
0010
0000
0010
0000
,
0001
0000
0001
0000
,
0001
0000
0001
0000
,
1000
0000
1000
0000
,
0001
0000
0001
0000
,
0010
0000
0000
1000
0000
0000
0100
0000
,
0000
0001
0000
0000
0010
0000
1000
0000
,
2002
0000
0000
0000
,
0000
0000
0000
0000
,
0000
0000
0000
0000
,
0000
0000
3003
0000
,
0002
0000
0013
0000
,
2000
0000
3010
0000
,
0002
0000
0023
0000
,
0230
2300
3020
0032
,
0003
0000
0000
0000
,
2000
3100
0010
0001
,
0200
0310
1000
0100
,
0002
0103
1000
0010
,
0200
0301
0010
0100
,
2000
3010
0100
1000
,
0100
0001
1000
0100
,
0020
0031
0100
0010
,
0002
0013
1000
0100
,
0020
0031
1000
0010
,
0200
0301
0010
0100
,
2000
3010
0100
0001
,
2000
3010
0100
0001
,
0020
1030
0010
0001
,
0200
1300
0100
0001
,
2000
3100
0010
0001
,
2000
3010
0100
1000
,
0200
0301
0010
0100
,
2000
0000
3010
0000
0000
0000
0010
0001
,
0000
0101
0000
0000
0010
1000
0000
1100
,
0000
0000
0010
0100
0000
0110
0000
0000
,
0001
1001
0000
0000
;

//---------------dance-single - ----------------
#NOTES:
     dance-single:
     :
     Hard:
     16:
     0.816528,0.993943,0.227441,0.177998,0.000000,578.000000,555.000000,23.000000,18.000000,0.000000,0.000000,0.816528,0.993943,0.227441,0.177998,0.000000,578.000000,555.000000,23.000000,18.000000,0.000000,0.000000:
// measure 0
0000
0000
0000
0000
,  // measure 1
0000
0000
0000
0000
,  // measure 2
0000
0000
0000
0000
,  // measure 3
0000
0000
0000
0000
,  // measure 4
0000
0000
0000
0000
,  // measure 5
0010
0000
0000
1000
0000
0100
0000
0000
,  // measure 6
0000
1000
0001
1000
0010
0100
0001
1000
,  // measure 7
0010
0000
0000
1001
0000
0100
0000
0000
,  // measure 8
0000
0001
1000
0001
0010
0100
1000
0001
,  // measure 9
0100
0000
0000
1001
0000
0001
0000
0000
,  // measure 10
0000
0010
0001
1000
0001
0010
0100
1000
,  // measure 11
0010
0000
0000
1001
0000
0100
0000
0000
,  // measure 12
0000
1000
0001
1000
0010
0100
0001
1000
,  // measure 13
0100
0000
0000
0001
0000
1000
0000
0000
,  // measure 14
0000
0010
1000
0001
1000
0010
0100
0001
,  // measure 15
0010
0000
0000
0100
0000
1000
0000
0000
,  // measure 16
0000
0001
1000
0001
0010
0100
1000
0010
,  // measure 17
0000
0000
0110
0000
1000
0001
1000
0100
,  // measure 18
0000
0000
0001
1000
0001
0100
0000
0001
,  // measure 19
0010
0001
0000
1000
0010
1000
0000
0100
,  // measure 20
0010
1000
1100
0001
,  // measure 21
0101
0000
0000
0000
0001
1000
0001
0010
,  // measure 22
0000
0000
1000
0001
1000
0010
0000
0001
,  // measure 23
0100
0001
0000
1000
0100
0000
0001
0100
,  // measure 24
0000
1000
0010
0001
0010
1000
0100
0000
,  // measure 25
0110
0000
0001
1000
0001
0010
0000
0000
,  // measure 26
1000
0001
1000
0010
0000
0100
0001
0100
,  // measure 27
0000
1000
0100
1000
0000
0100
0001
0000
,  // measure 28
0010
0011
0100
1100
,  // measure 29
0000
0000
1000
0001
1000
0100
0000
0000
,  // measure 30
0001
1000
0001
0100
0000
1000
0010
1000
,  // measure 31
0000
0001
0010
0000
1000
0010
0000
0001
,  // measure 32
0100
1000
0100
0001
0010
0100
1000
0010
,  // measure 33
0100
0100
0001
0001
,  // measure 34
0010
0000
0010
0000
0100
0001
0100
0000
,  // measure 35
1000
1000
0010
0010
,  // measure 36
0100
0000
1000
0100
0000
0100
0001
0000
,  // measure 37
0010
0010
0100
0100
,  // measure 38
1000
0000
0001
1000
0001
1000
0010
0000
,  // measure 39
0110
0100
0010
1001
,  // measure 40
0000
0000
1000
0001
1000
0001
1000
0000
,  // measure 41
0100
0100
1000
1000
,  // measure 42
0010
0000
0010
0000
0100
1000
0100
0000
,  // measure 43
0001
0001
0010
0010
,  // measure 44
0100
0000
0001
0100
0000
0100
1000
0000
,  // measure 45
0010
0010
0100
0100
,  // measure 46
0001
1000
0001
0000
0010
0100
0010
0100
,  // measure 47
0010
0001
1000
1001
,  // measure 48
0000
0000
1001
0001
,  // measure 49
0100
0000
1000
0000
0100
0001
0010
0000
,  // measure 50
0100
1000
1001
0001
,  // measure 51
0010
0000
0100
0000
1000
0001
0100
0000
,  // measure 52
0010
0000
1010
1000
,  // measure 53
0100
0000
0010
0000
0001
0010
0001
0000
,  // measure 54
0100
0010
0110
1000
,  // measure 55
0100
0000
0001
0000
0100
0001
0100
0000
,  // measure 56
1000
0000
0101
1000
,  // measure 57
0100
0000
1000
0000
0001
0010
0100
0000
,  // measure 58
1000
0010
0101
1000
,  // measure 59
0010
0000
0001
0000
0010
1000
0100
0000
,  // measure 60
0010
0000
1100
0001
,  // measure 61
0100
0000
1000
0000
0100
0010
1000
0000
,  // measure 62
0001
1000
1001
0001
,  // measure 63
0010
0000
0100
1000
0001
1000
0010
0000
,  // measure 64
0100
0000
0001
0100
0001
0100
0010
0000
,  // measure 65
0001
0100
0001
0100
1000
0000
0000
0000
,  // measure 66
0000
0000
0001
0010
0001
0010
0100
0000
,  // measure 67
0001
0010
0001
0010
1000
0000
0000
0000
,  // measure 68
0000
0000
1000
0100
1000
0100
0010
0000
,  // measure 69
1000
0100
1000
0100
0001
0000
0000
0000
,  // measure 70
0000
0000
1000
0010
1000
0010
0100
0000
,  // measure 71
1000
0010
1000
0010
0001
0000
1000
0000
,  // measure 72
0001
1000
0001
0000
1000
0001
1000
0000
,  // measure 73
0010
1000
0010
0000
1000
0100
1000
0000
,  // measure 74
0100
0010
0100
0000
0010
0001
0010
0000
,  // measure 75
0100
1000
0100
0000
1000
0010
1000
0000
,  // measure 76
0010
0001
0010
0000
0100
0010
0100
0000
,  // measure 77
1000
0100
1000
0000
0001
0100
0001
0000
,  // measure 78
1000
0001
1000
0000
0001
0100
0010
1000
,  // measure 79
0100
0010
0001
0100
0010
1000
0100
0010
,  // measure 80
0001
0100
0010
1000
0100
0010
0002
0000
,  // measure 81
0010
0000
0010
0000
,  // measure 82
0100
0000
0100
0000
,  // measure 83
0010
0000
0010
0000
,  // measure 84
0100
0000
0203
0000
,  // measure 85
1000
0000
1000
0000
,  // measure 86
0001
0000
0001
0300
,  // measure 87
0010
0000
0000
1000
0000
0000
0100
0000
,  // measure 88
0000
0001
0000
0000
0010
0000
1000
0000
,  // measure 89
2100
0000
0010
0000
,  // measure 90
0100
0000
0010
0000
,  // measure 91
0100
0000
0001
0000
,  // measure 92
0100
0000
3010
0100
,  // measure 93
0002
0000
0010
0000
,  // measure 94
0100
0000
0020
0003
,  // measure 95
1000
0000
0032
0000
,  // measure 96
2003
3020
0230
0002
,  // measure 97
0303
0000
0000
0000
,  // measure 98
0001
1000
0010
0100
0001
0010
0100
2000
,  // measure 99
0010
3100
0001
1000
0100
0000
0000
0000
,  // measure 100
0010
0001
0010
0100
1000
0010
0100
0002
,  // measure 101
0010
0103
0010
0001
0100
0010
0000
0010
,  // measure 102
0100
1000
0100
0010
1000
0100
0001
0200
,  // measure 103
0010
0301
1000
0010
0100
0000
0000
0000
,  // measure 104
0001
0100
0010
1000
0100
0001
0100
2000
,  // measure 105
0010
3100
0010
1000
0001
0010
0000
0010
,  // measure 106
0100
1000
0001
1000
0010
0100
1000
0200
,  // measure 107
0010
1300
0001
0010
1000
0000
0000
0000
,  // measure 108
0010
0100
0010
0100
1000
0001
0100
0020
,  // measure 109
0100
0031
0100
0001
0010
0100
0000
0100
,  // measure 110
0010
1000
0010
0100
1000
0100
0010
0200
,  // measure 111
0010
0301
1000
0010
0100
0000
0000
0000
,  // measure 112
1000
0100
0010
0001
0100
0010
0100
2000
,  // measure 113
0100
3001
0010
0100
0001
0100
1000
0001
,  // measure 114
0000
1000
0000
0001
0000
1000
0000
0001
,  // measure 115
0000
1000
0000
0001
0000
0000
0010
0001
,  // measure 116
0010
0100
0000
0000
0010
1000
0010
0100
,  // measure 117
0000
0000
0001
1000
0100
0010
0000
0000
,  // measure 118
0101
1100
0000
0000
;

//---------------dance-double - ----------------
#NOTES:
     dance-double:
     :
     Easy:
     6:
     0.382836,0.526205,0.237330,0.000000,0.000000,271.000000,247.000000,24.000000,0.000000,0.000000,0.000000,0.382836,0.526205,0.237330,0.000000,0.000000,271.000000,247.000000,24.000000,0.000000,0.000000,0.000000:
00000000
00000000
00000000
00000000
,
00000000
00000000
00000000
00000000
,
00000000
00000000
00000000
00000000
,
00000000
00000000
00000000
00000000
,
00000000
00000000
00000000
00000000
,
00011000
00000000
00001000
00000000
,
00010000
00000000
00001000
00000000
,
00100000
00000000
00001000
00000000
,
00010000
00000000
00001000
00000000
,
01000000
00000000
00010000
00000000
,
01000000
00000000
00001000
00000000
,
00011000
00000000
00000010
00000000
,
00001000
00000000
00000010
00000000
,
00010000
00000000
00001000
00000000
,
00010000
00000000
00001000
00000000
,
00000100
00000000
00001000
00000000
,
00010000
00000000
01000000
00000000
,
00000000
10000000
10000000
10000000
,
00000000
01000000
00000000
10000000
,
00000000
01000000
00000000
10000000
,
00000000
01000000
00000000
00010000
,
00000000
00001000
00001000
00001000
,
00000000
00001000
00000000
00010000
,
00000000
00001000
00000000
00000100
,
00000000
00000001
00000000
00000101
,
00000001
00000001
00000001
00000000
,
00000100
00000000
00000001
00000000
,
00000100
00000000
00001000
00000000
,
00010000
00000000
01000000
00000000
,
10000000
10000000
10000000
00000000
,
10000000
00000000
01000000
00000000
,
10000000
00000000
00100000
00000000
,
00010000
00000000
00001000
00000000
,
00010000
00001000
00010000
00000000
,
00000010
00001000
00000010
00000000
,
00001000
00000001
00001000
00000000
,
00000001
00000100
00000001
00000000
,
00000001
00000000
00000100
00000000
,
00001000
00000000
00010000
00000000
,
00011000
00000000
00000000
10010000
,
00000000
00000000
00000000
00000000
,
00001000
00010000
00001000
00000000
,
00100000
00010000
00100000
00000000
,
00010000
10000000
00010000
00000000
,
10000000
01000000
10000000
00000000
,
10000000
00000000
01000000
00000000
,
00010000
00000000
00001000
00000000
,
00011000
00000000
00000000
00001001
,
00000000
00000000
00000011
00000000
,
00000001
00000000
00000100
00000000
,
00001000
00000000
00011000
00000000
,
00010000
00000000
00100000
00000000
,
10000000
00000000
10100000
00000000
,
10000000
00000000
01000000
00000000
,
00010000
00000000
00011000
00000000
,
00001000
00000000
00000010
00000000
,
00000001
00000000
00000011
00000000
,
00000001
00000000
00000100
00000000
,
00001000
00000000
00011000
00000000
,
01000000
00000000
10000000
00000000
,
00100000
00000000
10010000
00000000
,
00100000
00000000
01000000
00000000
,
00010000
00000000
00001000
00000000
,
00000010
00000000
00000001
00000100
,
00001000
00010000
00000000
00001000
,
00000000
00010000
00000000
01000000
,
00000000
00010000
00000000
00001000
,
00000000
00010000
00000000
00000010
,
00000000
00010000
00000000
00001000
,
00000000
00010000
00000000
00100000
,
00000000
00010000
00000000
00001000
,
00000000
00010000
00000000
00001000
,
00000000
00000010
00000000
00000001
,
00000000
00000100
00000000
00001000
,
00000000
00010000
00000000
00100000
,
00000000
10000000
00000000
01000000
,
00000000
00010000
00000000
00001000
,
00000000
00000010
00000000
00000001
,
00000000
00000100
00000000
00001000
,
00000000
00010000
00000000
00100000
,
00000000
10000000
00000000
01000000
,
00011000
00000000
00001000
00000000
,
00001000
00000000
00001000
00000000
,
00100000
00000000
00100000
00000000
,
00100000
00000000
00100000
00000000
,
10000000
00000000
10000000
00000000
,
10000000
00000000
10000000
00000000
,
01000000
00000000
00010000
00000000
,
00001000
00000000
00000100
00000000
,
00000101
00000000
00000100
00000000
,
00000100
00000000
00000100
00000000
,
00000100
00000000
00000100
00000000
,
00000100
00000000
00000100
00000000
,
00000101
00000000
00001100
00000000
,
00011000
00000000
01010000
00000000
,
00100000
00000000
10000000
00000000
,
01000000
00010000
00001000
00000010
,
00000000
00000000
00000000
00000000
,
00000001
00000100
00001000
00000000
,
00010000
00000000
01000000
00000000
,
00100000
00010000
01000000
00000000
,
10000000
00000000
01000000
00000000
,
00001000
00010000
00000010
00000000
,
00001000
00000000
00000100
00000000
,
00000010
00000001
00000100
00000000
,
00001000
00000000
00010000
00000000
,
00100000
10000000
01000000
00000000
,
00100000
00000000
00010000
00000000
,
10000000
01000000
00010000
00000000
,
00001000
00000000
00000100
00000000
,
00000010
00001000
00000100
00000000
,
00000010
00000001
00000100
00000000
,
00010000
00001000
00100000
00000000
,
00010000
01000000
10000000
00000000
,
00000000
00000000
00000000
00000000
,
00000000
00000000
00000000
01000000
,
00000000
01100000
00000000
00000000
00010000
00000000
00000000
00011000
,
00000000
00000000
00000010
00000000
00000000
00000110
00000000
00000000
,
00000001
00001001
00000000
00000000
;

//---------------dance-double - ----------------
#NOTES:
     dance-double:
     :
     Medium:
     8:
     0.596150,0.877009,0.257108,0.128554,0.000000,422.000000,396.000000,26.000000,13.000000,0.000000,0.000000,0.596150,0.877009,0.257108,0.128554,0.000000,422.000000,396.000000,26.000000,13.000000,0.000000,0.000000:
00000000
00000000
00000000
00000000
,
00000000
00000000
00000000
00000000
,
00000000
00000000
00000000
00000000
,
00000000
00000000
00000000
00000000
,
00000000
00000000
00000000
00000000
,
00011000
00000000
00001000
00000000
,
00010000
01000000
00010000
00001000
,
00010000
00000000
00100000
00000000
,
10000000
01000000
00010000
00000000
,
00011000
00000000
00010000
00000000
,
00001000
00000100
00001000
00010000
,
00001000
00000000
00000010
00000000
,
00000001
00000100
00001000
00000000
,
00011000
00000000
00001000
00000000
,
00010000
00100000
00010000
00001000
,
00011000
00000000
00010000
00000000
,
00001000
00000010
00001000
00020000
,
00030000
01100000
00010000
10000000
,
01000000
10000000
01000000
10000000
,
01000000
00010000
01000000
10000000
,
01000000
10000000
01000000
10000000
,
01000000
00010000
00001000
00010000
,
00001000
00000100
00001000
00010000
,
00001000
00100000
00001000
00010000
,
00001000
00010000
00001000
00011000
,
00000110
00001000
00000001
00000100
,
00000001
00000100
00000001
00000100
,
00001000
00000100
00000001
00000100
,
00000001
00000100
00000001
00000100
,
00001000
00010000
00001000
00010000
,
01000000
00010000
00001000
00010000
,
00000010
00010000
00001000
00010000
,
00001000
00010000
00011000
00000000
,
00001000
00010000
01000000
00000000
,
00010000
00001000
00000100
00000000
,
00001000
00010000
00001000
00010000
,
00001000
00010000
01000000
00000000
,
10000000
01000000
00010000
00001000
,
00000010
00000001
00000100
00001000
,
00000110
00000000
00000001
00001001
,
00000000
00000000
00000000
00000000
,
00010000
00001000
00000010
00000000
,
00001000
00010000
00100000
00000000
,
00010000
00001000
00010000
00001000
,
00010000
00001000
00000010
00000000
,
00000001
00000100
00001000
00010000
,
00100000
10000000
01000000
00010000
,
01100000
00000000
10000000
10010000
,
00000000
00000000
10100000
10000000
,
01000000
00000000
00010000
00000000
00000000
00010000
00001000
00000000
,
00000010
00000001
00000011
00001000
,
00000100
00000000
00000010
00000000
00000000
00000001
00000100
00000000
,
00000101
00000000
00001001
00000010
,
00000001
00000000
00000100
00000000
00000000
00001000
00010000
00000000
,
00100000
10000000
10100000
00010000
,
01000000
00000000
00100000
00000000
00000000
10000000
01000000
00000000
,
11000000
00000000
10010000
00010000
,
01000000
00000000
00100000
00000000
00000000
00100000
10000000
00000000
,
01000000
00100000
01100000
10000000
,
01000000
00000000
00010000
00000000
00000000
00010000
00001000
00000000
,
00000100
00000001
00000010
00000100
,
00001000
00000010
00000100
00001000
,
00010000
00100000
10000000
01000000
,
00100000
00000000
00010000
00000000
10000000
00010000
10000000
00000000
,
00100000
00000000
00100000
10000000
00000000
10000000
01000000
00000000
,
01000000
00010000
00000000
00010000
00001000
00000000
00000000
00000000
,
00000000
00000000
00000100
00000001
00000000
00000001
00001000
00000000
,
00001000
00000100
00000000
00000100
00000010
00000000
00000001
00000000
,
00000000
00000000
00000100
00001000
00000000
00001000
00010000
00000000
,
00010000
01000000
00000000
01000000
10000000
00000000
00000000
00000000
,
00000000
00000000
00100000
01000000
00000000
01000000
00010000
00000000
,
00010000
10000000
00000000
10000000
01000000
00000000
00100000
00000000
,
00010000
01000000
00100000
10000000
,
01000000
00010000
00001000
00000100
,
00000001
00000010
00000100
00001000
,
00000010
00000100
00000001
00000010
,
00001000
00000000
00010000
00000000
00001000
00010000
00001000
00000000
,
00010000
00000000
00100000
00000000
10000000
00100000
10000000
00000000
,
00010000
00000000
10000000
00000000
00010000
10000000
00010000
00000000
,
00100000
00000000
00010000
00000000
01000000
00100000
10000000
01000000
,
00100000
00010000
01000000
00100000
10000000
01000000
00100000
00000000
,
00021000
00000000
00001000
00000000
,
00001000
00000000
00001000
00030000
,
01000000
00000000
01000000
00000000
,
01000000
00000000
01000000
00000000
,
00001000
00000000
00001000
00000000
,
00001000
00000000
00001000
00000000
,
00100000
00000000
00000000
10000000
00000000
00000000
01000000
00000000
,
00000000
00010000
00000000
00000000
00001000
00000000
00000100
00000000
,
00000102
00000000
00000100
00000000
,
00000100
00000000
00000100
00000003
,
00000100
00000000
00000100
00000000
,
00000100
00000000
00000100
00000000
,
00002000
00000000
00023000
00000000
,
02030000
00000000
03020000
00000000
,
00030020
00000000
00000230
00000000
,
00002300
00023000
02030000
23000000
,
30000000
00000000
00000000
00000000
,
00010000
01000000
00100000
10000000
,
01000000
00100000
00010000
01000000
,
10000000
01000000
00100000
10000000
,
01000000
00010000
00001000
00000100
,
00000001
00000010
00000100
00001000
,
00000010
00000100
00001000
00000100
,
00000001
00000010
00001000
00010000
,
01000000
00100000
00010000
01000000
,
10000000
01000000
00100000
10000000
,
01000000
00100000
00010000
01000000
,
00100000
10000000
01000000
00010000
,
00001000
00000010
00000001
00000100
,
00000010
00001000
00000100
00000001
,
00000100
00001000
00000010
00000100
,
00001000
00010000
01000000
00010000
,
00001000
00010000
00100000
10000000
,
01000000
00010000
00001000
00000001
,
00000000
00000000
00000000
00000010
,
00000000
00000011
00000000
00000000
00000001
00000000
00000000
00000101
,
00000000
00000000
00001000
00000000
00000000
00011000
00000000
00000000
,
10000000
11000000
00000000
00000000
;

//---------------dance-double - ----------------
#NOTES:
     dance-double:
     :
     Hard:
     10:
     0.786862,0.935476,0.326329,0.128554,0.000000,557.000000,524.000000,33.000000,13.000000,0.000000,0.000000,0.786862,0.935476,0.326329,0.128554,0.000000,557.000000,524.000000,33.000000,13.000000,0.000000,0.000000:
00000000
00000000
00000000
00000000
,
00000000
00000000
00000000
00000000
,
00000000
00000000
00000000
00000000
,
00000000
00000000
00000000
00000000
,
00000000
00000000
00000000
00000000
,
00011000
00000010
00010000
00001000
,
00010000
00001000
00100000
00010000
,
00110000
00001000
00010000
00001000
,
00010000
00000010
00010000
00001000
,
00011000
01000000
00001000
00010000
,
00001000
00010000
00000010
00001000
,
00001010
00010000
00001000
00010000
,
00000100
00010000
00001000
00100000
,
00101000
00010000
00100000
00001000
,
00010000
00001000
00010000
00000100
,
00010100
00001000
00000100
00010000
,
00001000
00010000
00000010
00000100
,
00000000
00000000
00001010
00000000
00000001
00000100
00000001
00000000
,
00000010
00000000
00000100
00001000
00000100
00000000
00000010
00000000
,
00000001
00000100
00001000
00000000
00010000
00000000
00001000
00010000
,
00001000
00100000
00110000
01000000
,
11000000
00000000
00010000
00000000
00100000
00010000
00100000
00000000
,
00001000
00000000
00010000
00001000
00010000
00000000
00000010
00000000
,
00001000
00000001
00000100
00000000
00000010
00000000
00001000
00000001
,
00001000
00000001
00001100
00000000
00011000
00000000
00110000
00000000
,
10010000
00000000
10000000
01000000
10000000
00000000
00100000
00000000
,
01000000
00010000
01000000
00000000
00100000
00000000
10000000
01000000
,
00010000
00000000
00001000
00000000
00010000
00001000
00010000
00000000
,
00000010
00001010
00000100
00000101
,
00001000
00000000
00000010
00001000
00000010
00000000
00010000
00000000
,
00001000
00010000
00001000
00000000
00100000
00000000
00010000
10000000
,
01000000
00000000
00100000
00000000
00010000
10000000
00010000
00000000
,
01000000
00100000
10000000
01000000
00100000
00010000
01000000
00100000
,
10000000
10000000
01000000
01000000
,
00010000
00000000
00010000
00000000
00001000
00010000
00001000
00000000
,
00000010
00000010
00000001
00000001
,
00000100
00000000
00001000
00010000
00000000
00010000
01000000
00000000
,
10000000
10000000
00100000
00100000
,
01000000
00000000
00010000
10000000
01000000
00100000
00010000
00000000
,
00110000
00000000
00000010
00001010
,
00000000
00000000
00000001
00000010
00000100
00001000
00000010
00000000
,
00000100
00000100
00000001
00000001
,
00001000
00000000
00001000
00000000
00000100
00001000
00000100
00000000
,
00010000
00010000
00001000
00001000
,
00100000
00010000
00100000
00000000
01000000
00000000
01000000
00000000
,
10000000
10000000
00100000
00100000
,
01000000
00010000
01000000
00000000
00001000
00010000
00001000
00010000
,
00000010
00010000
00001000
00101000
,
00000000
00000000
11000000
00100000
,
00001000
00000000
00010000
00000000
00000010
00001000
00000010
00000000
,
00000100
00000001
00000101
00000010
,
00000100
00000000
00010000
00000000
00001000
01000000
00010000
00000000
,
01010000
10000000
11000000
00100000
,
00010000
00000000
01000000
00000000
10000000
01000000
10000000
00000000
,
01000000
00100000
10100000
10000000
,
01000000
00000000
00010000
00000000
00001000
00010000
00001000
00000000
,
00100000
00010000
00110000
00001000
,
00010000
00000000
00000010
00000000
00001000
00000010
00001000
00000000
,
00000001
00000010
00000011
00000100
,
00001000
00000000
00000010
00000000
00010000
00001000
00010000
00000000
,
00001000
01000000
01001000
00010000
,
10000000
00000000
01000000
00000000
00100000
01000000
00100000
00000000
,
00010000
01000000
01010000
00100000
,
10000000
00000000
00010000
00100000
00001000
00010000
00000100
00001000
,
00000001
00000000
00000010
00000001
00000000
00000001
00000100
00000000
,
00000100
00001000
00000000
00001000
00010000
00000000
00000000
00000000
,
00000000
00000000
01000000
10000000
00000000
10000000
00010000
00000000
,
00010000
01000000
00000000
01000000
00100000
00000000
10000000
00000000
,
00000000
00000000
01000000
00010000
00000000
00010000
00001000
00000000
,
00001000
00000100
00000000
00000100
00000001
00000000
00000000
00000000
,
00000000
00000000
00000010
00000100
00000000
00000100
00001000
00000000
,
00001000
00000001
00000000
00000001
00000100
00000000
00000010
00000000
,
00001000
00000010
00001000
00000000
00000010
00000000
00010000
00000000
,
00001000
00010000
00001000
00000000
00100000
00000000
00010000
00000000
,
00100000
00010000
00100000
00000000
01000000
00000000
10000000
00000000
,
00100000
10000000
00100000
00000000
01000000
00000000
00010000
00000000
,
00100000
00010000
00100000
00000000
00001000
00000000
00010000
00000000
,
00000010
00010000
00000010
00000000
00001000
00000000
00000100
00000000
,
00000010
00000100
00000010
00000000
00000001
00000010
00000001
00000000
,
00001000
00000001
00001000
00000000
00000001
00000100
00000010
00001000
,
00000100
00010000
00001000
00100000
00010000
10000000
01000000
00000000
,
21000000
00000000
01000000
00000000
,
01000000
00000000
32000000
00000000
,
00010000
00000000
00010000
00000000
,
00010000
00000000
03020000
00000000
,
00001000
00000000
00001000
00000000
,
00100000
00000000
00130000
00000000
,
00100000
10000000
00000000
10000000
01000000
00000000
01000000
00010000
,
00000000
00010000
00001000
00000000
00000100
00000000
00000001
00000000
,
00000102
00000000
00000100
00000000
,
00000100
00000000
00000100
00000000
,
00000010
00000000
00000010
00000000
,
00000010
00000000
00000010
00000000
,
00000023
00000000
00002030
00000000
,
00023000
00000000
00100000
00000000
,
00032000
00000000
00203000
00000000
,
02300000
03020000
00032000
00003200
,
00000300
00000000
00000000
00000000
,
00000001
00001000
00000100
00000010
00000001
00000100
00001000
00000100
,
00000001
00001000
00000100
00000010
00000001
00000000
00001000
00000000
,
00000001
00000100
00000010
00001000
00000010
00010000
00001000
01000000
,
00010000
10000000
00100000
10000000
01000000
00000000
00000000
00000000
,
10000000
00010000
01000000
00100000
10000000
01000000
00010000
01000000
,
10000000
00010000
01000000
00100000
10000000
00000000
00010000
00000000
,
10000000
01000000
00100000
00010000
00100000
00001000
00010000
00000100
,
00001000
00000001
00000010
00000001
00000100
00000000
00000000
00000000
,
00000001
00001000
00000010
00000100
00000001
00000010
00001000
00000010
,
00000001
00001000
00000010
00000100
00000001
00000000
00001000
00000000
,
00000001
00000010
00000100
00001000
00000100
00010000
00001000
00100000
,
00010000
10000000
01000000
10000000
00100000
00000000
00000000
00000000
,
10000000
00010000
00100000
01000000
10000000
00100000
00010000
00100000
,
10000000
00010000
00100000
01000000
10000000
00000000
00010000
00000000
,
10000000
00100000
01000000
00010000
01000000
00001000
00010000
00000010
,
00001000
00000001
00000100
00000001
00000010
00000000
00000000
00000001
,
00000000
00001000
00000000
00000001
00000000
00001000
00000000
00000001
,
00000000
00001000
00000000
00000001
00000000
00000000
00000010
00000001
,
00000000
00000011
00000000
00000000
00000001
00000100
00000000
00000101
,
00000000
00000000
00000100
00001000
00000000
00011000
00000000
00000000
,
00100000
11000000
00000000
00000000
;

//---------------dance-single - ----------------
#NOTES:
     dance-single:
     :
     Beginner:
     5:
     0.142681,0.292336,0.059333,0.000000,0.000000,101.000000,95.000000,6.000000,0.000000,0.000000,0.000000,0.142681,0.292336,0.059333,0.000000,0.000000,101.000000,95.000000,6.000000,0.000000,0.000000,0.000000:
0000
0000
0000
0000
,
0000
0000
0000
0000
,
0000
0000
0000
0000
,
0000
0000
0000
0000
,
0000
0000
0000
0000
,
0010
0000
0000
0000
,
0000
0000
0000
0000
,
0010
0000
0000
0000
,
0000
0000
0000
0000
,
0001
0000
0000
0000
,
0000
0000
0000
0000
,
0001
0000
0000
0000
,
0000
0000
0000
0000
,
1000
0000
0000
0000
,
0000
0000
0000
0000
,
1000
0000
0000
0000
,
0000
0000
0000
0000
,
0000
0010
0000
0000
,
0000
0010
0000
0000
,
0000
0100
0000
0000
,
0000
0100
0000
0000
,
0000
0010
0000
0000
,
0000
0010
0000
0000
,
0000
0100
0000
0000
,
0000
0100
0000
0000
,
0001
0000
0000
0000
,
0001
0000
0000
0000
,
1000
0000
0000
0000
,
1000
0000
0000
0000
,
0001
0000
0000
0000
,
0001
0000
0000
0000
,
1000
0000
0000
0000
,
1000
0000
0000
0000
,
0010
0000
0010
0000
,
0000
0000
0000
0000
,
0100
0000
0000
0000
,
0000
0000
0000
0000
,
0010
0000
0010
0000
,
0000
0000
0000
0000
,
1001
0000
0000
0000
,
0000
0000
0000
0000
,
0001
0000
0001
0000
,
0000
0000
0000
0000
,
1000
0000
0000
0000
,
0000
0000
0000
0000
,
0001
0000
0001
0000
,
0000
0000
0000
0000
,
1001
0000
0000
1001
,
0000
0000
0001
0000
,
0000
0000
0001
0000
,
0000
0000
0010
0000
,
0000
0000
0010
0000
,
0000
0000
0001
0000
,
0000
0000
0001
0000
,
0000
0000
0010
0000
,
0000
0000
0010
0000
,
0000
0000
1000
0000
,
0000
0000
1000
0000
,
0000
0000
0010
0000
,
0000
0000
0010
0000
,
0000
0000
1000
0000
,
0000
0000
1000
0000
,
0000
0000
0010
0000
,
0000
0000
0010
0000
,
0000
0000
0001
0000
,
0000
0000
0001
0000
,
0000
0000
0001
0000
,
0000
0000
0001
0000
,
0000
0000
1000
0000
,
0000
0000
1000
0000
,
0000
0000
1000
0000
,
0000
0000
1000
0000
,
0000
0000
0001
0000
,
0000
0000
1000
0000
,
0000
0000
0001
0000
,
0000
0000
1000
0000
,
0000
0000
0010
0000
,
0000
0000
0100
0000
,
0000
0000
0010
0000
,
0000
0000
0100
0000
,
0000
0000
0000
0000
,
1001
0000
0000
0000
,
0000
0000
0000
0000
,
0000
0000
0000
0000
,
0000
0000
0000
0000
,
1001
0000
0000
0000
,
0000
0000
0000
0000
,
0000
0000
0000
0000
,
0000
0000
0000
0000
,
0110
0000
0000
0000
,
0000
0000
0000
0000
,
0000
0000
0000
0000
,
0000
0000
0000
0000
,
0010
0000
0000
0000
,
0010
0000
0000
0000
,
0010
0000
0000
0000
,
0010
0000
0000
0000
,
0000
0000
0000
0000
,
0001
0000
0000
0000
,
1000
0000
0000
0000
,
0001
0000
0000
0000
,
1000
0000
0000
0000
,
0010
0000
0000
0000
,
0100
0000
0000
0000
,
0010
0000
0000
0000
,
0100
0000
0000
0000
,
0001
0000
0000
0000
,
0010
0000
0000
0000
,
0001
0000
0000
0000
,
0010
0000
0000
0000
,
1000
0000
0000
0000
,
0010
0000
0000
0000
,
1000
0000
0000
0000
,
0010
0000
0000
0000
,
0000
0000
0000
0000
,
0000
0000
0000
0010
,
0000
0000
0010
0000
,
0000
0010
0000
0000
,
0010
0010
0000
0000
;

//---------------dance-single - ----------------
#NOTES:
     dance-single:
     :
     Challenge:
     18:
     1.079287,1.061310,0.365884,0.168109,0.014833,764.000000,727.000000,37.000000,17.000000,0.000000,0.000000,1.079287,1.061310,0.365884,0.168109,0.014833,764.000000,727.000000,37.000000,17.000000,0.000000,0.000000:
// measure 0
0000
0000
0000
0000
,  // measure 1
0000
0000
0000
0000
,  // measure 2
0000
0000
0000
0000
,  // measure 3
0000
0000
0000
0000
,  // measure 4
0000
0000
0000
0000
,  // measure 5
1001
0000
0000
0001
0000
0101
0000
0000
,  // measure 6
0000
1000
0001
1000
0010
0100
0001
1000
,  // measure 7
0010
0000
0000
0100
0000
0110
0000
0000
,  // measure 8
0000
0010
1000
0010
0100
0001
0010
0100
,  // measure 9
1000
0000
0000
1001
0000
0101
0000
0000
,  // measure 10
0000
0010
0001
1000
0001
0010
0100
1000
,  // measure 11
0010
0100
0010
1000
0100
0010
0001
0010
,  // measure 12
1000
0010
0001
0100
0010
0100
0001
0000
,  // measure 13
1000
0100
0001
0100
1000
0010
0001
0010
,  // measure 14
1000
0010
1000
0001
1000
0010
0100
0001
,  // measure 15
0010
0000
0000
1100
0000
1001
0000
0000
,  // measure 16
0000
0001
1000
0001
0010
0100
1000
0010
,  // measure 17
0100
0000
0110
0000
1000
0001
1000
0100
,  // measure 18
1000
0010
0100
0001
0100
0001
0010
0001
,  // measure 19
0010
0001
1000
0010
1000
0010
0100
0010
,  // measure 20
0100
0010
1000
0000
1100
0000
0001
0000
,  // measure 21
0101
0000
0100
0000
0001
1000
0001
0010
,  // measure 22
0001
0000
1000
0001
1000
0010
1000
0001
,  // measure 23
0100
0001
1000
0010
0100
0000
0001
0100
,  // measure 24
0000
0010
1000
0100
0001
0100
1000
0000
,  // measure 25
0110
0000
0001
1000
0001
0010
0001
0100
,  // measure 26
0010
1000
0010
0100
0001
0100
0001
0010
,  // measure 27
0200
0000
1300
0001
1000
0100
0001
0100
,  // measure 28
1000
0001
0010
0001
0100
0010
0100
0001
,  // measure 29
0010
0000
0001
1000
0001
1000
0000
0000
,  // measure 30
0010
1000
0010
1000
0000
0001
1000
0001
,  // measure 31
0000
0100
0001
0010
0001
0100
0001
0010
,  // measure 32
0200
0000
1300
0001
0010
0100
1000
0010
,  // measure 33
0100
0000
0001
0100
0000
0100
0000
0001
,  // measure 34
0010
1000
0010
0001
0100
0000
0001
1000
,  // measure 35
0001
0000
1000
0001
0010
0000
0010
0000
,  // measure 36
0100
0000
1000
0100
0000
0100
0001
0000
,  // measure 37
0100
1000
0010
0000
1000
0001
1000
0000
,  // measure 38
0010
0000
0100
0001
0010
0001
0100
0000
,  // measure 39
0110
0100
0010
1001
,  // measure 40
0001
0000
1000
0001
1000
0001
1000
0000
,  // measure 41
0100
1000
0100
0000
1000
0001
1000
0000
,  // measure 42
0010
0100
0010
0000
0100
1000
0100
0000
,  // measure 43
0001
1000
0001
0000
0010
0100
0010
0000
,  // measure 44
0100
0000
0001
0100
0000
0100
1000
0000
,  // measure 45
0010
0001
0010
0000
0100
0010
0100
0000
,  // measure 46
0001
1000
0001
0000
0010
0100
0010
0100
,  // measure 47
0010
0001
1000
1001
,  // measure 48
0220
0330
0000
0000
1001
0000
0001
0100
,  // measure 49
0001
0000
0010
0000
0100
1000
0010
1000
,  // measure 50
0100
0000
0010
0000
0110
0000
0001
0100
,  // measure 51
1000
0000
0100
0001
0010
0100
1000
0000
,  // measure 52
1000
0010
1000
0000
1010
0000
1000
0100
,  // measure 53
1000
0000
0001
0000
0001
0010
0001
0000
,  // measure 54
0100
0010
1000
0000
0110
0000
1000
0100
,  // measure 55
0010
0000
0001
0100
0001
0010
0001
0000
,  // measure 56
1000
0001
0010
0001
0100
0000
0010
1000
,  // measure 57
0100
0000
1000
0001
0010
0001
0100
0000
,  // measure 58
0110
0000
0010
0000
0101
0000
1000
0010
,  // measure 59
1000
0000
0001
0010
0001
1000
0100
0000
,  // measure 60
0010
0100
0001
0000
1100
0000
1000
0001
,  // measure 61
0010
0000
1000
0000
0100
0010
1000
0000
,  // measure 62
0001
1000
0010
0000
1001
0000
0001
0000
,  // measure 63
0010
0000
0100
1000
0001
1000
0010
0000
,  // measure 64
0110
0000
1000
0100
1000
0100
0010
0000
,  // measure 65
0001
0100
0001
0100
1000
0100
0001
0000
,  // measure 66
1000
0010
0001
0010
1000
0010
0100
0000
,  // measure 67
0001
0010
0001
0010
0100
1000
0100
0000
,  // measure 68
1000
0001
1000
0001
0010
0001
0100
0000
,  // measure 69
0010
0100
1000
0100
0001
0100
1000
0000
,  // measure 70
0100
0001
0010
0001
1000
0010
1000
0000
,  // measure 71
0001
0100
1000
0100
0001
0100
1000
0000
,  // measure 72
1000
0100
0001
0000
0001
0010
0001
0000
,  // measure 73
0001
0010
1000
0000
1000
0010
0001
0000
,  // measure 74
0100
0010
1000
0000
0010
0001
0010
0000
,  // measure 75
1000
0001
0100
0000
0010
1000
0010
0000
,  // measure 76
0010
0001
0010
0000
0100
0010
0100
0000
,  // measure 77
0010
1000
0001
0010
0001
0100
0001
0000
,  // measure 78
1000
0001
1000
0000
0001
0100
0010
1000
,  // measure 79
0100
0010
0001
0100
0010
1000
0100
0010
,  // measure 80
0001
0100
0010
1000
0100
0010
0002
0000
,  // measure 81
0013
0000
0010
1000
0000
1000
0001
0000
,  // measure 82
0100
0010
0100
0000
0100
0001
0010
0001
,  // measure 83
1000
0010
1000
0001
0010
0100
1000
0100
,  // measure 84
1000
0000
0001
0100
0001
1000
0010
1000
,  // measure 85
0100
0010
0001
0010
1000
0010
0001
0010
,  // measure 86
0100
0000
1100
0000
1000
0001
0010
0100
,  // measure 87
0010
1000
0010
0001
0100
0010
0100
0000
,  // measure 88
0001
1000
0001
0000
0010
1000
0001
1000
,  // measure 89
1010
0100
0001
0000
0010
0000
0001
0100
,  // measure 90
0010
0100
0001
1000
0001
1000
0010
0000
,  // measure 91
0100
0010
0100
0000
0001
1000
0001
0000
,  // measure 92
0100
0010
0100
0001
0100
0010
0100
0001
,  // measure 93
1000
0001
1000
0001
1000
0010
1000
0010
,  // measure 94
1000
0100
0001
0100
0001
0100
1000
0001
,  // measure 95
0010
1000
0010
0001
0010
0100
1000
0001
,  // measure 96
1000
1001
1010
0010
,  // measure 97
0210
0000
0000
0000
,  // measure 98
0310
1000
0100
0010
0001
0010
0100
2000
,  // measure 99
0010
3100
0001
0100
1000
0100
0001
0000
,  // measure 100
0010
0001
0010
1000
0010
0001
0100
0020
,  // measure 101
1000
0130
0010
0001
0010
0010
1000
0010
,  // measure 102
0100
1000
0100
0010
1000
0010
0001
0200
,  // measure 103
0010
0301
1000
0100
0001
0010
0200
0000
,  // measure 104
1300
0000
0001
0010
0001
0000
1000
0000
0100
0000
0001
0000
0100
0000
2000
0000
,  // measure 105
0010
3100
0010
1000
0001
0001
0100
0010
,  // measure 106
0100
0001
1000
0010
0100
0010
1000
0200
,  // measure 107
0010
1300
0001
1000
0010
0001
0100
0000
,  // measure 108
0010
0100
0010
0001
1000
0001
0010
2000
,  // measure 109
0001
3100
0001
1000
0010
0010
0100
0001
,  // measure 110
0010
1000
0010
0100
1000
0100
0010
0002
,  // measure 111
0010
0000
0103
0000
1000
0000
0010
0000
0100
0010
0100
0000
0001
0000
0000
0000
,  // measure 112
1000
0100
0010
0001
0100
0010
0100
2000
,  // measure 113
0100
3001
0010
0100
0001
0100
1000
0001
,  // measure 114
0000
1001
0000
1010
0000
0110
0000
0101
,  // measure 115
0000
1001
0000
1001
0000
0000
1000
0001
,  // measure 116
0010
0001
0000
0000
0100
0010
1000
0100
,  // measure 117
0000
0000
0000
0000
0010
0000
0001
0000
0100
0000
0010
0100
0010
0000
0000
0000
,  // measure 118
0101
2200
0000
0000
,  // measure 119
0000
3300
0000
0000
;
