#TITLE:御千手メディテーション;
#SUBTITLE:;
#ARTIST:昇天家族;
#TITLETRANSLIT:Osenju meditation;
#SUBTITLETRANSLIT:;
#ARTISTTRANSLIT:Shoten kazoku;
#GENRE:;
#CREDIT:;
#BANNER:Osenju meditation.png;
#BACKGROUND:;
#LYRICSPATH:;
#CDTITLE:;
#MUSIC:Osenju meditation.ogg;
#OFFSET:0.000000;
#SAMPLESTART:41.137001;
#SAMPLELENGTH:15.000000;
#SELECTABLE:YES;
#DISPLAYBPM:150.000000:190.000000;
#BPMS:0.000000=149.733002
,44.000000=154.744003
,46.000000=190.016006
;
#STOPS:
;
#BGCHANGES:;
#KEYSOUNDS:;
#ATTACKS:;

//---------------dance-single - ----------------
#NOTES:
     dance-single:
     :
     Beginner:
     4:
     0.189008,0.298101,0.074422,0.057884,0.000000,160.000000,151.000000,9.000000,7.000000,0.000000,0.000000,0.189008,0.298101,0.074422,0.057884,0.000000,160.000000,151.000000,9.000000,7.000000,0.000000,0.000000:
0000
0000
0000
0000
,
0000
0000
0000
0000
,
0000
0000
0000
0000
,
0000
0000
0000
0000
,
0000
0000
0000
0000
,
0000
0000
0000
0000
,
0010
0000
0010
0000
,
1000
0000
1000
0000
,
0001
0000
0001
0000
,
0010
0000
0000
0000
,
0200
0000
0000
0000
,
0300
0000
1000
0000
,
0000
0001
0000
0000
,
1000
0000
0000
0001
,
0000
0000
0010
0000
,
0000
0010
0000
0000
,
0100
0000
0000
0100
,
0000
0000
1000
0000
,
0010
0000
0001
0000
,
0010
0000
1000
0000
,
0010
0000
0001
0000
,
0010
0000
0001
0000
,
1001
0000
1000
0000
,
1001
0000
0001
0000
,
1001
0000
1001
0000
,
0000
0000
0010
0000
,
0000
0000
1000
0000
,
0000
0000
0100
0000
,
0000
0000
0001
0000
,
0000
0000
1000
1000
,
1000
0000
0001
0001
,
0001
0000
0010
0010
,
0010
0000
0100
0100
,
0100
0000
1000
0000
,
0001
0000
1000
0000
,
0001
0000
1000
1000
,
1000
1000
1000
0000
,
0000
0000
0001
0001
,
0001
0000
0010
0010
,
0010
0000
0100
0100
,
0100
0000
1000
1000
,
1000
0000
0010
0000
,
0010
0000
0100
0000
,
0100
0000
0001
0000
,
1000
0000
0001
0001
,
0001
0000
0020
0000
,
0000
0030
0000
0000
,
0000
0000
2000
0000
,
0000
3000
0000
0000
,
0000
0200
0000
0000
,
0300
0000
0000
0000
,
0000
0002
0000
0000
,
0003
0000
0000
0000
,
0010
0000
1000
0000
,
0001
0000
0100
0000
,
0010
0000
0001
0000
,
1000
1000
1000
0000
,
0001
0000
0010
0000
,
0100
0000
1000
0000
,
0001
0001
0001
0000
,
1001
0000
1001
0000
,
0010
0000
0000
0000
,
0100
0000
0000
0000
,
0010
0000
0000
0000
,
0100
0000
0000
0000
,
0010
0000
0010
0000
,
0100
0000
0100
0000
,
0010
0010
0010
0010
,
0000
0000
0000
0000
,
0001
0000
0000
0000
,
1001
0000
0000
0000
,
1000
0000
0000
0000
,
1001
0000
0000
0000
,
0000
0000
0000
0000
,
2002
0000
0000
0000
,
0000
0000
3003
0000
,
0001
0000
0010
0000
,
1000
1000
1000
0000
,
1000
0000
0010
0000
,
0001
0000
0010
0000
,
1000
0000
0000
0000
,
0001
0001
0001
0001
,
0001
0000
0010
0000
,
1000
0000
0010
0000
,
0001
0000
0010
0000
,
1000
1000
1000
0000
,
0001
0001
0001
0000
,
0100
0100
0100
0000
,
0010
0010
0010
0000
,
1000
0000
0001
0000
,
0000
1000
0000
0000
0000
0000
0000
0000
;

//---------------dance-single - ----------------
#NOTES:
     dance-single:
     :
     Easy:
     8:
     0.350847,0.489118,0.248073,0.190190,0.028942,297.000000,267.000000,30.000000,23.000000,0.000000,0.000000,0.350847,0.489118,0.248073,0.190190,0.028942,297.000000,267.000000,30.000000,23.000000,0.000000,0.000000:
0000
0000
0000
0000
,
0000
0000
0000
0000
,
0000
0000
0000
0000
,
0000
0000
0000
0000
,
0000
0000
0000
0000
,
0000
0000
0000
0000
,
0100
0100
1000
1000
,
0010
0010
0001
0001
,
0100
1000
0010
0001
,
1000
0000
0001
0000
,
2002
0000
0000
0000
,
3003
0000
0001
0000
,
0000
0100
0000
0000
,
1000
0000
0000
0010
,
0000
0000
0001
0001
,
0001
0100
0100
0100
,
1000
1000
1000
0010
,
0010
0010
1001
0000
,
0110
0000
2100
3001
,
0102
1003
0110
0000
,
1001
0000
2010
3001
,
0012
1003
0010
0010
,
0001
0000
0001
0010
0000
0000
0100
0000
0000
1000
0000
0000
,
0001
0000
0001
1000
0000
0000
0100
0000
0000
1000
0000
0000
,
0010
0000
0010
0100
0000
0000
0001
0000
0000
0010
0000
0000
,
0100
1000
0001
0000
,
0000
0000
1000
0000
,
0000
0000
0100
0010
,
0001
0100
0020
0000
,
0000
0030
0100
0001
,
0100
1000
0100
0001
,
0100
0100
0001
1000
,
0010
1000
0001
0001
,
0001
0000
0100
0010
,
0001
0001
0100
0010
,
1000
1000
0001
0001
,
1000
1000
0001
1000
,
1001
0000
0100
1000
,
0100
0001
0100
1000
,
0010
0100
0001
1000
,
0100
0001
0010
0010
,
0010
0000
0100
1000
,
1100
0000
0100
0001
,
0101
0000
1010
0000
,
0011
0000
1000
0001
,
1000
0001
0100
0100
,
0001
0001
0010
0010
,
1000
1000
0100
0100
,
0001
0001
0010
0010
,
1000
0100
0100
1000
,
1000
0010
0010
0001
,
0001
0100
0100
1000
,
2002
0000
0000
3003
,
1000
0010
0000
0010
0000
0100
0000
0100
,
0000
0001
0000
0001
0000
1000
0100
0000
,
0001
0010
0000
0010
0000
0100
0000
0100
,
1000
0001
1000
0000
,
0001
0100
0000
0100
0000
0010
0000
0010
,
0000
1000
0000
1000
0000
0100
0010
0000
,
0001
1000
0001
1000
,
0200
0000
0020
0330
,
0110
0000
0000
0001
0000
0000
1000
0000
0000
0010
0000
0010
,
0000
1000
0001
0010
,
0011
0000
0000
0100
0000
0000
1000
0000
0000
0010
0000
0010
,
0000
1000
0100
0010
,
0001
1100
0001
1100
,
0010
0100
1000
0010
,
0100
0000
0000
0010
0000
0000
1000
0000
0000
0001
1000
0001
,
0000
0000
0000
0000
,
0202
0000
0000
0303
,
2020
0000
0000
3030
,
2002
0000
0000
3003
,
0220
0000
0000
0000
,
0330
0000
0000
0000
,
2002
0000
0000
0000
,
0000
0000
3003
0000
,
1000
0100
0001
0100
,
1000
1000
0001
0010
,
0100
0000
0000
0100
0000
0000
1000
0000
,
0000
0010
0100
0000
,
0001
0000
0000
0000
,
0110
1001
0110
1001
,
1000
1000
0100
0010
,
0001
0001
0100
0010
,
1000
0010
0001
0010
,
1000
0001
0100
0000
,
0001
0010
0100
1000
,
0010
0100
0001
1000
,
0001
0000
1000
0000
,
1001
0000
0100
0010
,
0000
2002
0000
0000
0000
0000
0000
0000
,
3003
0000
0000
0000
;

//---------------dance-single - ----------------
#NOTES:
     dance-single:
     :
     Medium:
     12:
     0.484334,0.639652,0.206728,0.223266,0.190190,410.000000,385.000000,25.000000,27.000000,0.000000,0.000000,0.484334,0.639652,0.206728,0.223266,0.190190,410.000000,385.000000,25.000000,27.000000,0.000000,0.000000:
// measure 0
0000
0000
0000
0000
,  // measure 1
0000
0000
0000
0000
,  // measure 2
0000
0000
0000
0000
,  // measure 3
0000
0000
0000
0000
,  // measure 4
0000
0000
0000
0000
,  // measure 5
0000
0000
0000
0000
,  // measure 6
0010
0010
0001
0001
,  // measure 7
0100
0100
1000
1000
,  // measure 8
0100
0001
0010
1000
,  // measure 9
0001
0100
0010
1000
0100
0010
0001
1000
,  // measure 10
0002
0000
0000
0000
,  // measure 11
0003
0000
1000
1000
,  // measure 12
1000
0010
0010
0010
,  // measure 13
0001
0001
0001
0100
,  // measure 14
0100
0100
1000
1000
,  // measure 15
1000
0001
0010
0000
0010
0000
0010
0001
,  // measure 16
0100
0000
0100
0000
0100
0001
1000
0000
,  // measure 17
1000
1000
1001
0000
,  // measure 18
0110
0000
0012
1003
,  // measure 19
2010
3001
0110
0000
,  // measure 20
1001
0000
0102
1003
,  // measure 21
2100
3001
0100
0100
,  // measure 22
1000
0100
1000
0100
0000
0000
0010
0000
0000
0001
0000
0000
,  // measure 23
1000
0001
1000
0001
0000
0000
0010
0000
0000
0001
0000
0000
,  // measure 24
0100
0010
0100
0010
0000
0000
1000
0000
1000
0100
0000
0100
,  // measure 25
0010
0000
0010
0001
0000
0001
1000
0000
0000
0000
0000
0000
,  // measure 26
0000
0000
0001
0000
,  // measure 27
0000
0000
0000
0000
0000
0000
0010
0000
0010
0100
0000
0100
,  // measure 28
1000
0000
1000
0010
0100
0010
0200
0000
0000
0000
0000
0000
,  // measure 29
0000
0000
0300
0000
0010
0000
1000
0100
,  // measure 30
0010
0000
0001
0100
0010
0000
1000
0100
,  // measure 31
0010
0001
0010
0100
1000
0000
0001
0100
,  // measure 32
1000
0000
0001
0100
1000
0000
0000
0000
,  // measure 33
0001
1000
0100
0000
0010
0001
0100
0010
,  // measure 34
1000
0000
1000
0000
0010
1000
0100
0010
,  // measure 35
0001
0000
0001
0000
1000
1000
1000
0000
,  // measure 36
0001
0001
0001
0000
1001
0000
0000
0000
,  // measure 37
0001
0000
0010
0000
0100
0000
1000
0000
0000
0000
0000
0000
0010
0000
0000
0000
0000
0000
0001
0000
0000
1000
0000
0000
,  // measure 38
0010
0000
1000
0001
0010
0000
0001
1000
,  // measure 39
0100
0000
0010
0001
1000
0000
0001
0100
,  // measure 40
0010
0000
1000
0010
0100
0000
0000
0000
,  // measure 41
0010
1000
0001
0000
0010
0001
0010
0100
,  // measure 42
1000
0001
0100
0000
0010
1000
0010
0100
,  // measure 43
0001
1000
0100
0000
0101
0000
0000
0000
,  // measure 44
1100
0000
0201
1000
,  // measure 45
0001
1300
0010
0010
,  // measure 46
1000
1000
0100
0100
,  // measure 47
0001
0000
0001
0000
1000
0000
1000
0010
,  // measure 48
0000
0010
0001
0000
0001
1000
0000
1000
,  // measure 49
0100
0010
0010
0001
,  // measure 50
0001
0100
0100
1000
,  // measure 51
1000
0000
0001
0000
0001
0010
0000
0010
,  // measure 52
2000
0002
0000
0000
0000
0000
3003
0000
,  // measure 53
0001
0100
0000
0100
0010
0100
0000
0100
,  // measure 54
0001
0100
0000
0100
1000
0100
0001
0000
,  // measure 55
1000
0100
0000
0100
0010
0100
0000
0100
,  // measure 56
2000
3002
0023
0230
,  // measure 57
1300
0010
0000
0010
0100
0010
0000
0010
,  // measure 58
0001
0010
0000
0010
0100
0010
1000
0000
,  // measure 59
0001
1000
0001
1000
,  // measure 60
0020
0000
0200
0330
,  // measure 61
0110
0000
0000
1000
0000
0000
0001
0100
0001
0100
0000
0010
,  // measure 62
0000
0000
0010
1000
0000
0000
0001
1000
0001
1000
0000
0000
,  // measure 63
1001
0000
0000
0100
0000
0000
0001
0100
0001
0100
0000
0010
,  // measure 64
0000
0000
0010
1000
0000
0000
0001
0010
0001
0010
0000
0000
,  // measure 65
0001
0100
0001
0100
0000
0000
0010
1000
0010
1000
0000
0000
,  // measure 66
0100
0000
0100
0010
0000
0010
0001
0000
0001
0100
0000
0100
,  // measure 67
0010
0000
0000
0100
0000
0000
0001
1000
0001
1000
0001
1000
,  // measure 68
0000
0000
0000
0000
,  // measure 69
2020
0000
0000
3030
,  // measure 70
0202
0000
0000
0303
,  // measure 71
2002
0000
0000
3003
,  // measure 72
0220
0000
0000
0000
,  // measure 73
0330
0000
0000
0000
,  // measure 74
2002
0000
0000
0000
,  // measure 75
0000
0000
3003
0000
,  // measure 76
0001
0100
0010
0000
1000
0100
0010
0000
,  // measure 77
0001
0000
0000
0001
0000
0000
0001
0000
1000
0000
0000
0000
0100
0000
0000
0000
,  // measure 78
0010
0000
0001
0010
0000
0001
1000
0000
,  // measure 79
0000
0001
0100
0001
0010
0000
0100
0000
,  // measure 80
1000
0000
0000
0000
,  // measure 81
1100
1010
0011
0101
,  // measure 82
0001
1000
0001
1000
0010
0000
0100
0000
,  // measure 83
0001
0010
0100
0010
0001
0000
1000
0000
,  // measure 84
0001
0100
1000
0000
0001
0100
1000
0000
,  // measure 85
0100
0000
0010
0000
0010
1000
0001
0000
,  // measure 86
0010
1000
0100
0000
0010
0001
0100
0000
,  // measure 87
0010
1000
0100
0010
0001
0100
0010
0000
,  // measure 88
1000
0000
0000
0010
0000
0000
0001
0000
,  // measure 89
1001
0000
0000
0000
0000
0000
0010
0100
0010
0100
0010
0100
,  // measure 90
0000
2002
0000
0000
0000
0000
0000
0000
,  // measure 91
0000
3003
0000
0000
0000
0000
0000
0000
0000
0000
0000
0000
0000
0000
0000
0000
0000
0000
0000
0000
0000
0000
0000
0000
0000
0000
0000
0000
0000
0000
0000
0000
0000
0000
0000
0000
0000
0000
0000
0000
0000
0000
0000
0000
0000
0000
0000
0000
0000
0000
0000
0000
0000
0000
0000
0000
0000
0000
0000
0000
0000
0000
0000
0000
0000
0000
0000
0000
0000
0000
0000
0000
0000
0000
0000
0000
0000
0000
0000
0000
0000
0000
0000
0000
0000
0000
0000
0000
0000
0000
0000
0000
0000
0000
0000
0000
0000
0000
0000
0000
0000
0000
0000
0000
0000
0000
0000
0000
0000
0000
0000
0000
0000
0000
0000
0000
0000
0000
0000
0000
0000
0000
0000
0000
0000
0000
0000
0000
0000
0000
0000
0000
0000
0000
0000
0000
0000
0000
0000
0000
0000
0000
0000
0000
0000
0000
0000
0000
0000
0000
0000
0000
0000
0000
0000
0000
0000
0000
0000
0000
0000
0000
0000
0000
0000
0000
0000
0000
0000
0000
0000
0000
0000
0000
0000
0000
0000
0000
0000
0000
0000
0000
0000
0000
0000
0000
0000
0000
0000
0000
0000
0000
;

//---------------dance-single - ----------------
#NOTES:
     dance-single:
     :
     Hard:
     15:
     0.685155,0.940611,0.165382,0.198459,0.632587,580.000000,560.000000,20.000000,24.000000,0.000000,0.000000,0.685155,0.940611,0.165382,0.198459,0.632587,580.000000,560.000000,20.000000,24.000000,0.000000,0.000000:
// measure 0
0000
0000
0000
0000
,  // measure 1
0000
0000
0000
0000
,  // measure 2
0000
0000
0000
0000
,  // measure 3
0000
0000
0000
0000
,  // measure 4
0000
0000
0000
0000
,  // measure 5
0000
0000
0000
0000
,  // measure 6
0010
0000
0000
0000
0010
0000
0000
0000
1000
0000
0000
0000
1000
0000
0001
0100
,  // measure 7
0001
0001
0010
0010
,  // measure 8
0100
1000
0010
0001
,  // measure 9
1000
0100
0010
0001
0100
0010
1000
0001
,  // measure 10
2000
0000
0000
0000
,  // measure 11
3000
0000
0001
0001
,  // measure 12
0001
0010
0010
0010
,  // measure 13
1000
1000
1000
0100
,  // measure 14
0100
0100
0001
0001
,  // measure 15
0001
1000
0010
0000
0010
0000
0010
0100
,  // measure 16
1000
0000
1000
0000
1000
0100
0001
0000
,  // measure 17
0001
0000
0001
1000
1001
0000
0000
0000
,  // measure 18
0110
0000
2010
3001
,  // measure 19
0012
1003
0110
0000
,  // measure 20
1001
0000
2100
3001
,  // measure 21
0102
0000
0000
1003
0000
0000
1100
0000
0000
1000
0100
0010
,  // measure 22
0001
1000
0001
0100
0000
0000
0010
0100
0001
1000
0100
0010
,  // measure 23
0001
0010
0100
1000
0000
0000
0001
0100
0001
0010
0100
0010
,  // measure 24
0001
0100
0001
1000
0001
1000
0010
1000
0001
0010
0001
0100
,  // measure 25
0001
1000
0100
0010
0001
1000
0001
0000
0000
0000
0000
0000
,  // measure 26
0000
0000
1000
0000
,  // measure 27
0000
0000
0000
0000
0000
0000
0010
1000
0010
0100
0001
0100
,  // measure 28
0001
1000
0001
0010
0100
0010
0002
0000
0000
0000
0000
0000
,  // measure 29
0000
0000
0000
0000
0003
0000
0000
0000
0010
0000
0001
0000
0010
0000
0001
1000
,  // measure 30
0100
0000
1000
0000
0100
0000
1000
0001
0100
0000
0001
0000
0100
0000
0001
1000
,  // measure 31
0010
0000
0100
0000
0010
0000
1000
0001
0100
0000
0001
0000
1000
0000
0100
0010
,  // measure 32
0001
0000
1000
0000
0010
0000
0100
0000
0001
0000
0000
0001
0000
0000
0001
0000
,  // measure 33
1000
0000
0001
0000
0100
0000
0000
0000
0010
0000
1000
0001
0100
0000
0001
0000
,  // measure 34
0010
0000
0001
1000
0100
0000
1000
0000
0010
0000
1000
0001
0100
0000
0001
0000
,  // measure 35
0010
0000
0001
1000
0100
0000
1000
0000
0001
0000
0001
0000
0010
0000
0010
0000
,  // measure 36
0100
0000
0100
0000
1000
0000
1000
0000
0001
1000
0001
0000
1000
0001
1000
0000
,  // measure 37
0010
0000
0000
0000
1000
0000
0000
0000
0100
0000
0000
0000
0010
0000
0000
0000
0001
0000
0000
0000
0100
0000
0000
0000
0010
0000
0000
0000
0000
0000
0000
0000
0000
0000
0000
0000
1000
0000
0000
0100
0000
0000
1000
0000
0000
0100
0000
0000
,  // measure 38
0010
0000
0000
0000
0001
0100
0001
0100
0010
0000
0000
0000
1000
0001
1000
0001
,  // measure 39
0100
0000
0000
0000
0010
0100
0010
0100
0001
0000
0000
0000
1000
0100
1000
0100
,  // measure 40
0010
0000
0000
0000
0001
1000
0001
1000
0100
0000
0000
0100
0000
0000
0100
0000
,  // measure 41
0010
0001
1000
0000
0010
0010
0010
0000
,  // measure 42
1000
0001
0100
0001
1000
0000
0000
0000
0100
0000
0100
0000
0100
0000
0100
0000
,  // measure 43
0010
0001
1000
0001
0010
0000
0000
0000
1100
0000
0000
0000
0000
0000
0000
0000
,  // measure 44
0101
0000
1200
0001
,  // measure 45
1000
0301
0010
0010
,  // measure 46
0001
0001
0100
0100
,  // measure 47
1000
0000
1000
0000
0001
0010
1000
0001
,  // measure 48
0100
1000
0001
0010
1000
0001
0100
1000
,  // measure 49
0010
1000
0010
0000
0010
0000
1000
0000
,  // measure 50
1000
0100
0100
0001
,  // measure 51
0001
0000
1000
0010
0001
1000
0100
0001
,  // measure 52
2000
0002
0000
0000
0000
0000
3003
0000
,  // measure 53
1000
0100
0010
0100
0001
0100
0010
0100
,  // measure 54
1000
0000
0100
0000
0010
0000
0100
0000
0001
0000
0100
0000
1000
0001
1000
0000
,  // measure 55
0001
0100
0010
0100
1000
0100
0010
0100
,  // measure 56
0002
0023
2030
3200
,  // measure 57
0301
0010
0100
0010
1000
0010
0100
0010
,  // measure 58
0001
0010
0100
0010
1000
0010
0100
0010
,  // measure 59
0001
0010
0001
0000
1000
0010
1000
0000
0001
0010
0001
0000
1000
0010
1000
0000
,  // measure 60
0002
0203
2300
3010
,  // measure 61
0110
0000
0000
0010
1000
0001
0100
0001
1000
0010
0000
0100
,  // measure 62
0000
0000
0100
0001
0010
0100
1000
0010
0100
0001
0000
0000
,  // measure 63
1001
0000
0000
0100
0010
0001
0010
0100
1000
0100
0000
0010
,  // measure 64
0000
0000
0010
0001
0100
0010
1000
0100
0010
0001
0000
0000
,  // measure 65
1000
0100
0010
0001
0000
0001
1000
0010
0100
0001
0000
0001
,  // measure 66
1000
0100
0010
0001
0100
0010
1000
0010
0100
0001
1000
0001
,  // measure 67
0010
0001
0010
0100
0010
0100
1000
0100
1000
0001
1000
0001
,  // measure 68
0000
0000
0000
0000
,  // measure 69
0011
0010
0100
1000
,  // measure 70
0101
0100
0010
1000
,  // measure 71
2002
0000
0000
3003
,  // measure 72
0220
0000
0000
0000
,  // measure 73
0330
0000
0000
0000
,  // measure 74
2002
0000
0000
0000
,  // measure 75
0000
0000
3003
0000
,  // measure 76
1000
0000
0100
0000
0010
0100
0010
0000
0100
0000
0001
0000
0100
0010
0100
0000
,  // measure 77
1000
0000
0000
1000
0000
0000
1000
0000
0001
0000
1000
0000
0100
0000
0000
0000
,  // measure 78
0010
0000
0001
1000
0100
0000
0010
0000
0001
1000
0010
0000
0100
0000
0001
1000
,  // measure 79
0100
0000
0010
0000
0100
0000
1000
0000
0010
0000
1000
0001
0100
0000
0001
0000
,  // measure 80
1000
0000
0000
0000
0000
0000
0000
0000
0001
1000
0001
1000
0001
1000
0001
1000
,  // measure 81
0001
0010
1000
0001
,  // measure 82
1000
0000
1000
0000
0001
0100
0001
0100
0010
0000
0000
0000
1000
0100
1000
0100
,  // measure 83
0010
0000
0010
0000
0001
1000
0001
1000
0100
0000
0000
0000
0010
0100
0010
0100
,  // measure 84
1000
0000
1000
0000
0001
0100
0001
0100
0010
0000
0000
0000
1000
0001
1000
0001
,  // measure 85
0100
0000
0000
0100
0000
0000
0100
0000
0010
0000
1000
0000
0001
0000
0000
0000
,  // measure 86
0010
0000
0001
0000
0010
0000
0100
0000
1000
0100
1000
0100
0010
0100
0010
0100
,  // measure 87
0010
0000
0001
0000
0100
0000
0001
0000
0010
0001
0010
0001
1000
0001
1000
0001
,  // measure 88
0100
0000
0000
0100
0000
0000
0010
0000
0000
0010
0000
0000
1000
0000
0000
0000
,  // measure 89
0001
0000
0000
0010
0000
0000
0100
0000
0000
1000
0000
0000
0001
0000
0100
0000
0010
0000
1000
0000
0100
0000
0010
0000
,  // measure 90
0000
2002
0000
0000
0000
0000
0000
0000
,  // measure 91
3003
0000
0000
0000
;

//---------------dance-double - ----------------
#NOTES:
     dance-double:
     :
     Easy:
     8:
     0.348484,0.489118,0.239804,0.190190,0.028942,295.000000,266.000000,29.000000,23.000000,0.000000,0.000000,0.348484,0.489118,0.239804,0.190190,0.028942,295.000000,266.000000,29.000000,23.000000,0.000000,0.000000:
00000000
00000000
00000000
00000000
,
00000000
00000000
00000000
00000000
,
00000000
00000000
00000000
00000000
,
00000000
00000000
00000000
00000000
,
00000000
00000000
00000000
00000000
,
00000000
00000000
00000000
00000000
,
00000010
00000010
00000001
00000001
,
00000100
00000100
00001000
00001000
,
00010000
01000000
10000000
00100000
,
00010000
00000000
10000000
00000000
,
20020000
00000000
00000000
00000000
,
30030000
00000000
10000000
00000000
,
00000000
00100000
00000000
00000000
,
00010000
00000000
00000000
00001000
,
00000000
00000000
00000100
00000100
,
00000100
00000001
00000001
00000001
,
00000010
00000010
00000010
00001000
,
00001000
00001000
00011000
00000000
,
00011000
00000000
00102000
00013000
,
00020010
00031000
00011000
00000000
,
00011000
00000000
01002000
00013000
,
00020100
00031000
01000000
01000000
,
00100000
00000000
00100000
10000000
00000000
00000000
01000000
00000000
00000000
00100000
00000000
00000000
,
00010000
00000000
00010000
00100000
00000000
00000000
00001000
00000000
00000000
00010000
00000000
00000000
,
00000010
00000000
00000010
00001000
00000000
00000000
00000100
00000000
00000000
00000010
00000000
00000000
,
00000001
00001000
00000001
00000000
,
00000000
00000000
00001000
00000000
,
00000000
00000000
00000010
00000100
,
00001000
00010000
00002000
00000000
,
00000000
00003000
00001000
00010000
,
01000000
10000000
00010000
01000000
,
10000000
01000000
00100000
00010000
,
01000000
00100000
10000000
10000000
,
10000000
00000000
01000000
00010000
,
00001000
00001000
00000100
00000001
,
00001000
00001000
00000100
00000010
,
00000001
00000100
00000010
00001000
,
00000100
00000000
00010000
00001000
,
00100000
00001000
00010000
00001000
,
01000000
00001000
00010000
00001000
,
00100000
00010000
10000000
10000000
,
10000000
00000000
00010000
00100000
,
00110000
00000000
10000000
01000000
,
11000000
00000000
01010000
00000000
,
00011000
00000000
00001000
00010000
,
00001000
00010000
00000010
00000010
,
00001000
00001000
00000100
00000100
,
00000001
00000001
00000010
00000010
,
00001000
00001000
00010000
00010000
,
00100000
10000000
10000000
01000000
,
01000000
00010000
00010000
00001000
,
00001000
00000100
00000100
00000001
,
00002002
00000000
00000000
00003003
,
00000001
00000100
00000000
00000100
00000000
00000010
00000000
00000010
,
00000000
00010000
00000000
00010000
00000000
00001000
00000000
00001000
,
00000000
00100000
00000000
00100000
00000000
01000000
00000000
01000000
,
10000000
00010000
10000000
00000000
,
00010000
10000000
00000000
10000000
00000000
01000000
00000000
01000000
,
00000000
00010000
00000000
00010000
00000000
00001000
00000000
00001000
,
00000010
00000100
00000010
00000100
,
00000002
00000000
00002000
00003003
,
00000110
00000000
00000000
00001000
00000000
00000000
00000001
00000000
00000000
00000100
00000000
00000100
,
00000000
00000001
00000100
00001000
,
00011000
00000000
00000000
00001000
00000000
00000000
00010000
00000000
00000000
00100000
00000000
00100000
,
00000000
10000000
00010000
01000000
,
00110000
10000000
10100000
00010000
,
10000000
01000000
00010000
00001000
,
00000010
00000000
00000000
00000001
00000000
00000000
00001000
00000000
00000000
00000001
00001000
00000001
,
00000000
00000000
00000000
00000000
,
00002020
00000000
00000000
00003030
,
00000202
00000000
00000000
00000303
,
00002002
00000000
00000000
00003003
,
00000220
00000000
00000000
00000000
,
00000330
00000000
00000000
00000000
,
00022000
00000000
00000000
00000000
,
00000000
00000000
00033000
00000000
,
00010000
00100000
01000000
00100000
,
10000000
01000000
00100000
00010000
,
10000000
00000000
00000000
10000000
00000000
00000000
10000000
00000000
,
00000000
01000000
00010000
00000000
,
00001000
00000000
00000000
00000000
,
00000110
00001001
00000110
00001001
,
00000001
00000001
00000010
00000100
,
00010000
00010000
00001000
00100000
,
00010000
00010000
01000000
00100000
,
10000000
00010000
10000000
00000000
,
01000000
00100000
00010000
01000000
,
00100000
10000000
01000000
00010000
,
00001000
00000000
00000010
00000000
,
00001001
00000000
00000010
00000100
,
00000000
00002002
00000000
00000000
00000000
00000000
00000000
00000000
,
00003003
00000000
00000000
00000000
;

//---------------dance-double - ----------------
#NOTES:
     dance-double:
     :
     Medium:
     12:
     0.476064,0.639616,0.206728,0.223266,0.186055,403.000000,378.000000,25.000000,27.000000,0.000000,0.000000,0.476064,0.639616,0.206728,0.223266,0.186055,403.000000,378.000000,25.000000,27.000000,0.000000,0.000000:
00000000
00000000
00000000
00000000
,
00000000
00000000
00000000
00000000
,
00000000
00000000
00000000
00000000
,
00000000
00000000
00000000
00000000
,
00000000
00000000
00000000
00000000
,
00000000
00000000
00000000
00000000
,
00100000
00100000
00010000
00010000
,
10000000
10000000
01000000
01000000
,
00010000
00001000
00000100
00000001
,
00000010
00000001
00000100
00000010
00001000
00000100
00000010
00000000
,
00000002
00000000
00000000
00000000
,
00000003
00000000
00000100
00000100
,
00000100
00000010
00000010
00000010
,
00010000
00010000
00010000
00001000
,
00001000
00001000
00100000
00100000
,
00100000
00010000
01000000
00000000
01000000
00000000
01000000
00100000
,
10000000
00000000
10000000
00000000
10000000
00010000
00100000
00000000
,
00100000
00100000
10010000
00000000
,
01100000
00000000
01002000
00013000
,
00102000
00013000
00001010
00000000
,
00001100
00000000
00020010
00031000
,
00020100
00031000
00000100
00000100
,
00000010
00000100
00000010
00000100
00000000
00000000
00000001
00000000
00000000
00000010
00000000
00000000
,
00000100
00001000
00000100
00001000
00000000
00000000
00010000
00000000
00000000
00100000
00000000
00000000
,
01000000
00100000
01000000
00100000
00000000
00000000
10000000
00000000
10000000
00100000
00000000
00100000
,
01000000
00000000
01000000
00010000
00000000
00010000
10000000
00000000
00000000
00000000
00000000
00000000
,
00000000
00000000
00010000
00000000
,
00000000
00000000
00000000
00000000
00000000
00000000
01000000
00000000
01000000
00001000
00000000
00001000
,
00010000
00000000
00010000
00000010
00000000
00000010
00000200
00000000
00000000
00000000
00000000
00000000
,
00000000
00000000
00000300
00000000
00000001
00000000
00000010
00000001
,
00001000
00000000
00000010
00000100
00000001
00000000
00000010
00000100
,
00001000
00000000
00000001
00000100
00001000
00000000
00010000
00100000
,
10000000
00000000
00010000
10000000
01000000
00000000
00000000
00000000
,
00100000
00010000
10000000
00000000
01000000
00100000
00010000
01000000
,
00100000
00000000
10000000
00000000
01000000
10000000
00100000
01000000
,
00001000
00000000
00010000
00000000
00000010
00001000
00000100
00000000
,
00000010
00000001
00000100
00000000
00000110
00000000
00000000
00000000
,
00001000
00000000
00000100
00000000
00000010
00000000
00000001
00000000
00000000
00000000
00000000
00000000
00000100
00000000
00000000
00000000
00000000
00000000
00000010
00000000
00000000
00010000
00000000
00000000
,
00001000
00000000
00100000
00010000
10000000
00000000
01000000
10000000
,
00100000
00000000
01000000
00010000
00100000
00000000
01000000
00100000
,
01000000
00000000
00010000
00001000
00000010
00000000
00000000
00000000
,
00000001
00000010
00000001
00000000
00001000
00000010
00000100
00000001
,
00001000
00000000
00000000
00000000
00000100
00000010
00000100
00010000
,
00001000
00000000
00110000
00000000
,
10100000
00000000
00210000
10000000
,
00010000
10300000
01000000
01000000
,
10000000
10000000
00100000
00100000
,
00010000
00000000
00010000
00000000
00001000
00000000
00001000
00000100
,
00000000
00000100
00000001
00000000
00000001
00000010
00000000
00000010
,
00001000
00010000
00010000
00100000
,
00100000
10000000
10000000
01000000
,
01000000
00000000
00010000
00000000
00010000
00001000
00000000
00001000
,
00000200
00000002
00000000
00000000
00000000
00000000
00000303
00000000
,
00000001
00000010
00000000
00000010
00000100
00000010
00000000
00000010
,
00001000
00010000
00000000
00010000
00001000
00100000
00010000
00000000
,
10000000
00100000
00000000
00100000
01000000
00100000
00000000
00100000
,
20000000
30020000
02030000
03200000
,
10300000
01000000
00000000
01000000
00100000
01000000
00000000
01000000
,
00010000
00001000
00000000
00001000
00010000
00000100
00001000
00000000
,
00000001
00000010
00001000
00000010
,
00000002
00000000
00002000
00003003
,
00000110
00000000
00000000
00001000
00000000
00000000
00010000
00001000
00010000
00001000
00000000
00100000
,
00000000
00000000
00100000
01000000
00000000
00000000
10000000
01000000
10000000
01000000
00000000
00000000
,
10010000
00000000
00000000
00100000
00000000
00000000
00010000
01000000
00010000
01000000
00000000
00100000
,
00000000
00000000
00100000
01000000
00000000
00000000
00001000
00010000
00001000
00010000
00000000
00000000
,
00000010
00001000
00000010
00001000
00000000
00000000
00000001
00000100
00000001
00000100
00000000
00000000
,
00000001
00000000
00000001
00000010
00000000
00000010
00000100
00000000
00000100
00001000
00000000
00001000
,
00000010
00000000
00000000
00010000
00000000
00000000
00001000
00010000
00001000
00010000
00001000
00010000
,
00000000
00000000
00000000
00000000
,
00220000
00000000
00000000
00330000
,
22000000
00000000
00000000
33000000
,
20020000
00000000
00000000
30030000
,
02200000
00000000
00000000
00000000
,
03300000
00000000
00000000
00000000
,
00022000
00000000
00000000
00000000
,
00000000
00000000
00033000
00000000
,
00001000
00000010
00000001
00000000
00001000
00000010
00000100
00000000
,
00000001
00000000
00000000
00000001
00000000
00000000
00000001
00000000
00001000
00000000
00000000
00000000
00000100
00000000
00000000
00000000
,
00000010
00000000
00000001
00000100
00000000
00000010
00010000
00000000
,
00000000
00001000
00100000
00010000
10000000
00000000
00100000
00000000
,
10000000
00000000
00000000
00000000
,
11000000
01010000
00011000
00001010
,
00000001
00001000
00000100
00000010
00000001
00000000
00000100
00000000
,
00000010
00001000
00000100
00001000
00000010
00000000
00010000
00000000
,
00001000
00010000
01000000
00100000
01000000
00000000
10000000
00000000
,
00100000
00000000
01000000
00000000
01000000
00010000
10000000
00000000
,
01000000
10000000
00100000
00000000
01000000
00010000
00100000
00000000
,
01000000
00010000
00001000
00000010
00000001
00001000
00000001
00000000
,
00000100
00000000
00000000
00000010
00000000
00000000
00000100
00000000
,
00000110
00000000
00000000
00000000
00000000
00000000
00001000
00010000
00001000
00010000
00001000
00010000
,
00000000
00022000
00000000
00000000
00000000
00000000
00000000
00000000
,
00033000
00000000
00000000
00000000
;

//---------------dance-double - ----------------
#NOTES:
     dance-double:
     :
     Hard:
     15:
     0.642628,0.902987,0.181920,0.148844,0.529223,544.000000,522.000000,22.000000,18.000000,0.000000,0.000000,0.642628,0.902987,0.181920,0.148844,0.529223,544.000000,522.000000,22.000000,18.000000,0.000000,0.000000:
00000000
00000000
00000000
00000000
,
00000000
00000000
00000000
00000000
,
00000000
00000000
00000000
00000000
,
00000000
00000000
00000000
00000000
,
00000000
00000000
00000000
00000000
,
00000000
00000000
00000000
00000000
,
00000010
00000000
00000000
00000000
00000010
00000000
00000000
00000000
00000001
00000000
00000000
00000000
00000001
00000000
00000100
00000010
,
00000100
00000100
00001000
00001000
,
00010000
00100000
10000000
01000000
,
00100000
00010000
01000000
00100000
10000000
01000000
00100000
00001000
,
00020000
00000000
00000000
00000000
,
00030000
00000000
00001000
00001000
,
00001000
00000010
00000010
00000010
,
00000001
00000001
00000001
00001000
,
00001000
00001000
00010000
00010000
,
00010000
01000000
00100000
00000000
00100000
00000000
00100000
10000000
,
00010000
00000000
00010000
00000000
00010000
00100000
01000000
00000000
,
01000000
01000000
01010000
00000000
,
00011000
00000000
00010020
00000130
,
00000210
00000301
00001100
00000000
,
00011000
00000000
00201000
01300000
,
02100000
13000000
01010000
00100000
,
10000000
01000000
00100000
00010000
00000000
00000000
00001000
00000100
00000010
00000001
00000100
00000010
,
00001000
00000100
00000010
00000001
00000000
00000000
00000100
00000000
00000000
00000010
00000000
00000000
,
00001000
00000010
00010000
00001000
00000000
00000000
00010000
00001000
01000000
00100000
10000000
01000000
,
00100000
00010000
01000000
00100000
01000000
00100000
10000000
00000000
00000000
00000000
00000000
00000000
,
00000000
00000000
00010000
00000000
,
00000000
00000000
00000000
00000000
00000000
00000000
10000000
00100000
10000000
00010000
01000000
00001000
,
00010000
00000010
00001000
00000001
00000100
00000010
00002000
00000000
00000000
00000000
00000000
00000000
,
00000000
00000000
00003000
00000000
00000010
00001000
00000010
00001000
,
00000100
00000010
00000100
00000010
00000001
00000100
00001000
00010000
,
00100000
10000000
01000000
00100000
00010000
10000000
00010000
10000000
,
00100000
00000000
01000000
00000000
00100000
00000000
01000000
00000000
00010000
00000000
00000000
00010000
00000000
00000000
00010000
00000000
,
00100000
00000000
00001000
00000000
00010000
00000000
00000000
00000000
00000010
00000000
00010000
00001000
00010000
00000000
00001000
00000000
,
00100000
00000000
00001000
00010000
00001000
00000000
00010000
00000000
00000100
00000000
00010000
00001000
00010000
00000000
00001000
00000000
,
01000000
00000000
00001000
00010000
00001000
00000000
00010000
00000000
00001000
00000000
00000100
00000000
00000010
00000000
00000100
00000000
,
00000001
00000010
00000100
00001000
00000001
00000000
00000000
00000000
,
00000010
00000000
00000000
00000000
00000001
00000000
00000000
00000000
00001000
00000000
00000000
00000000
00000100
00000000
00000000
00000000
00010000
00000000
00000000
00000000
00001000
00000000
00000000
00000000
00100000
00000000
00000000
00000000
00000000
00000000
00000000
00000000
00000000
00000000
00000000
00000000
00010000
00000000
00000000
01000000
00000000
00000000
00010000
00000000
00000000
01000000
00000000
00000000
,
00100000
00000000
00000000
00000000
10000000
01000000
10000000
01000000
00100000
00000000
00000000
00000000
00010000
10000000
00010000
10000000
,
01000000
00000000
00000000
00000000
00100000
01000000
00100000
01000000
00010000
00000000
00000000
00000000
00001000
00010000
00001000
00010000
,
00000100
00000000
00000000
00000000
00000010
00000001
00000010
00000001
00000100
00000000
00000000
00000100
00000000
00000000
00000100
00000000
,
00000010
00001000
00000001
00000000
00000001
00000010
00001000
00000000
,
00010000
00001000
00100000
00001000
00010000
00000000
00000000
00000000
00001000
00000000
00010000
00000000
01000000
00000000
10000000
00000000
,
00010000
01000000
00100000
01000000
00010000
00000000
00000000
00000000
10100000
00000000
00000000
00000000
00000000
00000000
00000000
00000000
,
00110000
00000000
10000000
01000000
,
00010000
00001000
00000010
00000010
,
00000001
00000001
00001000
00001000
,
00000001
00000000
00000001
00000000
00001000
00000010
00000001
00001000
,
00000100
00000001
00000010
00001000
00010000
01000000
10000000
00010000
,
00100000
10000000
00100000
00000000
00100000
00000000
00010000
00000000
,
00010000
10000000
10000000
00010000
,
00010000
00000000
10000000
00100000
00010000
10000000
01000000
00001000
,
00020000
00002000
00000000
00000000
00000000
00000000
00033000
00000000
,
00010000
00000010
00001000
00000001
00001000
00000100
00001000
00010000
,
00100000
00000000
00010000
00000000
10000000
00000000
00010000
00000000
01000000
00000000
00010000
00000000
00100000
01000000
00100000
00000000
,
00010000
00100000
00010000
10000000
00010000
01000000
00010000
00001000
,
00000010
00001000
00000001
00001001
,
00001000
00000010
00001000
00000001
00001000
00000100
00001000
00010000
,
00100000
00010000
10000000
00010000
01000000
00010000
10000000
00000000
,
00100000
10000000
00100000
00000000
01000000
00010000
01000000
00000000
00100000
10000000
00100000
00000000
01000000
00010000
01000000
00000000
,
00002000
00000000
00020000
00033000
,
00000110
00000000
00000000
00000010
00000000
00000000
00001000
00000100
00000010
00000001
00000000
00000101
,
00000000
00000000
00000100
00000010
00001000
00000010
00010000
00001000
00010000
00001000
00000000
00000000
,
00110000
00000000
00000000
01000000
00000000
00000000
00010000
00100000
01000000
10000000
00000000
01010000
,
00000000
00000000
01000000
00100000
10000000
01000000
00100000
00010000
01000000
00100000
00000000
00000000
,
10000000
01000000
00100000
00010000
00000000
00000000
00001000
00000100
00000010
00000001
00000000
00000000
,
00000100
00000010
00001000
00000100
00000010
00000001
00000010
00000100
00001000
00000001
00001000
00000001
,
00000010
00000100
00000010
00000100
00010000
00001000
00100000
00010000
01000000
00100000
10000000
01000000
,
00000000
00000000
00000000
00000000
,
10010000
00000000
00000000
00000000
,
00011000
00000000
00000000
00000000
,
00002020
00000000
00000000
00003030
,
00000202
00000000
00000000
00000000
,
00000303
00000000
00000000
00000000
,
00002002
00000000
00000000
00000000
,
00000000
00000000
00003003
00000000
,
00000001
00000000
00000010
00000000
00000100
00000010
00000100
00000000
00001000
00000000
00000010
00000000
00000100
00000010
00000100
00000000
,
00000001
00000000
00000000
00000001
00000000
00000000
00000001
00000000
00001000
00000000
00000001
00000000
00000100
00000000
00000000
00000000
,
00000010
00000000
00010000
00001000
00010000
00000000
00000100
00000000
00010000
00001000
00010000
00000000
00000010
00000000
00010000
00001000
,
00010000
00000000
00001000
00000000
00010000
00000000
00100000
00000000
10000000
00000000
00010000
10000000
00010000
00000000
01000000
00000000
,
00100000
00000000
00000000
00000000
00000000
00000000
00000000
00000000
10000000
00010000
10000000
00010000
10000000
00010000
10000000
00010000
,
10000000
01000000
00010000
00001000
,
00000010
00000000
00000001
00000000
00001000
00000010
00001000
00000010
00000100
00000000
00000000
00000000
00000001
00000100
00000001
00000100
,
00000010
00000000
00001000
00000000
00000001
00001000
00000001
00001000
00000100
00000000
00000000
00000000
00000010
00000100
00000010
00000100
,
00010000
00000000
00001000
00000000
00010000
00001000
00010000
00001000
01000000
00000000
00000000
00000000
00010000
01000000
00010000
01000000
,
00100000
00000000
00000000
00100000
00000000
00000000
00100000
00000000
10000000
00000000
00010000
00000000
10000000
00000000
00000000
00000000
,
01000000
00000000
10000000
00000000
00010000
00000000
10000000
00000000
00010000
01000000
00010000
01000000
00010000
00000000
01000000
00000000
,
00001000
00000000
00010000
00000000
00000100
00000000
00001000
00000000
00000001
00000010
00000001
00000010
00000001
00000000
00001000
00000000
,
00000100
00000000
00000000
00000100
00000000
00000000
00000010
00000000
00000000
00000010
00000000
00000000
00000001
00000000
00000000
00000000
,
00001000
00000000
00000000
00000010
00000000
00000000
00000100
00000000
00000000
00000001
00000000
00000000
00000010
00000000
00000100
00000000
00010000
00000000
00001000
00000000
00100000
00000000
00010000
00000000
,
00000000
22000000
00000000
00000000
00000000
00000000
00000000
00000000
,
33000000
00000000
00000000
00000000
;

//---------------dance-single - ----------------
#NOTES:
     dance-single:
     :
     Challenge:
     17:
     1.023007,1.091109,0.595376,0.173651,1.128734,866.000000,794.000000,72.000000,21.000000,0.000000,0.000000,1.023007,1.091109,0.595376,0.173651,1.128734,866.000000,794.000000,72.000000,21.000000,0.000000,0.000000:
// measure 0
0000
0000
0000
0000
,  // measure 1
0000
0000
0000
0000
,  // measure 2
0000
0000
0000
0000
,  // measure 3
0000
0000
0000
0000
,  // measure 4
0000
0000
0000
0000
,  // measure 5
0000
0000
0000
0000
,  // measure 6
1000
0100
0010
0100
2000
0000
0000
0000
3001
0000
0100
0000
0001
0000
1000
0010
,  // measure 7
0200
0301
0011
0011
,  // measure 8
0100
1000
0010
0000
1000
0100
0010
0000
0001
0010
0100
0000
1000
0001
0010
0000
,  // measure 9
0001
0010
0001
0010
0100
0000
1000
0000
0010
0000
0001
0000
0010
0000
1000
0000
,  // measure 10
0200
0000
0000
0000
,  // measure 11
0310
0000
0000
0000
0001
0000
0000
0000
1000
0000
0000
0000
0010
0000
0000
0000
1000
0000
0000
0000
0001
0000
0000
0000
0100
0000
0000
0000
0000
0000
0100
0000
0000
0000
0000
0000
0010
0000
0000
0000
0000
0000
1000
0000
0000
0100
0000
0000
,  // measure 12
0001
0000
0100
0000
1000
0010
0001
0000
0010
0000
1000
0000
0001
0000
0010
0000
,  // measure 13
0001
0000
0100
0000
0010
0000
1000
0100
1000
0000
0001
0000
0010
0000
0001
0100
,  // measure 14
0010
0000
1000
0000
0100
0000
0010
0001
1000
0000
0010
0000
0100
0000
0001
0010
,  // measure 15
0001
0000
0100
0000
0010
0000
1000
0100
0001
0000
0100
0000
1000
0000
0010
0001
,  // measure 16
0010
0000
1000
0000
0001
0000
0010
0100
1000
0000
0010
0000
0100
0000
0001
0000
,  // measure 17
0010
0000
0000
1000
0000
0000
1001
0000
0000
0000
0000
0000
1001
0000
0000
0000
0000
0000
0001
0000
0010
0000
0100
0000
,  // measure 18
1000
0000
0100
0000
0010
0000
0001
1000
0001
0000
1000
0000
0100
0001
0100
0000
0001
0000
1000
0000
0010
0000
0001
0000
,  // measure 19
1000
0100
0010
1000
0010
0001
0101
0000
0000
1000
1000
0100
,  // measure 20
0010
0000
0001
0000
0010
0000
1000
0000
0010
0000
0001
0000
0100
0001
0100
0000
0010
0000
1000
0100
1000
0000
0001
0000
,  // measure 21
0010
1000
0010
0000
0100
0000
1000
0001
1000
0000
0001
0000
0010
0000
0000
0000
0000
0000
0110
0000
0000
0000
0000
0000
,  // measure 22
1000
0100
0001
1100
0000
0000
1000
0010
0001
0010
1000
0001
,  // measure 23
0100
0100
0010
1000
1000
0001
0010
0100
1000
1001
0010
0001
,  // measure 24
0100
0100
0010
1100
0000
0000
0011
0010
0100
1000
0010
0001
,  // measure 25
0010
0000
1000
0100
1000
0000
0010
0000
0100
0000
0001
0000
0010
0000
0000
0000
0000
0000
0011
0000
0000
0000
0000
0000
,  // measure 26
0101
1100
1010
0011
,  // measure 27
1010
0000
0000
1001
0000
0000
0001
0010
0100
1000
0010
0001
,  // measure 28
0010
0000
0000
0000
1000
0000
0000
0000
0100
0000
0000
0000
0010
0000
0001
0000
0010
0000
0000
0000
0001
0000
0000
0000
0100
0000
0000
0000
0000
0000
0010
0000
0000
1000
0000
0000
0100
0000
0000
0010
0000
0000
0001
0000
0000
0100
0000
0000
,  // measure 29
0010
1000
0100
0010
0001
0000
0000
0000
1010
0000
0100
0000
0010
0001
1000
0001
,  // measure 30
0010
0000
0100
0000
1000
0010
0001
0010
1000
0000
0100
0000
0010
0001
0100
0010
,  // measure 31
1000
0000
0001
0000
0010
0100
1000
0001
0010
0000
0100
0000
1000
0100
0001
0100
,  // measure 32
1000
0000
0010
0000
0100
0001
0010
0100
1000
0000
0000
1010
0000
0000
0110
0000
,  // measure 33
0100
0001
0010
0000
0010
0100
1000
0000
1001
0000
0001
0010
1000
0010
0001
0100
,  // measure 34
0010
0100
0001
0000
1000
0100
0010
0100
1000
0000
0001
0000
0010
0100
1000
0100
,  // measure 35
0010
0001
0100
0010
1000
0000
0001
0000
1000
0000
0100
0000
0010
0001
0100
0010
,  // measure 36
1000
0001
0100
0010
1000
0000
0001
0000
0010
1000
0010
0000
0001
0100
1000
0000
,  // measure 37
0101
0000
0000
0000
0001
0000
0000
0000
0010
0000
0000
0000
1100
0000
0000
0000
1000
0000
0000
0000
0010
0000
0000
0000
0100
0000
0000
0000
0000
0000
0001
0000
0000
0000
0000
0000
0010
0000
0000
0100
0000
0000
1000
0000
0000
0100
0000
0000
,  // measure 38
0010
0000
0001
0000
0010
1000
0010
0001
0010
0000
0100
0000
1000
0100
0001
0100
,  // measure 39
1000
0000
0010
0000
0100
0010
0001
1000
0001
0000
0100
0000
0010
1000
0100
0010
,  // measure 40
0001
0000
1000
0000
0010
0100
0001
0010
0100
0000
0000
1100
0000
0000
1001
0000
,  // measure 41
0001
0010
0100
1000
0100
0010
0001
0000
0100
0000
0100
0000
0100
0010
1000
0010
,  // measure 42
0100
0001
0010
0001
0010
0000
0100
0000
1000
0000
1000
0000
0001
0000
0001
0000
,  // measure 43
0100
0010
1000
0010
0100
0000
0000
0000
0101
0000
0000
0000
0001
0010
0100
1000
,  // measure 44
0010
0000
0000
0000
1000
0100
0010
0001
0100
0000
0010
1000
0100
0000
0100
0000
,  // measure 45
0011
0000
1001
0000
1010
0010
0001
1000
,  // measure 46
0100
0001
1000
0100
0001
0100
1000
0010
,  // measure 47
0001
0010
1000
0001
0100
0010
1000
0010
,  // measure 48
0100
0001
0010
0100
0001
0100
1000
0010
,  // measure 49
0100
0001
0010
0100
1000
0010
0100
0001
,  // measure 50
0020
0130
0200
2300
,  // measure 51
3002
0000
0103
0010
1000
0000
0100
0010
,  // measure 52
0002
0000
2000
0000
0000
0000
0000
0000
0000
0000
3003
0000
0001
0010
0100
0000
,  // measure 53
1100
1000
0100
0001
0100
1000
0100
0001
,  // measure 54
0100
1000
0100
0000
0010
0000
0001
0000
0010
0000
0100
0000
1000
0010
0100
0001
,  // measure 55
0010
0100
1000
0001
0010
0001
0100
0010
,  // measure 56
2000
0100
3002
0100
2003
0100
3002
0000
,  // measure 57
0103
0010
1000
0000
0010
0000
0100
0000
0001
0000
0010
0000
0001
0000
1000
0000
,  // measure 58
0100
0010
0001
0000
0100
0000
0010
1000
0100
0000
0010
0001
0100
0000
0010
0000
,  // measure 59
1000
0100
1000
0000
0001
0010
0001
0000
0100
0010
0100
0000
0001
1000
0001
0000
,  // measure 60
1001
1000
1010
0010
0110
0000
0101
0000
,  // measure 61
0011
0000
0000
0010
0100
1000
0100
0010
0001
0100
0000
1010
,  // measure 62
0000
0000
0001
0100
1000
0100
0001
0010
1000
1010
0000
0000
,  // measure 63
1001
0000
0000
0001
0100
1000
0001
0010
1000
0001
0000
0011
,  // measure 64
0000
0000
0110
0010
1000
0100
0001
0100
1000
1001
0000
0000
,  // measure 65
0011
0010
0100
1000
0000
0001
0100
1000
0100
0001
0000
0010
,  // measure 66
1000
0010
0001
0100
0000
0010
1000
0100
1000
0001
0010
0001
,  // measure 67
0100
0010
1000
0100
0010
0001
0100
0010
1000
0100
0010
0001
,  // measure 68
0202
0000
0000
0000
0000
0303
1001
0000
,  // measure 69
1010
0110
0101
0011
,  // measure 70
0110
0110
1001
1001
,  // measure 71
2200
0000
0000
0000
0000
0000
0000
0000
0000
0000
3300
0000
1000
0001
0010
0000
,  // measure 72
0001
0100
0001
1000
0001
0100
0001
1000
0001
0100
0001
1000
0001
0100
0001
0000
,  // measure 73
1000
0000
0010
0100
0001
0000
0100
0000
1010
0000
1000
0000
2002
0000
3003
0000
,  // measure 74
0001
0000
0100
0000
1000
0100
0001
0100
1000
0000
0010
0001
0010
1000
0010
0001
,  // measure 75
0010
0000
0100
1000
0010
0100
0001
0010
0000
0001
0000
1000
0001
0000
0000
0000
,  // measure 76
0100
0000
0001
0000
0010
0100
1000
0010
1000
0000
0001
0000
0100
0010
1000
0000
,  // measure 77
0001
0000
0000
0101
0000
0000
0110
0000
0010
1000
0100
0000
0010
0001
0100
0000
,  // measure 78
0010
0000
1000
0001
0100
0000
0010
1000
0100
0000
1000
0000
0001
0000
0010
0001
,  // measure 79
0100
0000
0010
0000
1000
0000
0001
0000
1000
0000
0010
0100
0001
0000
0010
0000
,  // measure 80
0001
0000
1000
0100
1000
0000
0010
0100
0001
0010
0001
1000
0010
0100
0010
0100
,  // measure 81
0001
1001
1010
0110
,  // measure 82
0001
0000
0001
0000
0010
0100
0010
1000
0010
0000
0001
0000
0100
1000
0100
0001
,  // measure 83
0100
0000
1000
0000
0010
0001
0010
1000
0010
0000
0001
0000
0100
0010
1000
0100
,  // measure 84
0010
0000
0001
0000
0100
1000
0100
0001
0100
0000
1000
0000
0100
0010
0001
0010
,  // measure 85
0100
0000
0000
1100
0000
0000
1000
0000
0010
0100
0010
0000
0100
0001
0010
0001
,  // measure 86
1000
0000
0010
0000
0100
0001
1000
0001
0100
0000
0010
0000
1000
0100
1000
0001
,  // measure 87
0010
0000
0001
0000
1000
0010
0100
0001
0010
0000
0100
0000
1001
0000
0001
0000
,  // measure 88
0011
0000
0000
0110
0000
0000
1100
0000
0000
1010
0000
0000
0110
0000
0100
0000
,  // measure 89
0101
0000
0000
0000
0000
0000
0000
0000
0000
0011
0000
0000
0000
0000
0000
0000
0000
0000
0110
0000
0000
0000
0000
0000
1100
0000
0000
0000
0010
0000
0000
0000
0001
0000
0000
0000
0010
0000
0000
0000
0100
0000
0000
0000
1000
0000
0000
0000
,  // measure 90
0000
2002
0000
0000
0000
0000
0000
0000
,  // measure 91
3003
0000
0000
0000
;
