#TITLE:Orange Sky;
#SUBTITLE:;
#ARTIST:Arctures;
#TITLETRANSLIT:;
#SUBTITLETRANSLIT:;
#ARTISTTRANSLIT:;
#GENRE:;
#CREDIT:;
#BANNER:Orange Sky.png;
#BACKGROUND:Orange Sky-bg.png;
#LYRICSPATH:;
#CDTITLE:./CDTITLES/DanceDanceRevolution UNIVERSE2.png;
#MUSIC:Orange Sky.mp3;
#OFFSET:0.120000;
#SAMPLESTART:38.257000;
#SAMPLELENGTH:12.840000;
#SELECTABLE:YES;
#BPMS:0.000000=149.973007
;
#STOPS:
;
#BGCHANGES:;
#KEYSOUNDS:;
#ATTACKS:;

//---------------dance-single - ----------------
#NOTES:
     dance-single:
     :
     Beginner:
     2:
     0.119681,0.121522,0.009206,0.009206,0.000000,89.000000,1.000000,1.000000,0.000000,0.000000,0.000000,0.119681,0.121522,0.009206,0.009206,0.000000,89.000000,1.000000,1.000000,0.000000,0.000000,0.000000:
0000
0000
0000
0000
,
0000
0000
0000
0000
,
0000
0000
0000
0000
,
0000
0000
0000
0000
,
0000
0000
0000
0000
,
0000
0000
0000
0000
,
0000
1000
0000
1000
,
0000
0001
0000
0001
,
0000
0100
0000
0100
,
0000
0010
0000
0010
,
0010
0000
0000
0000
,
0000
0000
0000
0000
,
0001
0000
0000
0000
,
0001
0000
0000
0000
,
1000
0000
0000
0000
,
1000
0000
0000
0000
,
0100
0000
0000
0000
,
0010
0000
0000
0000
,
0100
0000
0000
0000
,
0010
0000
0000
0000
,
0001
0000
0000
0000
,
0000
0000
1000
0000
,
0000
0000
0000
0000
,
0010
0000
0000
0000
,
0100
0000
0001
0000
,
0100
0000
0000
0000
,
0010
0000
1000
0000
,
0010
0000
0000
0000
,
1000
0000
0100
0000
,
1000
0000
0000
0000
,
0001
0000
0010
0000
,
0001
0000
0000
0000
,
0100
0000
1000
0000
,
0100
0000
0001
0000
,
0010
0000
1000
0000
,
0010
0000
0001
0000
,
0100
0000
0000
0000
,
0010
0000
0000
0000
,
1000
0000
0100
0000
,
0001
0000
0100
0000
,
1000
0000
0001
0000
,
1000
0000
0000
0000
,
0010
0000
0100
0000
,
0010
0000
0000
0000
,
1000
0000
0100
0000
,
0001
0000
0000
0000
,
0010
0000
0001
0000
,
0100
0000
0000
0000
,
0010
0000
0100
0000
,
0010
0000
0000
0000
,
1000
0000
0100
0000
,
1000
0000
0000
0000
,
0001
0000
0100
0000
,
0001
0000
0000
0000
,
0010
0000
0100
0000
,
0010
0000
0100
0000
,
0020
0000
0000
0000
,
0030
0000
0000
0000
,
1000
0000
0001
0000
,
0100
0000
0010
0000
,
0100
0000
0001
0000
,
1000
0000
0100
0000
,
0010
0000
0100
0000
,
1000
0000
0001
0000
,
0100
0000
0010
0000
,
1000
0000
0001
0000
,
1001
0000
0000
0000
;

//---------------dance-single - ----------------
#NOTES:
     dance-single:
     :
     Easy:
     6:
     0.307751,0.339250,0.156506,0.165712,0.000000,199.000000,17.000000,18.000000,0.000000,0.000000,0.000000,0.307751,0.339250,0.156506,0.165712,0.000000,199.000000,17.000000,18.000000,0.000000,0.000000,0.000000:
0000
0000
0000
0000
,
0000
0000
0000
0000
,
0000
0000
0000
0000
,
0000
0000
0000
0000
,
0000
0000
0000
0000
,
0000
0000
0000
0000
,
1000
0100
0001
0100
,
1000
0100
0001
0010
,
0001
0100
1000
0100
,
0001
1000
0010
0100
,
1001
0000
0000
0000
,
0000
0000
0000
0000
,
0010
0000
0010
0000
,
1000
0000
0010
0000
,
0100
0000
0001
0000
,
1000
0000
0001
0000
,
0010
0000
0001
0000
,
1000
0000
0010
0000
,
0100
0000
0100
0000
,
0001
0000
1000
0000
,
0001
0000
0000
0100
,
0000
0000
0010
0010
,
1000
0000
0000
1000
,
0100
0010
0100
0010
,
1001
0100
0010
0100
,
1000
0001
1000
0100
,
0010
1001
0010
1001
,
0010
1000
0100
0001
,
0100
1001
0010
1001
,
0010
1000
0001
0100
,
1000
0110
0001
0110
,
1000
0001
0010
0100
,
0002
0003
2000
3000
,
0010
0100
0001
1000
,
0200
0300
0020
0030
,
0001
0010
0100
1000
,
0002
0100
0100
0103
,
2000
0100
0100
3100
,
0002
0010
0010
0013
,
0200
0000
0000
0300
,
0001
1000
0001
1000
,
0010
0001
1000
0010
,
0100
0001
0100
0001
,
1000
0001
0100
0010
,
1000
0100
0001
0100
,
0010
1000
0001
0010
,
0100
1001
0010
1001
,
0100
0010
1000
0001
,
2000
3100
0002
0103
,
0010
1000
0100
1000
,
0002
0013
2000
3010
,
0100
0001
1000
0100
,
0020
0130
2000
3001
,
0200
1300
0010
0001
,
0002
0100
0103
0010
,
2000
0100
0001
3100
,
0010
0000
0000
0000
,
0100
0000
0000
0000
,
1000
0001
0100
0010
,
0100
0110
0010
0110
,
0010
0001
0100
0010
,
1000
1001
0001
1001
,
0100
0010
0001
0100
,
0010
0110
0100
0110
,
0010
1000
0100
0001
,
0100
1000
0010
1001
,
0200
0000
0000
0000
,
0300
0000
0000
0000
;

//---------------dance-single - ----------------
#NOTES:
     dance-single:
     :
     Medium:
     9:
     0.398499,0.431773,0.193331,0.313012,0.000000,248.000000,21.000000,34.000000,0.000000,0.000000,0.000000,0.398499,0.431773,0.193331,0.313012,0.000000,248.000000,21.000000,34.000000,0.000000,0.000000,0.000000:
0000
0000
0000
0000
,
0000
0000
0000
0000
,
0000
0000
0000
0000
,
0000
0000
0000
0000
,
0000
0000
0000
0000
,
0000
0000
0000
0000
,
0200
0000
1000
0000
1000
0000
1300
0100
,
0020
0000
0100
0000
0100
0000
0130
1000
,
0002
0000
0100
0000
0100
0000
0103
0001
,
2000
0000
0001
0000
3001
1000
0001
0200
,
0000
0000
0000
0000
,
0000
0000
0000
0300
,
0010
0000
1000
0000
,
0100
0100
0010
0000
,
0001
0000
0100
0000
,
0010
1000
0010
0000
,
0100
0000
1001
0000
,
0010
1000
0001
0000
,
0010
0000
0110
0000
,
1000
0001
0100
0000
,
0101
0000
0000
1100
0000
0000
0010
0010
,
0000
0000
0000
0000
0100
0010
0100
0000
,
0011
0000
0000
1010
0000
0000
0101
0000
,
0010
0000
0110
0000
1000
0001
1000
0000
,
0020
0000
0000
1030
0020
0000
0000
0130
,
0001
0000
1000
0100
1000
0000
0001
0000
,
0200
0000
0000
0310
0200
0000
0000
0310
,
1000
0000
1001
0000
0010
0001
0010
0000
,
0002
0000
0000
0103
0002
0000
0000
1003
,
0002
0000
0000
0013
0100
0000
1001
0000
,
0020
0000
0000
0130
0020
0000
0000
0031
,
1000
0000
0100
0000
0010
0001
0100
0000
,
2002
0000
3003
0100
0020
0000
0000
0130
,
1000
0000
1001
0000
0010
0100
0010
0000
,
0202
0000
0303
1000
0002
0000
0000
0103
,
0010
0000
1001
0000
1000
0100
1000
0000
,
0220
0000
0330
1000
0020
0000
0000
0130
,
0001
0000
0010
1000
0010
0000
0100
0001
,
0200
0000
0000
0310
2000
0000
0000
3001
,
0020
0000
0000
0000
,
0130
0000
1000
0100
1000
0000
1000
0100
,
0010
0000
0010
0001
0010
0000
1001
0000
,
0100
0000
0010
1000
0010
0000
0010
0100
,
0010
0001
1000
1100
,
0010
0000
0001
1000
0001
0000
0100
0001
,
0100
0000
0010
1000
0010
0000
0100
0000
,
0001
0000
1000
0100
0010
0000
0010
0100
,
1000
0001
0010
0110
,
1001
0000
0001
0100
0010
0000
0010
0100
,
0001
0000
1000
0000
0100
0010
0100
0000
,
1000
0000
0010
1000
0100
0000
0010
1000
,
0001
0010
0100
0011
,
0001
0000
0001
0100
0010
0000
0001
1000
,
0010
0000
0100
0000
0001
0010
0100
0000
,
1000
0000
0001
0000
1000
0100
1000
0000
,
0010
0100
0010
0000
1000
0000
0001
2000
,
0000
0000
0000
0000
,
3100
0000
0000
0100
0000
0000
1001
0000
,
0020
1000
0100
1030
,
0002
0010
0100
0013
,
0200
0010
0001
0310
,
2000
0000
0001
0000
0100
0000
3001
1000
,
0002
0010
1000
0103
,
2000
0010
0001
3100
,
0001
0000
0001
0100
0010
0000
0010
0000
,
1000
0100
0000
0001
0000
0100
0000
1000
,
0002
0000
0000
0000
,
0003
0000
0000
0000
;

//---------------dance-single - ----------------
#NOTES:
     dance-single:
     :
     Hard:
     12:
     0.474779,0.493454,0.147300,0.128887,0.234759,331.000000,16.000000,14.000000,0.000000,0.000000,0.000000,0.474779,0.493454,0.147300,0.128887,0.234759,331.000000,16.000000,14.000000,0.000000,0.000000,0.000000:
// measure 0
0000
0000
0000
0000
,  // measure 1
0000
0000
0000
0000
,  // measure 2
0000
0000
0000
0000
,  // measure 3
0000
0000
0000
0000
,  // measure 4
0000
0000
0000
0000
,  // measure 5
0000
0000
0000
0000
,  // measure 6
1000
0100
1000
0000
1000
0100
1000
0000
,  // measure 7
0100
0001
1000
0001
0100
0010
0100
0000
,  // measure 8
1000
0001
0010
0000
0001
1000
0010
0000
,  // measure 9
0100
0010
1000
0001
0010
0001
1000
0100
,  // measure 10
0020
0000
0000
0000
,  // measure 11
0000
0000
0000
0000
,  // measure 12
0031
0000
0000
0001
1000
0000
0000
0000
,  // measure 13
0100
0100
0010
0000
,  // measure 14
1000
0000
0000
0000
0100
0000
0000
1000
,  // measure 15
0001
0000
0001
0000
0010
0000
0000
0010
,  // measure 16
0100
0000
0000
1000
0001
0000
0000
0000
,  // measure 17
0100
0000
0010
0100
0010
0000
0000
0000
,  // measure 18
1000
0000
0000
0000
1001
0000
0000
0001
,  // measure 19
0010
0000
0010
0000
0100
0010
0000
1000
,  // measure 20
0001
0000
0000
0100
0000
0000
1000
0000
0000
0100
0000
0000
0001
0000
1001
0000
,  // measure 21
0000
0000
0000
0000
0010
0010
0010
0000
,  // measure 22
1000
0000
0000
0100
0000
0000
0001
0000
0000
0100
0000
0010
0000
0010
0000
0000
,  // measure 23
0100
0000
0000
0001
0000
0000
0100
0000
0010
0000
1000
0000
0010
0000
0000
0000
,  // measure 24
1000
0000
0000
0001
0000
0000
0100
0000
0001
0000
0000
1000
0000
0000
0100
0000
,  // measure 25
0000
0010
0001
1000
0010
0000
0110
0000
,  // measure 26
0001
0000
0000
0010
0000
0000
0001
0000
1000
0000
0000
0100
0000
0000
1000
0000
,  // measure 27
0010
0100
0001
1000
0001
0000
1001
0000
,  // measure 28
0100
0000
0000
0100
0000
0000
0010
0000
1000
0000
0000
1000
0000
0000
0010
0000
,  // measure 29
0001
0000
0000
0001
0000
0000
1000
0000
0001
0000
0100
0000
0001
0000
0000
0000
,  // measure 30
0010
0000
0000
0100
0000
0000
0001
0000
1000
0000
0000
0100
0000
0000
0010
0000
,  // measure 31
0001
0100
0010
1000
0100
0000
1100
0000
,  // measure 32
0020
0000
0000
0100
0000
0000
0130
0000
0002
0000
0000
0100
0000
0000
0103
0000
,  // measure 33
0000
0010
1000
0010
0100
0000
0011
0000
,  // measure 34
2000
0000
0000
0010
0000
0000
3010
0000
0200
0000
0000
0010
0000
0000
0310
0000
,  // measure 35
1000
0000
1000
0001
0010
0001
0100
0010
,  // measure 36
0100
0000
0000
0001
0000
0000
0100
0000
0010
0000
0000
1000
0000
0000
0010
0000
,  // measure 37
0001
0000
0000
1000
0000
0000
0001
0000
0010
0000
0000
0000
0100
0000
0010
0000
,  // measure 38
0001
0000
0000
1000
0000
0000
1000
0000
0010
0000
0000
0100
0000
0000
0100
0000
,  // measure 39
2002
0000
0000
3003
,  // measure 40
0010
0000
0000
0010
1000
0000
0000
1000
0001
0000
0000
0001
1000
0000
0000
1000
,  // measure 41
0100
0000
0100
1000
0010
0000
0110
0000
,  // measure 42
1000
0000
0000
1000
0100
0000
0000
0100
0010
0000
0000
0010
0100
0000
0000
0100
,  // measure 43
1000
0000
0010
0100
0010
0000
0101
0000
,  // measure 44
0010
0000
0000
0010
0100
0000
0000
0100
1000
0000
0000
1000
0001
0000
0000
0001
,  // measure 45
0100
0000
0000
0100
0010
0000
0000
0000
0010
0000
1000
0000
0001
0000
1000
0000
,  // measure 46
0100
0000
0000
0100
0010
0000
0000
0010
0001
0000
0000
0001
0010
0000
0000
0000
,  // measure 47
1000
0010
1000
0100
0010
0001
0100
0000
,  // measure 48
1000
0000
0000
0010
1000
0000
0000
0000
0001
0000
0000
0100
0001
0000
0000
0000
,  // measure 49
0010
0100
0010
0001
0100
0000
1001
0000
,  // measure 50
0010
0000
0000
1000
0001
0000
0000
0000
0010
0000
0000
0001
1000
0000
0000
0000
,  // measure 51
0100
0000
0100
1000
0001
1000
0100
0010
,  // measure 52
0001
0000
0000
1000
0010
0000
0000
0000
0100
0000
0000
1000
0001
0000
0000
0000
,  // measure 53
0010
0000
0000
0100
1000
0000
0000
0000
0001
0000
0100
0000
0010
0000
0001
0000
,  // measure 54
0020
0000
0000
1000
0000
0000
2030
0000
0100
0000
0000
0100
0000
0000
3200
0000
,  // measure 55
0001
0000
0000
0301
0000
0000
0100
0000
0010
0000
0001
0000
1000
0000
0000
0000
,  // measure 56
2002
0000
0000
3003
,  // measure 57
0100
0000
0001
0100
0000
1000
0020
0000
,  // measure 58
1030
0100
1000
0000
0001
0100
0001
0000
,  // measure 59
0010
0100
0010
0001
1000
0000
1001
0000
,  // measure 60
0010
1000
0010
0000
0100
0010
0100
0000
,  // measure 61
0001
0010
0001
0001
1000
0000
1100
0000
,  // measure 62
0010
1000
0010
1000
0001
1000
0001
1000
,  // measure 63
0001
0100
0001
0100
0010
0100
0010
0100
,  // measure 64
0001
0001
0100
0010
1000
1000
0100
0010
,  // measure 65
0000
0101
0000
1100
0000
1010
0000
0100
,  // measure 66
0020
0000
0000
0000
,  // measure 67
0030
0000
0000
0000
;

//---------------dance-single - ----------------
#NOTES:
     dance-single:
     :
     Challenge:
     14:
     0.632600,0.771022,0.193331,0.193331,0.538565,439.000000,21.000000,21.000000,0.000000,0.000000,0.000000,0.632600,0.771022,0.193331,0.193331,0.538565,439.000000,21.000000,21.000000,0.000000,0.000000,0.000000:
// measure 0
0000
0000
0000
0000
,  // measure 1
0000
0000
0000
0000
,  // measure 2
0000
0000
0000
0000
,  // measure 3
0000
0000
0000
0000
,  // measure 4
0000
0000
0000
0000
,  // measure 5
0000
0000
0000
0000
,  // measure 6
0001
0100
0010
0100
0001
0100
0010
0100
,  // measure 7
0001
1000
0010
1000
0100
1000
0001
0010
,  // measure 8
0001
0100
0010
1000
0100
1000
0010
1000
,  // measure 9
0001
0000
0100
0000
0001
0000
1000
0000
0010
1000
0010
0000
1000
0001
1000
0000
,  // measure 10
0200
0000
0000
0000
,  // measure 11
0000
0000
0000
0000
,  // measure 12
0310
0000
0000
0001
1000
0000
0000
0000
,  // measure 13
0001
0000
0001
0100
0010
0000
0000
0000
,  // measure 14
1000
0000
0000
0000
1100
0000
0000
0010
,  // measure 15
0100
0000
0100
0000
1000
0001
0000
1000
,  // measure 16
0100
0000
0000
0100
0010
0000
0000
0000
,  // measure 17
0001
0000
0100
0001
0010
0000
0000
0000
,  // measure 18
0100
0000
0000
0000
1010
0000
0000
1000
,  // measure 19
0001
0000
0101
0000
0010
1000
0001
0010
,  // measure 20
0100
0010
0000
0100
0010
0000
0100
0010
0000
0100
0000
1000
0001
0000
1001
0000
,  // measure 21
0000
0000
0000
0000
0000
0000
0000
0100
0001
0000
0101
0000
1000
0100
0000
0000
,  // measure 22
0010
1000
0000
0010
1000
0000
0010
1000
0000
0001
0100
0010
0000
0110
0000
0000
,  // measure 23
1000
0100
0000
0010
0100
0000
1000
0001
1000
0000
0010
0000
0110
0000
0000
0000
,  // measure 24
0010
0000
0000
1000
0000
0000
0001
0000
0010
0000
0000
0100
0000
0000
1100
0000
,  // measure 25
0000
0000
0001
0000
1000
0010
1000
0000
0010
0000
0000
0100
0000
0000
0001
0000
,  // measure 26
1000
0000
0000
0100
0000
0000
0010
0000
0001
0000
0000
0100
0000
0000
0110
0000
,  // measure 27
1000
0000
0001
0000
0010
0000
0100
1000
0000
0100
0010
0000
0001
0000
0200
0000
,  // measure 28
0010
0000
0000
0010
0300
0000
2000
0000
0001
0000
0000
0001
3000
0000
1000
0000
,  // measure 29
0200
0000
0000
0010
0000
0000
0010
0000
0301
0000
1000
0100
1000
0000
0001
0000
,  // measure 30
0100
0000
0000
0010
0000
0000
0100
0000
0001
0000
0000
1000
0000
0000
0010
0000
,  // measure 31
1000
0000
0100
0000
0001
0000
0100
0000
0010
0000
0001
1000
0000
0001
0100
0000
,  // measure 32
0010
0000
0000
1010
0000
0000
1000
0000
0001
0000
0000
0101
0000
0000
0100
0000
,  // measure 33
0000
0000
0010
0000
1000
0001
1000
0000
0100
0000
0000
0010
0000
0000
0001
0000
,  // measure 34
1000
0000
0000
0010
0000
0000
0110
0000
0100
0000
0000
0001
0000
0000
1001
0000
,  // measure 35
1000
0000
0100
0000
0010
0000
0001
1000
0000
0010
1000
0000
0001
0000
0010
0000
,  // measure 36
0200
0000
0000
1000
0000
0000
1300
0000
0002
0000
0000
0100
0000
0000
0103
0000
,  // measure 37
0020
0000
0000
1000
0000
0000
1030
0000
0100
0000
0001
0010
0001
0000
0100
0000
,  // measure 38
0020
0000
0000
1000
0000
0000
0130
0000
2000
0000
0000
0001
0000
0000
3010
0000
,  // measure 39
1000
0100
0000
1000
0001
0000
0010
0001
0000
0010
0100
0010
0000
0001
1000
0001
,  // measure 40
0010
0000
0010
0100
0000
0000
1000
0000
0001
0000
0001
0200
0000
0000
0010
0000
,  // measure 41
0000
0000
0301
0000
1000
0100
1000
0000
0010
0000
1000
0000
0100
0000
0001
0000
,  // measure 42
0100
0000
0100
0010
0000
0000
0001
0000
1000
0000
1000
0010
0000
0000
0100
0000
,  // measure 43
1000
0000
0001
0000
0100
0000
0001
0010
0000
0100
0010
0000
1000
0000
0001
0000
,  // measure 44
0100
0000
1000
0100
0000
0000
0010
0000
0001
0000
1000
0001
0000
0000
0100
0000
,  // measure 45
0010
0000
1000
0010
0000
0000
0100
0000
0001
0000
1000
0100
1000
0000
0010
0000
,  // measure 46
0010
0000
0100
0001
0000
0000
0001
0000
0010
0000
0100
1000
0000
0000
1000
0000
,  // measure 47
0001
0100
1000
0001
0010
1000
0100
0010
,  // measure 48
0001
0000
1000
0100
0000
0000
0110
0000
0001
0000
0100
0010
0000
0000
1010
0000
,  // measure 49
0000
0000
0100
0000
0001
1000
0001
1000
0001
0000
1000
0010
0000
0000
0100
0000
,  // measure 50
0001
0000
0010
0100
0000
0000
1100
0000
1000
0000
0010
0100
0000
0000
0101
0000
,  // measure 51
0001
0000
0100
0000
1000
0000
0010
1000
0000
0100
1000
0000
0001
0000
0010
0000
,  // measure 52
0021
0000
0000
0100
0000
0000
0130
0000
2100
0000
0000
0001
0000
0000
3001
0000
,  // measure 53
0102
0000
0000
0010
0000
0000
0013
0000
0100
0000
1000
0010
1000
0000
0001
0000
,  // measure 54
1000
0000
0010
0000
1000
0100
1000
0100
1000
0000
0001
0000
0100
0010
0000
0100
,  // measure 55
0001
1000
0001
0000
1000
0100
1000
0000
0010
0100
0010
0000
0001
1000
0001
0000
,  // measure 56
2002
0000
0000
3003
,  // measure 57
0010
0000
0000
1000
0001
0000
1000
0001
0000
1000
0100
0000
0020
0000
0000
0000
,  // measure 58
0031
0000
1000
0001
0000
0000
1000
0100
0000
0100
1000
0000
0010
0000
0100
0000
,  // measure 59
0001
0000
0010
0001
0000
0000
0100
0010
0000
0010
0100
0000
1000
0000
0001
0000
,  // measure 60
1000
0000
0010
1000
0000
0000
0001
0100
0000
0100
0010
0000
1000
0000
0100
0000
,  // measure 61
0010
0000
0010
0001
0000
0000
1000
0010
0000
0010
0100
0000
0010
0000
0001
0000
,  // measure 62
0100
0000
0010
1000
0000
0000
0001
0010
0000
0001
0100
0000
0010
0000
1000
0000
,  // measure 63
0100
0000
0010
0100
0000
0000
1000
0010
0000
0100
0010
0000
1000
0000
0001
0000
,  // measure 64
0010
0000
0001
0010
0000
0000
0100
1000
0000
0001
0100
0000
0010
0000
1000
0000
,  // measure 65
0001
0010
0002
0000
1003
0100
2000
0000
3010
1000
0020
0000
0130
0001
0200
0000
,  // measure 66
0320
0000
0000
0000
,  // measure 67
0030
0000
0000
0000
;

//---------------dance-double - ----------------
#NOTES:
     dance-double:
     :
     Beginner:
     1:
     0.119681,0.121522,0.009206,0.009206,0.000000,89.000000,1.000000,1.000000,0.000000,0.000000,0.000000,0.119681,0.121522,0.009206,0.009206,0.000000,89.000000,1.000000,1.000000,0.000000,0.000000,0.000000:
00000000
00000000
00000000
00000000
,
00000000
00000000
00000000
00000000
,
00000000
00000000
00000000
00000000
,
00000000
00000000
00000000
00000000
,
00000000
00000000
00000000
00000000
,
00000000
00000000
00000000
00000000
,
00000000
10000000
00000000
10000000
,
00000000
01000000
00000000
01000000
,
00000000
00010000
00000000
00010000
,
00000000
00001000
00000000
00001000
,
00001000
00000000
00000000
00000000
,
00000000
00000000
00000000
00000000
,
00000001
00000000
00000000
00000000
,
00000100
00000000
00000000
00000000
,
00001000
00000000
00000000
00000000
,
00010000
00000000
00000000
00000000
,
01000000
00000000
00000000
00000000
,
00100000
00000000
00000000
00000000
,
01000000
00000000
00000000
00000000
,
00010000
00000000
00000000
00000000
,
00001000
00000000
00000000
00000000
,
00000000
00000000
00000001
00000000
,
00000000
00000000
00000000
00000000
,
00000010
00000000
00000000
00000000
,
00000100
00000000
00001000
00000000
,
00000100
00000000
00000000
00000000
,
00010000
00000000
00001000
00000000
,
00010000
00000000
00000000
00000000
,
01000000
00000000
00100000
00000000
,
01000000
00000000
00000000
00000000
,
10000000
00000000
01000000
00000000
,
10000000
00000000
00000000
00000000
,
00010000
00000000
00100000
00000000
,
00010000
00000000
00001000
00000000
,
00000100
00000000
00000001
00000000
,
00000010
00000000
00000100
00000000
,
00001000
00000000
00000000
00000000
,
00010000
00000000
00000000
00000000
,
01000000
00000000
10000000
00000000
,
00100000
00000000
01000000
00000000
,
00010000
00000000
00001000
00000000
,
00010000
00000000
00000000
00000000
,
00000100
00000000
00001000
00000000
,
00000100
00000000
00000000
00000000
,
00000001
00000000
00000010
00000000
,
00000001
00000000
00000000
00000000
,
00000100
00000000
00001000
00000000
,
00010000
00000000
00000000
00000000
,
01000000
00000000
00100000
00000000
,
01000000
00000000
00000000
00000000
,
10000000
00000000
01000000
00000000
,
00010000
00000000
00000000
00000000
,
00001000
00000000
00000100
00000000
,
00000001
00000000
00000000
00000000
,
00000010
00000000
00001000
00000000
,
00010000
00000000
01000000
00000000
,
20000000
00000000
00000000
00000000
,
30000000
00000000
00000000
00000000
,
00100000
00000000
01000000
00000000
,
00100000
00000000
01000000
00000000
,
00010000
00000000
00001000
00000000
,
00010000
00000000
00001000
00000000
,
00000100
00000000
00000010
00000000
,
00000100
00000000
00000010
00000000
,
00000001
00000000
00001000
00000000
,
00000001
00000000
00001000
00000000
,
00001001
00000000
00000000
00000000
;

//---------------dance-double - ----------------
#NOTES:
     dance-double:
     :
     Easy:
     4:
     0.270926,0.339250,0.055237,0.359043,0.000000,161.000000,6.000000,39.000000,0.000000,0.000000,0.000000,0.270926,0.339250,0.055237,0.359043,0.000000,161.000000,6.000000,39.000000,0.000000,0.000000,0.000000:
00000000
00000000
00000000
00000000
,
00000000
00000000
00000000
00000000
,
00000000
00000000
00000000
00000000
,
00000000
00000000
00000000
00000000
,
00000000
00000000
00000000
00000000
,
00000000
00000000
00000000
00000000
,
10000000
00000000
10000000
00000000
,
00100000
00100000
00010000
00100000
,
00001000
00000000
00001000
00000000
,
00000010
00000100
00000001
00001000
,
00000000
00000000
00000000
00000000
,
00000000
00000000
00000000
00000000
,
00010000
00000000
00100000
00000000
,
01000000
00000000
00100000
00000000
,
00010000
00000000
10000000
00000000
,
00100000
00000000
00010000
00000000
,
00001000
00000000
00000100
00000000
,
00000010
00000000
00000001
00000000
,
00000100
00000000
00000001
00000000
,
00000010
00000000
00001000
00000000
,
00000200
00000000
00000000
00000310
,
00000000
00000000
00000100
00000100
,
00002000
00000000
00000000
00003000
,
00010000
00010000
00000000
10000000
,
00200000
00300000
02000000
03000000
,
00010000
01000000
00010000
00100000
,
20000000
30000000
00020000
00030000
,
00010000
00001000
00010000
00001000
,
00000200
00000300
00002000
00003000
,
00000002
00000003
00000020
00000030
,
00000001
00000001
00001000
00001000
,
00000010
00001000
00000100
00000100
,
00020000
00000000
00032000
00000000
,
00103000
00010000
01000000
01000000
,
00200000
00000000
20300000
00000000
,
31000000
00100000
00010000
10000000
,
02000000
03000000
00020000
00030000
,
00002000
00003000
00000200
00000300
,
00000020
00000030
00002000
00003000
,
00002002
00000000
00000000
00003003
,
00001001
00000000
00000100
00000000
,
00000010
00001000
00010000
00001000
,
00011000
00000000
00011000
00000000
,
00100000
10000000
01000000
00010000
,
00200000
01000000
01000000
01300000
,
20000000
00100000
00100000
30100000
,
02000000
00010000
00010000
03010000
,
00100000
00010000
00022000
00033000
,
00000010
00001000
00000010
00001000
,
00000001
00000100
00000200
00000300
,
00001000
00000001
00001000
00000001
,
00000100
00001000
00020000
00030000
,
00100000
00100000
01000000
01000000
,
10000000
10000000
00010000
00100000
,
00001000
00001000
00000100
00000100
,
00000010
00000001
00001000
00000001
,
00000100
00000000
00000000
00000000
,
00000020
00000000
00000000
00000030
,
00001001
00000000
00000200
00000300
,
00002000
00003000
00000200
00000300
,
00010000
00010000
01000000
01000000
,
00100000
10000000
00010000
00000000
,
00200000
00300000
00020000
00030000
,
20000000
30000000
00010000
00100000
,
00002000
00003000
00000200
00000300
,
00000010
00001000
00000001
00000100
,
00000020
00000000
00000000
00000000
,
00000030
00000000
00000000
00000000
;

//---------------dance-double - ----------------
#NOTES:
     dance-double:
     :
     Medium:
     6:
     0.385347,0.400932,0.230156,0.174919,0.000000,249.000000,25.000000,19.000000,0.000000,0.000000,0.000000,0.385347,0.400932,0.230156,0.174919,0.000000,249.000000,25.000000,19.000000,0.000000,0.000000,0.000000:
00000000
00000000
00000000
00000000
,
00000000
00000000
00000000
00000000
,
00000000
00000000
00000000
00000000
,
00000000
00000000
00000000
00000000
,
00000000
00000000
00000000
00000000
,
00000000
00000000
00000000
00000000
,
10000000
01000000
00010000
01000000
,
00100000
00000000
00010000
00000000
00001000
00000000
00000010
00001000
,
00000010
00000100
00000001
00001000
,
00000100
00000000
00010000
00000000
00100000
01000000
00010000
20000000
,
00000000
00000000
00000000
00000000
,
00000000
00000000
00000000
00000000
,
30010000
00000000
00100000
00000000
,
00001000
00001000
00010000
00000000
,
00000100
00000000
00000010
00000000
,
00000001
00000100
00000010
00000000
,
00001000
00000000
00010000
00000000
,
00100000
00010000
01000000
00000000
,
00100000
00000000
10000000
00000000
,
00010000
00100000
01000000
10000000
,
11000000
00000000
00000000
00110000
00000000
00000000
01000000
00100000
,
00000000
00000000
00010000
00001000
,
00001100
00000000
00000000
00000011
00000000
00000000
00000100
00000000
,
00000101
00000000
00001100
00000000
00000010
00000100
00000010
00000000
,
00000200
00000000
00000000
00001300
00000200
00000000
00000000
00001300
,
00000100
00010000
00100000
01000000
,
20000000
00000000
00000000
30100000
20000000
00000000
00000000
30100000
,
01000000
00000000
00010000
00000000
00100000
00010000
00100000
00000000
,
00002000
00000000
00000000
00003010
00002000
00000000
00000000
00003001
,
00002000
00000000
00000000
00003100
00000010
00000000
00000100
00000000
,
00000020
00000000
00000000
00001030
00000020
00000000
00000000
00000130
,
00000001
00001000
00000100
00011000
,
00100000
00000000
00010000
01000000
00010000
00000000
10000000
00100000
,
00000000
00100000
01000000
00000000
02200000
00000000
03300000
00000000
,
00010000
00000000
00100000
00010000
00100000
00000000
01000000
10000000
,
01000000
00010000
00022000
00033000
,
00000010
00000000
00001000
00000100
00001000
00000000
00000001
00000100
,
00000001
00000000
00001000
00000010
00001000
00000000
00000100
00000000
,
00000001
00000000
00001000
00000001
00001000
00000000
00000100
00000000
,
00000020
00000000
00000000
00000000
,
00000031
00000000
00000100
00000001
00001000
00000000
00000100
00001000
,
00000010
00000100
00002200
00003300
,
00010000
00000000
00100000
00010000
01000000
00000000
00100000
10000000
,
00010000
10000000
01000000
11000000
,
00100000
00000000
00001000
00010000
00001000
00000000
00000100
00001000
,
00000100
00000010
00000001
00000001
,
00000100
00000000
00001000
00000100
00001000
00000000
00010000
00001000
,
00010000
00100000
01000000
10000000
,
00100000
00000000
01000000
00010000
01000000
00000000
00001000
00000000
,
00010000
00000010
00000110
00000101
,
00001000
00000000
00000100
00001000
00000010
00000000
00000100
00000001
,
00000010
00001100
00001010
00001100
,
00010000
00000000
00100000
00010000
00100000
00000000
01000000
10000000
,
01000000
00000000
00010000
01000000
00010000
00000000
00100000
00000000
,
00001000
00000000
00010000
00000100
00001000
00000000
00000001
00000100
,
00000010
00000000
00001000
00000001
00001000
00000000
00000010
00000000
,
00000110
00000000
00000000
00000000
,
00000001
00000000
00000000
00000100
00000000
00000000
00000020
00000000
,
00001030
00000000
00001100
00000000
00010000
00001000
00010000
00000000
,
00100000
01000000
11000000
01010000
,
00100000
00000000
10000000
00000000
00010000
00100000
00010000
00000000
,
01000000
01100000
10100000
10010000
,
00001000
00010000
00001000
00000000
00000100
00001000
00000100
00000000
,
00000010
00000100
00000010
00000000
00000011
00000000
00001001
00000000
,
00000100
00000010
00000100
00000000
00001000
00000010
00001000
00000000
,
00010000
00001000
00010000
00000000
00100000
00010000
10000000
00010000
,
02000000
00000000
00000000
00000000
,
03000000
00000000
00000000
00000000
;

//---------------dance-double - ----------------
#NOTES:
     dance-double:
     :
     Hard:
     8:
     0.482670,0.493454,0.165712,0.101269,0.234759,338.000000,18.000000,11.000000,0.000000,0.000000,0.000000,0.482670,0.493454,0.165712,0.101269,0.234759,338.000000,18.000000,11.000000,0.000000,0.000000,0.000000:
00000000
00000000
00000000
00000000
,
00000000
00000000
00000000
00000000
,
00000000
00000000
00000000
00000000
,
00000000
00000000
00000000
00000000
,
00000000
00000000
00000000
00000000
,
00000000
00000000
00000000
00000000
,
00000001
00000010
00000001
00000010
00000001
00001000
00000001
00001000
,
00000100
00001000
00000100
00001000
00000100
00010000
00000100
00010000
,
00001000
00010000
00001000
00010000
00001000
00100000
00001000
00100000
,
01000000
00100000
01000000
00100000
01000000
10000000
00100000
00010000
,
02000000
00000000
00000000
00000000
,
00000000
00000000
00000000
00000000
,
13000000
00000000
10100000
00000000
,
00100000
00010000
10100000
00000000
,
00001000
00000000
00011000
00000000
,
00000100
00000000
00000010
00000000
00000001
00001000
00000000
00000000
,
00000100
00000000
00001001
00000000
,
00000010
00001000
00001100
00000000
,
00010000
00000000
01010000
00000000
,
00100000
10000000
01000000
00010000
,
10000000
00000000
00000000
10000000
00000000
00000000
00010000
00000000
00000000
00010000
00000000
00000000
00100000
00000000
00110000
00000000
,
00000000
00000000
00000000
00000000
00001000
00001000
00001001
00000000
,
00000010
00000000
00000000
00000001
00000000
00000000
00000010
00000000
00000000
00001000
00000000
00000001
00000000
00000100
00000000
00000000
,
00000010
00000000
00000000
00000010
00000000
00000000
00000001
00000000
00001000
00000000
00000010
00000000
00001010
00000000
00000000
00000000
,
00010000
00000000
00000000
00010000
00000000
00000000
01000000
00000000
00100000
00000000
00000000
00100000
00000000
00000000
01000000
00000000
,
10000000
00100000
10000000
00010000
10000000
01000000
00100000
00000000
,
00001000
00000000
00000000
00001000
00000000
00000000
00001000
00000000
00010000
00000000
00000000
00010000
00000000
00000000
00010000
00000000
,
00000100
00000001
00000100
00000010
00000100
00001000
00000001
00000000
,
00000100
00000000
00000000
00000001
00000000
00000000
00000100
00000000
00000010
00000000
00000000
00001000
00000000
00000000
00000010
00000000
,
00010000
00000000
00000000
00000100
00000000
00000000
00010000
00000000
00001000
00000000
00001000
00000000
00010000
00000000
01000000
00000000
,
00100000
00000000
00000000
00010000
00000000
00000000
01000000
00000000
00010000
00000000
00000000
10000000
00000000
00000000
01000000
00000000
,
00100000
01000000
10000000
10000000
00010000
00000000
10010000
00000000
,
00002000
00000000
00000000
00010000
00000000
00000000
00013000
00000000
00000200
00000000
00000000
00000010
00000000
00000000
00000310
00000000
,
00000001
00001000
00000010
00000100
00001000
00000000
00011000
00000000
,
00000200
00000000
00000000
00000001
00000000
00000000
00000301
00000000
00000020
00000000
00000000
00000100
00000000
00000000
00000130
00000000
,
00001000
00000001
00001000
00000100
00000010
00000000
00001010
00000000
,
00001000
00000000
00000000
00010000
00000000
00000000
00001000
00000000
01000000
00000000
00000000
00010000
00000000
00000000
01000000
00000000
,
00010000
00000000
00000000
10000000
00000000
00000000
00010000
00000000
00100000
00000000
00010000
00000000
00110000
00000000
00000000
00000000
,
00001000
00000000
00000000
00001000
00000000
00000000
00000100
00000000
00000001
00000000
00000000
00000010
00000000
00000000
00000100
00000000
,
00002002
00000000
00000000
00003003
,
00001000
00000000
00000000
00000100
00001000
00000000
00000000
00000000
00010000
00000000
00000000
00100000
00010000
00000000
00000000
00000000
,
10000000
00010000
01000000
00001000
00100000
00001000
00010000
00000000
,
00001000
00000000
00000000
00000100
00001000
00000000
00000000
00000000
00000001
00000000
00000000
00000010
00000001
00000000
00000000
00000000
,
00000100
00000010
00000100
00000001
00001000
00000000
00001100
00000000
,
00000001
00000000
00000000
00000001
00000100
00000000
00000000
00000100
00000010
00000000
00000000
00000010
00001000
00000000
00000000
00001000
,
00000100
00000000
00000000
00000100
00000010
00000000
00000100
00000000
00000001
00000000
00001000
00000000
00001000
00000000
00000000
00000000
,
00010000
00000000
00000000
00010000
01000000
00000000
00000000
01000000
10000000
00000000
00000000
10000000
00010000
00000000
00000000
00010000
,
00100000
00010000
01000000
00001000
00010000
00000000
00001010
00000000
,
00000100
00000000
00000000
00000001
00001000
00000000
00000000
00000000
00000100
00000000
00000000
00001000
00000001
00000000
00000000
00000000
,
00000010
00000100
00001000
00000010
00010000
00000000
00110000
00000000
,
01000000
00000000
00000000
10000000
00100000
00000000
00000000
00000000
01000000
00000000
00000000
00010000
00100000
00000000
00000000
00000000
,
00001000
00010000
00000100
00000010
00000001
00000000
00001010
00000000
,
00000001
00000000
00000000
00000100
00000010
00000000
00000000
00000000
00010000
00000000
00000000
00001000
00100000
00000000
00000000
00000000
,
01000000
00000000
00000000
10000000
00100000
00000000
01000000
00000000
00100000
00000000
10000000
00000000
00010000
00000000
10000000
00000000
,
01000000
00000000
00000000
00100000
00010000
00000000
00000000
00000000
10000000
00000000
00000000
00010000
01000000
00000000
00000000
00000000
,
00001000
00010000
00000100
00000010
00000001
00000100
00000001
00002000
,
00000002
00000000
00000000
00003003
,
00000100
00000000
00010000
00001000
00000000
01000000
00200000
00000000
,
10300000
00000000
00000000
10000000
00000000
00000000
01000000
00000000
00000000
00000000
01000000
00000000
00100000
00000000
00001000
00000000
,
00010000
00000000
00000000
00010000
00000000
00000000
00000100
00000000
00000000
00000000
00000100
00000000
00000010
00000000
00000001
00000000
,
00001000
00000000
00000000
00000010
00000000
00000000
00001000
00000000
00000000
00000000
00000001
00000000
00000010
00000000
00000001
00000000
,
00000100
00000000
00000000
00000010
00000000
00000000
00001000
00000000
00000000
00000000
00010000
00000000
00001000
00000000
00000000
00000000
,
01000000
10000000
00010000
10000000
01000000
00100000
00010000
10000000
,
00010000
00100000
00001000
00010000
00001000
00100000
00001000
00000100
,
00001000
00010000
00000100
00010000
00000010
00001000
00000010
00000100
,
00000001
00000100
00001000
00000001
00000010
00000100
00001000
00000001
,
00000200
00000000
00000000
00000000
,
00000300
00000000
00000000
00000000
;

//---------------dance-double - ----------------
#NOTES:
     dance-double:
     :
     Challenge:
     9:
     0.627339,0.740182,0.211743,0.285393,0.460312,423.000000,23.000000,31.000000,0.000000,0.000000,0.000000,0.627339,0.740182,0.211743,0.285393,0.460312,423.000000,23.000000,31.000000,0.000000,0.000000,0.000000:
00000000
00000000
00000000
00000000
,
00000000
00000000
00000000
00000000
,
00000000
00000000
00000000
00000000
,
00000000
00000000
00000000
00000000
,
00000000
00000000
00000000
00000000
,
00000000
00000000
00000000
00000000
,
10000000
01000000
00100000
01000000
10000000
00010000
00100000
00010000
,
01000000
00001000
00010000
00001000
01000000
00001000
00010000
00000010
,
00000100
00000001
00001000
00000001
00000100
00000010
00001000
00000010
,
00010000
00000100
00010000
00001000
00100000
00010000
10000000
01000000
,
00020000
00000000
00000000
00000000
,
00000000
00000000
00000000
00000000
,
00031000
00000000
00000000
00000100
00000001
00000000
00000000
00000000
,
00000010
00000100
00010100
00000000
,
00001000
00000000
00000000
00000000
00110000
00000000
00000000
00100000
,
01000000
00000000
01000000
00000000
10000000
01000000
00000000
00100000
,
01000000
00000000
00000000
10000000
00010000
00000000
00000000
00000000
,
00100000
00001000
00001100
00000000
,
00000010
00000000
00000000
00000000
00001001
00000000
00000000
00000001
,
00000100
00000000
00001000
00000000
00010000
00001000
01000000
00010000
,
10000000
00010000
00000000
10000000
00010000
00000000
01000000
00010000
00000000
01000000
00000000
00001000
00010000
00000000
00011000
00000000
,
00000000
00000000
00000000
00000000
00000000
00000000
00000000
00000100
00000010
00000000
00000010
00000000
00000001
00001000
00000000
00000000
,
00000010
00001000
00000000
00000100
00001000
00000000
00000100
00010000
00000000
00001000
01000000
00010000
00000000
01010000
00000000
00000000
,
00100000
10000000
00000000
00100000
01000000
00000000
00010000
00100000
00010000
00000000
00001000
00000000
00000110
00000000
00000000
00000000
,
00000001
00000000
00000000
00000010
00000000
00000000
00000100
00000000
00001000
00000000
00000000
00000010
00000000
00000000
00000110
00000000
,
00000000
00000000
00000001
00000000
00001000
00000100
00001000
00000000
00000010
00000000
00000000
00010000
00000000
00000000
00001000
00000000
,
01000000
00000000
00000000
00010000
00000000
00000000
00100000
00000000
01000000
00000000
00000000
10000000
00000000
00000000
00010000
00000000
,
01000000
00000000
00100000
00000000
01000000
00000000
00010000
00100000
00000000
00010000
00001000
00000000
00000100
00000000
00000100
00000000
,
00000020
00000000
00000000
00000001
00000000
00000000
00000031
00000000
00000200
00000000
00000000
00000010
00000000
00000000
00000310
00000000
,
00020000
00000000
00000000
00001000
00000000
00000000
00031000
00000000
00100000
00000000
01000000
10000000
01000000
10000000
01000000
00000000
,
00200000
00000000
00000000
00010000
00000000
00000000
01300000
00000000
20000000
00000000
00000000
00010000
00000000
00000000
31000000
00000000
,
00100000
00010000
01000000
00001000
00010000
00000100
00010000
00000010
,
00001000
00000000
00000000
00000001
00000000
00000000
00000101
00000000
00000010
00000000
00000000
00001000
00000000
00000000
00001100
00000000
,
00000000
00000000
00000001
00000000
00000100
00000010
00000100
00000000
00001000
00000000
00000010
00000000
00001010
00000000
00000000
00000000
,
00000100
00000000
00000000
00010000
00000000
00000000
00010100
00000000
00100000
00000000
00000000
01000000
00000000
00000000
11000000
00000000
,
00100000
00000000
01000000
00000000
00010000
00000000
00100000
00001000
00000000
00100000
01000000
00000000
10000000
00000000
00010000
00000000
,
02000000
00000000
00000000
00001000
00000000
00000000
03001000
00000000
00200000
00000000
00000000
00001000
00000000
00000000
00301000
00000000
,
00020000
00000000
00000000
00000100
00000000
00000000
00030100
00000000
00000010
00000000
00000001
00001000
00000001
00000000
00000100
00000000
,
00000020
00000000
00000000
00010000
00000000
00000000
00010030
00000000
00000200
00000000
00000000
00010000
00000000
00000000
00010300
00000000
,
00001000
00100000
00000000
00001000
00010000
00000000
00000100
00010000
00000000
00000100
00001000
00000100
00000000
00010000
00001000
00010000
,
00000010
00000000
00000010
00000100
00000000
00000000
00000001
00000000
00001000
00000000
00001000
00000100
00000000
00000000
00000101
00000000
,
00000000
00000000
00010000
00000000
00001000
00100000
00001000
00000000
01000000
00000000
00100000
00000000
10000000
00000000
00010000
00000000
,
10000000
00000000
10000000
00100000
00000000
00000000
01100000
00000000
00010000
00000000
00010000
00100000
00000000
00000000
00110000
00000000
,
00100000
00000000
00001000
00000000
00010000
00000000
00000010
00001000
00000000
00000010
00000100
00000000
00000001
00000000
00000010
00000000
,
00000001
00000000
00000200
00000001
00000000
00000000
00000301
00000000
00001000
00000000
00000020
00001000
00000000
00000000
00001030
00000000
,
00000100
00000000
00020000
00000100
00000000
00000000
00030100
00000000
00010000
00000000
00001000
00010000
00001000
00000000
00010000
00000000
,
01000000
00000000
20000000
01000000
00000000
00000000
31000000
00000000
00100000
00000000
00020000
00100000
00000000
00000000
00130000
00000000
,
01000000
00000000
10000000
00000000
00010000
00000000
00100000
00000000
00001000
00000000
00010000
00000100
00000000
00001000
00000100
00000000
,
00000010
00000000
00000000
00000012
00000000
00000000
00000103
00000000
00000010
00000000
00000000
00001200
00000000
00000000
00010300
00000000
,
00000000
00000000
01000000
00000000
00100000
10000000
00100000
10000000
00100000
00000000
00000000
01000000
00000000
00000000
00010000
00000000
,
00100000
00000000
00000000
02100000
00000000
00000000
13000000
00000000
00010000
00000000
00000000
00210000
00000000
00000000
00301000
00000000
,
00010000
00000000
00000100
00000000
00001000
00000000
00000100
00000010
00000000
00000001
00000010
00000000
00001000
00000000
00000001
00000000
,
00000200
00000000
00000000
00000310
00000000
00000000
00001010
00000000
00002000
00000000
00000000
00013000
00000000
00000000
00110000
00000000
,
00200000
00000000
00000000
01300000
00000000
00000000
11000000
00000000
00010000
00000000
01000000
00100000
01000000
00000000
00010000
00000000
,
00100000
10000000
00100000
00010000
01000000
00100000
10000000
01000000
,
00010000
01000000
00100000
00010000
00001000
00010000
00000010
00000100
,
00000002
00000000
00000000
00000003
,
00000100
00000000
00000000
00000100
00000010
00000000
00001000
00000100
00000000
00010000
00001000
00000000
00200000
00000000
00000000
00000000
,
01300000
00000000
10000000
01000000
00000000
00000000
00100000
00010000
00000000
00010000
00100000
00000000
00001000
00000000
00010000
00000000
,
00000100
00000000
00001000
00000100
00000000
00000000
00000010
00000100
00000000
00000100
00000010
00000000
00000001
00000000
00001000
00000000
,
00000001
00000000
00000100
00000001
00000000
00000000
00001000
00000010
00000000
00001000
00000010
00000000
00001000
00000000
00000100
00000000
,
00010000
00000000
00001000
01000000
00000000
00000000
00010000
10000000
00000000
00010000
10000000
00000000
00100000
00000000
10000000
00000000
,
00010000
00000000
00100000
00000000
00010000
00000000
01000000
00000000
00001000
00000000
00001000
00000000
00010000
00000000
00000100
00001000
,
00000100
00000000
00000010
00000000
00000001
00000000
00001000
00000000
00000010
00000000
00000100
00000000
00000020
00000000
00001030
00000001
,
00001000
00000100
00010000
00001000
00100000
00001000
01000000
00010000
,
10000000
01000000
20000000
00000000
30100000
01000000
00200000
00000000
01300000
00010000
02000000
00000000
03001000
00010000
00002000
00000000
,
00003200
00000000
00000000
00000000
,
00000300
00000000
00000000
00000000
;

//---------------dance-single - Extreme----------------
#NOTES:
     dance-single:
     :
     Edit:
     16:
     0.869332,0.956068,0.690468,0.147300,0.943639,570.000000,75.000000,16.000000,0.000000,0.000000,0.000000,0.869332,0.956068,0.690468,0.147300,0.943639,570.000000,75.000000,16.000000,0.000000,0.000000,0.000000:
// measure 0
0000
0000
0000
0000
,  // measure 1
0000
0000
0000
0000
,  // measure 2
0000
0000
0000
0000
,  // measure 3
0000
0000
0000
0000
,  // measure 4
0000
0000
0000
0000
,  // measure 5
0000
0000
0000
0000
,  // measure 6
1000
0000
0010
1000
0000
0000
0001
0000
0100
0001
0010
0001
0100
0010
1000
0000
,  // measure 7
0100
0000
1000
0100
0000
0000
0001
0000
0100
1000
0010
0100
0010
0000
1000
0000
,  // measure 8
0011
0000
0010
0000
0110
0000
0100
1000
0001
0000
0010
0000
0001
0010
0100
1000
,  // measure 9
0010
0000
0100
0001
0010
0000
0100
1000
0010
0000
0100
0001
0010
0001
0010
0001
,  // measure 10
2000
0000
0000
0000
,  // measure 11
0000
0000
0000
3000
,  // measure 12
1001
0000
0000
0011
0000
0000
0110
0000
1100
0000
0000
1010
0000
0000
0110
0000
,  // measure 13
0000
0000
0001
0000
0010
0100
1000
0100
0010
0000
0000
0011
0000
0000
0101
0000
,  // measure 14
1100
0000
0000
0101
0000
0000
0011
0000
0110
0000
0000
1100
0000
0000
1001
0000
,  // measure 15
0001
0000
0010
0000
0100
0000
1000
0001
0000
0010
0001
0010
0100
0010
0100
0000
,  // measure 16
1000
0000
0000
1010
0000
0000
0110
0000
0110
0000
0000
0101
0000
0000
0011
0000
,  // measure 17
0110
0000
0000
1010
0000
0000
0011
0000
0101
0000
0100
0010
0100
0010
1000
0100
,  // measure 18
1000
0000
0000
1001
0000
0000
0101
0000
1100
0000
0000
1010
0000
0000
1100
0000
,  // measure 19
0001
0000
0001
0000
0100
0000
0010
0000
1010
0000
1000
0100
0010
0001
0010
0100
,  // measure 20
1000
0001
0000
0001
0100
0000
0010
1000
0000
0001
0000
1000
0001
0000
0202
0000
,  // measure 21
0000
0000
0000
0000
0303
0000
0000
1000
0010
0000
0100
0000
0010
1000
0000
0000
,  // measure 22
0001
0100
0000
1000
0100
0000
0001
0100
0000
1000
0100
0001
0000
0011
0000
0000
,  // measure 23
0010
1000
0000
0010
0001
0000
0100
0010
0100
0001
1000
0000
1000
0100
0010
0100
,  // measure 24
1000
0000
0001
1000
0000
0000
0010
0100
0001
0000
0010
0001
0000
0000
1001
0000
,  // measure 25
0000
0000
0100
0000
0001
0010
1000
0010
0001
0000
0000
0101
0000
0000
0110
0000
,  // measure 26
1010
0000
0000
1100
0000
0000
0101
0000
1100
0000
0000
1010
0000
0000
0110
0000
,  // measure 27
0100
0000
0001
0010
0100
0000
1000
0010
0000
0100
0001
0010
0001
1000
0010
0000
,  // measure 28
1000
0000
0010
1000
0000
0010
1000
0000
0001
0010
0001
0000
0001
0010
0001
0000
,  // measure 29
0100
0000
0010
0100
0000
0010
0100
0000
0010
0000
1000
0100
0010
0100
1000
0000
,  // measure 30
1001
0000
0000
0011
0000
0000
0010
0000
0100
1000
0000
0001
1000
0000
0001
0000
,  // measure 31
0110
0000
0110
0000
1001
0000
1001
0000
0100
0010
0001
0000
0010
0100
1000
0010
,  // measure 32
1000
0000
0000
1001
0000
0000
0001
0010
0100
0000
0000
1100
0000
0000
1010
0000
,  // measure 33
0000
0000
0100
0001
0010
0001
0100
0000
0010
0000
0000
1010
0000
0000
1100
0000
,  // measure 34
0110
0000
0000
0011
0000
0000
0101
0000
0110
0000
0000
1010
0000
0000
1100
0000
,  // measure 35
0100
0000
0010
0001
1000
0000
0010
1000
0000
0001
0100
0001
0010
0001
1000
0001
,  // measure 36
0100
0000
0001
0100
0000
0010
1000
0100
1000
0000
0010
0100
0000
0001
0010
0100
,  // measure 37
0010
0000
0001
1000
0000
0100
1000
0010
1000
0000
0001
0100
0010
0100
0001
0000
,  // measure 38
1001
0000
1001
0000
1001
0000
0000
0000
0100
0000
0010
0000
0001
1000
0001
0000
,  // measure 39
1000
0100
0000
0001
0100
0000
1000
0010
0000
0001
0010
1000
0000
0100
0001
0100
,  // measure 40
1000
0000
0010
0100
0001
0000
1000
0000
0010
0000
0100
0001
0010
0000
0200
0000
,  // measure 41
0000
0000
1300
0000
0001
0010
0001
0100
0010
0000
1000
0000
0001
0000
1000
0000
,  // measure 42
0010
0000
0100
0001
0010
0000
0100
0000
1000
0000
0001
0100
0010
0000
2000
0000
,  // measure 43
0001
0000
3001
0000
0100
0000
0010
1000
0000
0010
0100
0001
0100
0010
1000
0100
,  // measure 44
0010
0000
0000
0010
0001
0000
0100
0000
0001
0000
0000
0001
1000
0000
0010
0000
,  // measure 45
0100
0001
0010
0000
0100
0000
1000
0000
0010
0000
0100
1000
0001
1000
0100
0010
,  // measure 46
0001
0000
0000
0101
0000
0000
0100
0000
0010
0000
1000
0010
0000
0000
0100
0000
,  // measure 47
0101
0000
0011
0000
0110
0000
1100
0000
1000
0001
1000
0000
0001
0100
0001
0010
,  // measure 48
0100
0000
1000
0100
0000
0000
1100
0000
0001
0000
0010
0001
0000
0100
0010
0000
,  // measure 49
1000
0000
0001
0000
0010
1000
0010
0001
0100
0000
0000
0110
0000
0000
0010
0000
,  // measure 50
1000
0000
1000
0100
1000
0000
0010
0000
0100
0000
0001
0010
0001
0000
0100
0000
,  // measure 51
0010
0000
1000
0100
0010
0000
0001
0100
0000
0010
1000
0100
1000
0100
0010
0000
,  // measure 52
1002
0000
0000
0100
0003
0000
0010
0000
2100
0000
0000
0001
3000
0000
0010
0000
,  // measure 53
0210
0000
0000
0001
0300
0000
0100
0000
1000
0000
0010
0100
0001
0100
0010
0000
,  // measure 54
2100
0000
0100
0000
3001
1000
0001
0000
0100
0000
0100
0000
0010
0100
0010
0100
,  // measure 55
0001
0010
0001
0010
0001
0010
0001
0010
0100
1000
0100
1000
0100
1000
0100
0000
,  // measure 56
2002
0000
0000
3003
,  // measure 57
1001
0000
0000
0001
0100
0000
0010
0100
0001
0010
0100
1000
0100
0010
0100
1000
,  // measure 58
0001
0000
0100
0001
0000
0000
0010
0000
0100
1000
0100
1000
0010
0000
0100
0000
,  // measure 59
0001
0010
0001
0010
0100
0000
0010
0000
1000
0001
0010
0001
0100
0000
0010
0000
,  // measure 60
1000
0000
0100
0010
0000
0001
0100
0010
0000
0010
0100
0000
0001
0000
0010
0000
,  // measure 61
1000
0000
0010
0001
0000
0000
0100
0000
0010
1000
0100
0000
0010
0001
0100
0000
,  // measure 62
0010
0000
1000
0100
1000
0000
0001
0010
0001
0000
0100
0010
0100
0000
0010
1000
,  // measure 63
0100
0000
0010
0001
0100
0000
0001
1000
0010
0000
0100
0001
0010
0001
1000
0000
,  // measure 64
0100
0010
0100
0010
0001
0010
0001
0100
0001
0100
0010
0100
0010
1000
0010
0000
,  // measure 65
1000
0100
2000
0000
3001
0010
0002
0000
0103
0010
0200
0000
0310
1000
0200
0000
,  // measure 66
0320
0000
0000
0000
,  // measure 67
0030
0000
0000
0000
;
