#TITLE:ORION.78(AMeuro-MIX);
#SUBTITLE:;
#ARTIST:RE-VENGE;
#TITLETRANSLIT:;
#SUBTITLETRANSLIT:;
#ARTISTTRANSLIT:;
#GENRE:;
#CREDIT:;
#BANNER:ORION.78(AMeuro-MIX).png;
#BACKGROUND:ORION.78(AMeuro-MIX)-bg.png;
#LYRICSPATH:;
#CDTITLE:;
#MUSIC:ORION.78(AMeuro-MIX).ogg;
#OFFSET:0.000000;
#SAMPLESTART:29.709000;
#SAMPLELENGTH:15.000000;
#SELECTABLE:YES;
#DISPLAYBPM:105.000000;
#BPMS:0.000000=105.109001
,8.000000=104.998001
;
#STOPS:
;
#BGCHANGES:;
#KEYSOUNDS:;
#ATTACKS:;

//---------------dance-single - ----------------
#NOTES:
     dance-single:
     :
     Beginner:
     3:
     0.090774,0.144922,0.010417,0.000000,0.000000,61.000000,60.000000,1.000000,0.000000,0.000000,0.000000,0.090774,0.144922,0.010417,0.000000,0.000000,61.000000,60.000000,1.000000,0.000000,0.000000,0.000000:
0000
0000
0000
0000
,
0000
0000
0000
0000
,
0000
0000
0000
0000
,
0000
0000
0000
0000
,
0001
0001
0000
0100
,
0100
0000
0010
0010
,
0000
1000
1000
1000
,
0000
0000
0000
1000
,
0000
0000
0001
0000
,
0000
1000
0000
0000
,
0001
0000
0000
1000
,
0000
0000
0001
0000
,
0000
1000
0000
0000
,
1000
0000
0000
0000
,
0010
0000
1000
0000
,
1000
0000
0000
0000
,
1000
0000
0000
0000
,
0010
0000
0010
0000
,
0100
0000
0100
0000
,
0001
0000
0001
0000
,
0001
0000
0001
0000
,
0000
0000
0000
0000
,
1000
0000
0100
0000
,
0010
0000
0001
0000
,
0100
0000
0010
0000
,
0000
0000
0000
1000
,
0000
0000
0001
0000
,
0000
0100
0000
0000
,
1000
0000
0000
0010
,
0000
0000
0100
0100
,
0100
0100
0100
0100
,
0100
0000
0000
0000
,
0001
0000
0000
0000
,
1000
0000
0000
0000
,
0010
0000
0000
0000
,
1000
0000
0001
0000
,
0100
0000
0010
0000
,
1000
0000
0001
0000
,
1000
0000
0100
0000
,
0000
0100
0000
1001
;

//---------------dance-single - ----------------
#NOTES:
     dance-single:
     :
     Easy:
     4:
     0.151786,0.186328,0.010417,0.000000,0.000000,102.000000,101.000000,1.000000,0.000000,0.000000,0.000000,0.151786,0.186328,0.010417,0.000000,0.000000,102.000000,101.000000,1.000000,0.000000,0.000000,0.000000:
0000
0000
0000
0000
,
0000
0000
0000
0000
,
0000
0000
0000
0000
,
0000
0000
0000
0000
,
0001
0001
0001
0100
,
0100
0100
0010
0010
,
0010
1000
1000
1000
,
0001
0000
0000
1000
,
0000
0000
0001
0000
,
0000
1000
0000
0000
,
0001
0000
0000
1000
,
0000
0000
0001
0000
,
0000
1000
0000
0000
,
1000
0100
1000
0001
,
0010
0001
1000
0010
,
1000
0001
0100
0001
,
1000
0000
0000
0001
,
0100
0010
0100
0010
,
1000
0100
1000
0100
,
0010
0001
0010
0001
,
1000
0100
0010
0001
,
0100
0100
0010
0010
,
1000
1000
0100
0100
,
0010
0010
0001
0001
,
0100
0100
0010
0010
,
1000
0000
0000
0001
,
0000
0000
0010
0000
,
0000
0100
0000
0000
,
1000
0000
0000
0010
,
0000
0000
0100
0000
,
0000
0001
0000
0000
,
1000
0100
0010
0001
,
0100
0010
1000
0100
,
0010
0001
1000
0100
,
0010
0001
0100
0010
,
1000
0000
0001
0000
,
0100
0000
0010
0000
,
1000
0000
0001
0000
,
1000
0000
0000
0000
0100
0000
0000
0100
,
0000
0100
0000
1001
;

//---------------dance-single - ----------------
#NOTES:
     dance-single:
     :
     Medium:
     7:
     0.255952,0.310547,0.020833,0.000000,0.000000,172.000000,170.000000,2.000000,0.000000,0.000000,0.000000,0.255952,0.310547,0.020833,0.000000,0.000000,172.000000,170.000000,2.000000,0.000000,0.000000,0.000000:
0000
0000
0000
0000
,
0000
0000
0000
0000
,
0000
0000
0000
0000
,
0000
0000
0000
0000
,
0001
0100
1000
0100
0001
0000
1000
0100
,
0001
0100
1000
0000
0010
0001
0010
1000
,
0010
0000
0100
1000
0100
0001
0100
0000
,
0001
0010
0100
1000
,
0010
0100
0001
1000
,
0100
0001
0100
1000
,
0001
0100
0001
0000
0000
1000
0100
0000
,
0000
0001
0100
0000
0000
0000
1000
0000
,
1000
1000
1000
1000
,
0010
0100
0001
0000
1000
0000
0100
0000
,
0010
0001
0100
0000
0010
0000
1000
0000
,
0100
0010
0001
0000
0100
0000
0010
0000
,
1001
0000
0000
0010
,
0100
0000
0100
0000
0001
0010
0100
0000
,
1000
0000
1000
0000
0001
0100
0010
0000
,
1000
0000
0001
0000
0010
0100
1000
0000
,
0001
0000
0100
0000
0010
1000
0001
0000
,
0100
0000
0100
0000
0010
0100
0010
0000
,
1000
0000
0001
1000
0001
0000
0100
0000
,
0010
1000
0010
0000
0100
0000
0001
0010
,
0001
0000
1000
0000
0100
0010
0001
0000
,
1000
1000
1000
0001
,
0001
0001
0010
0010
,
0010
0100
0100
0100
,
1000
1000
1000
0010
,
0010
0010
0100
0100
,
0100
0001
0001
0001
,
1000
0000
0100
0000
0010
0001
0100
0000
,
0010
0000
1000
0000
0100
0010
0001
0000
,
1000
0000
0010
0000
0100
0001
0010
0000
,
0100
1000
0001
0100
,
1000
1000
1000
0001
,
0100
0010
1000
0100
,
1000
0001
0100
0010
,
1000
0000
0001
0000
1000
0100
1000
0001
,
0100
0001
0010
0100
0010
0100
1001
0000
;

//---------------dance-single - ----------------
#NOTES:
     dance-single:
     :
     Hard:
     12:
     0.543155,0.621094,0.468750,0.000000,0.359375,365.000000,320.000000,45.000000,0.000000,0.000000,0.000000,0.543155,0.621094,0.468750,0.000000,0.359375,365.000000,320.000000,45.000000,0.000000,0.000000,0.000000:
// measure 0
0000
0000
0000
0000
,  // measure 1
0000
0000
0000
0000
,  // measure 2
0000
0000
0000
0000
,  // measure 3
0000
0000
0000
0000
,  // measure 4
1000
0000
1000
0000
1000
0001
0100
0000
0010
0000
0010
0000
0010
1000
0100
0000
,  // measure 5
0010
0000
0010
0000
0010
0001
1000
0000
0010
0000
0010
0000
0010
0100
0001
0000
,  // measure 6
1000
0000
1000
0000
1000
0100
0010
0000
0001
0000
0001
0000
0001
0100
0010
0000
,  // measure 7
0000
1001
1010
0110
0101
1001
0000
1001
,  // measure 8
0110
1100
0101
1001
0000
0110
1001
1100
,  // measure 9
1010
1001
0000
0110
1001
0011
1100
1001
,  // measure 10
0100
0010
1000
0000
0100
0010
0001
0000
1000
0100
0010
0000
0001
0100
0010
0000
,  // measure 11
0000
0000
1001
0000
0110
0000
1100
0000
0011
0000
1001
0000
0000
0000
0010
0100
,  // measure 12
0001
0000
1000
0100
0010
0000
0001
1000
0100
0000
0010
0001
0100
0000
0000
0000
,  // measure 13
0000
0000
0001
0000
0000
0001
0000
0001
,  // measure 14
0000
0000
1000
0000
0000
1000
0000
1000
,  // measure 15
0000
0000
0100
0000
0000
0100
0000
0100
,  // measure 16
0000
0000
0000
0010
0001
0000
0000
1000
0010
0000
0000
0100
0001
0000
0000
0000
,  // measure 17
1001
0000
0100
0010
0100
0010
0100
0000
1001
0000
0100
0010
0100
0000
0000
0000
,  // measure 18
1001
0000
0100
0010
1000
0100
0010
0000
1001
0000
0100
0010
0001
0000
0000
0000
,  // measure 19
0101
0000
1000
0100
0010
0001
1000
0000
0110
0000
1000
0001
0100
0000
0000
0000
,  // measure 20
0011
0000
1000
0010
0100
0001
0010
0000
1100
0000
0010
0100
0001
0000
0000
0000
,  // measure 21
1000
0000
1000
0000
0100
0010
0001
0000
,  // measure 22
1000
0000
1000
0000
1000
0100
0010
0000
0001
0000
0001
0000
0001
0100
0010
0000
,  // measure 23
1000
0100
0010
0000
0001
1000
0010
0000
0100
0001
1000
0000
0100
0010
0001
0000
,  // measure 24
1000
0000
0010
0000
0100
0001
1000
0000
0100
0010
0001
1000
0010
0100
0001
0000
,  // measure 25
1000
1000
1000
1000
1000
1000
1000
1000
,  // measure 26
0100
0100
0100
0100
0100
0100
0100
0100
,  // measure 27
0100
0100
0100
0100
0100
0100
0100
0100
,  // measure 28
0010
0001
0100
0000
0010
1000
0100
0000
0010
0001
1000
0000
0010
0100
0001
0000
,  // measure 29
0010
0100
1000
0000
0001
0000
0001
0000
0001
0000
0001
0000
0110
0000
0001
0000
,  // measure 30
0110
0001
0110
0001
0110
0001
0110
0001
,  // measure 31
1000
0000
0100
0000
0010
0001
0100
0000
0010
0000
1000
0000
0100
0010
0001
0000
,  // measure 32
1000
0000
0010
0000
0100
0001
1000
0000
0100
0000
0010
0000
0001
0100
0010
0000
,  // measure 33
1000
0000
0001
0000
0100
0010
1000
0000
0100
0000
0010
0000
0001
0100
0010
0000
,  // measure 34
1000
0000
0100
0000
0010
0001
1000
0000
0110
0000
0000
0000
1001
0000
0000
0000
,  // measure 35
0100
0000
0100
0000
0100
0010
1000
0000
0100
0010
0001
0000
0100
0010
1001
0000
,  // measure 36
0010
0000
0100
0000
0001
1000
0001
0000
0100
0010
1000
0100
0010
0000
1001
0000
,  // measure 37
0100
0000
0010
0000
0001
0100
0010
0000
1000
0100
0010
0001
1000
0000
0110
0000
,  // measure 38
1000
0001
0100
0010
0100
0000
1001
0000
0100
0010
0100
0010
0100
0000
0001
0010
,  // measure 39
0001
0010
0001
0000
1000
0100
1000
0100
1000
0100
1000
0000
1001
0000
0000
0000
;

//---------------dance-double - ----------------
#NOTES:
     dance-double:
     :
     Easy:
     5:
     0.175595,0.207031,0.052083,0.000000,0.000000,118.000000,113.000000,5.000000,0.000000,0.000000,0.000000,0.175595,0.207031,0.052083,0.000000,0.000000,118.000000,113.000000,5.000000,0.000000,0.000000,0.000000:
00000000
00000000
00000000
00000000
,
00000000
00000000
00000000
00000000
,
00000000
00000000
00000000
00000000
,
00000000
00000000
00000000
00000000
,
10000000
01000000
00100000
00001000
,
00010000
00000100
00000010
00000001
,
00000100
00000010
00010000
00001000
,
00100000
00100000
00100000
01000000
,
01000000
01000000
10010000
00000000
,
00000000
00011000
00000000
00000000
,
00000010
00000010
00000010
00000100
,
00000100
00000100
00001001
00000000
,
00000000
00011000
00000000
00000000
,
00100000
01000000
10000000
00010000
,
01000000
00001000
00010000
00000100
,
00000010
00000001
00001000
00001000
,
00000000
00000100
00000000
00000100
,
00010000
00010000
00001000
00100000
,
01000000
01000000
00100000
00100000
,
00010000
00010000
01000000
01000000
,
00001000
00010000
00000010
00001000
,
00000100
00000000
00000100
00000000
,
00010000
00001000
00100000
01000000
,
10000000
00010000
01000000
00001000
,
00010000
00000010
00001000
00000001
,
00000100
00000000
00000000
00000010
,
00000000
00000000
00001000
00000000
,
00000000
00000100
00000000
00000000
,
00010000
00000000
00000000
00001000
,
00000000
00000000
00100000
00000000
,
00000000
01000000
00000000
00000000
,
10000000
00010000
01000000
00001000
,
00010000
00000010
00001000
00000001
,
00000010
00000100
00010000
00001000
,
00100000
00010000
10000000
00010000
,
01000000
00000000
01000000
00000000
,
00001000
00001000
00010000
00000100
,
00000010
00000010
00000001
00000001
,
00001000
00000000
00000100
00000000
00010000
00000000
00000000
00001000
,
00000000
00100000
01000000
10010000
,
00000000
00000000
00000000
00000000
;

//---------------dance-double - ----------------
#NOTES:
     dance-double:
     :
     Medium:
     8:
     0.308036,0.331250,0.239583,0.000000,0.000000,207.000000,184.000000,23.000000,0.000000,0.000000,0.000000,0.308036,0.331250,0.239583,0.000000,0.000000,207.000000,184.000000,23.000000,0.000000,0.000000,0.000000:
00000000
00000000
00000000
00000000
,
00000000
00000000
00000000
00000000
,
00000000
00000000
00000000
00000000
,
00000000
00000000
00000000
00000000
,
10000000
00000000
00010000
01000000
00001000
00000000
00010000
00000000
,
00000010
00001000
00000001
00000000
00000010
00000000
00000100
00010000
,
00001000
00000000
00100000
00000000
00010000
10000000
01000000
00000000
,
00100000
00010000
10010000
01000000
,
00001000
00011000
00000100
00000010
,
00001001
00000100
00000010
00010100
,
00001000
00100000
10010000
01000000
,
00100000
00011000
00000010
00001001
,
00000101
00001010
00010100
00101000
,
00010000
00000000
10000000
01000000
00100000
00000000
00010000
00000000
,
01000000
00001000
00010000
00000000
00000100
00000000
00000010
00000001
,
00000100
00000000
00000010
00000000
00010000
00001000
00100000
00000000
,
01000000
10000000
00010000
01000000
,
00011000
00000000
00001001
00000000
00000010
00000100
00000010
00000000
,
00001001
00000000
00011000
00000000
00100000
01000000
10000000
00000000
,
01010000
00000000
00011000
00000000
00000010
00000100
00000001
00000000
,
00001100
00000000
00011000
00000000
00100000
01000000
10000000
00000000
,
00010000
00000000
00010000
00000000
00010000
00000000
00010000
00100000
,
00001000
00000000
00010000
00000100
00001000
00000000
00000001
00000100
,
00000010
00000000
00001001
00000000
00000100
00000000
00010000
00001000
,
00100000
00010000
10000000
10010000
,
01000000
01000000
00001000
00001000
00010000
00010000
00000100
00000100
,
00000010
00000010
00000001
00000001
00001000
00000000
00000100
00000000
,
00010000
00001000
00100000
00010000
,
10000000
10000000
01000000
01000000
00100000
00100000
00001000
00001000
,
00010000
00010000
00000100
00000100
00001000
00000000
00000001
00000000
,
00000100
00000010
00010000
00001000
,
00100000
00000000
00010000
10000000
00010000
00000000
01000000
00000000
,
00001000
00000000
00010000
00000100
00010000
00000000
00001000
00000000
,
00100000
00010000
01000000
00001000
,
00010000
00000010
00001000
00000000
00001001
00000000
00000100
00000000
,
00010000
00000000
00010000
00000000
00001000
00100000
00010000
00000000
,
10000000
00000000
01000000
00000000
00100000
00000000
00010000
01000000
,
00001000
00000000
00010000
00000000
00000100
00001000
00000001
00000000
,
00000100
00000010
00001000
00000000
00000100
00000100
00000100
00010000
,
00010000
00010000
00001000
00001000
00001000
00001000
00011000
00000000
,
00000000
00000000
00000000
00000000
;

//---------------dance-double - ----------------
#NOTES:
     dance-double:
     :
     Hard:
     9:
     0.401786,0.496875,0.093750,0.000000,0.354167,270.000000,261.000000,9.000000,0.000000,0.000000,0.000000,0.401786,0.496875,0.093750,0.000000,0.354167,270.000000,261.000000,9.000000,0.000000,0.000000,0.000000:
00000000
00000000
00000000
00000000
,
00000000
00000000
00000000
00000000
,
00000000
00000000
00000000
00000000
,
00000000
00000000
00000000
00000000
,
10000000
00000000
00000000
00100000
01000000
00000000
00000000
00010000
00100000
00000000
00000000
00001000
00010000
00000000
00000000
00000100
,
00001000
00000000
00000000
00000001
00000010
00000000
00000000
00000100
00001000
00000000
00000000
00000010
00010000
00000000
00000000
00001000
,
00100000
00000000
00000000
00010000
10000000
00000000
00000000
00100000
01000000
00000000
00000000
00001000
00010000
00000000
00000000
00000100
,
00001000
00000001
00000010
00000100
00001000
00000000
00000001
00000100
,
00000010
00001000
00000100
00000000
00010000
00001000
00100000
00010000
,
10000000
00000000
01000000
00100000
00001000
00010000
00000010
00000000
,
00001000
00000100
00010000
00001000
00100000
00000000
00010000
01000000
,
00001000
00010000
00000010
00000000
00001000
00000001
00000100
00000010
,
00001000
00000000
00000100
00010000
00001000
00100000
01000000
00000000
,
10000000
00000000
00000000
00100000
01000000
00000000
00000000
00010000
00100000
00000000
00000000
00001000
00010000
00000000
00000000
00000100
,
00001000
00000000
00000000
00000001
00000010
00000000
00000000
00000100
00001000
00000000
00000000
00000010
00010000
00000000
00000000
00001000
,
00100000
00000000
00000000
00010000
10000000
00000000
00000000
00100000
01000000
00000000
00000000
00001000
00010000
00000000
00000000
00000100
,
00001000
00000000
00000000
00000001
00000100
00000000
00000000
00000001
00000100
00000000
00000000
00000001
00000100
00000000
00000000
00000000
,
00001001
00000000
00000100
00010000
00000100
00000000
00001001
00000000
,
00010100
00000000
00001000
00100000
00001000
00000000
00010100
00000000
,
00101000
00000000
00010000
01000000
00010000
00000000
00010010
00000000
,
00001001
00000000
00000100
00000010
00000100
00000000
00001001
00000000
,
00000100
00000000
00000000
00000000
00000100
00000000
00000000
00010000
00001000
00000000
00000000
00100000
00010000
00000000
00000000
00000000
,
10000000
00000000
00000000
00100000
01000000
00000000
00000000
00000000
00010000
00000000
00000000
00000000
00010000
00000000
00000000
00100000
,
00001000
00000000
00000000
00010000
00000100
00000000
00000000
00000010
00000001
00000000
00000000
00000100
00000010
00000000
00000000
00001000
,
00000100
00000000
00000000
00010000
00001000
00000000
00000000
00100000
00010000
00000000
00000000
10000000
01000000
00000000
00000000
00000000
,
00100000
00001000
00100000
00001000
00010000
00000010
00010000
00000010
,
00001000
00000001
00001000
00000001
00000100
00000010
00000100
00000010
,
00010000
00001000
00010000
00001000
00100000
00010000
00100000
00010000
,
10000000
00100000
10000000
00100000
01000000
00001000
01000000
00001000
,
00010000
00000100
00010000
00000100
00001000
00000001
00001000
00000001
,
00000100
00000010
00000100
00000010
00010000
00001000
00010000
00001000
,
00100000
00000000
00000000
01000000
10000000
00000000
00000000
00010000
01000000
00000000
00000000
00001000
00010000
00000000
00000000
00000100
,
00001000
00000000
00000000
00000001
00000010
00000000
00000000
00000100
00010000
00000000
00000000
00001000
00100000
00000000
00000000
00010000
,
01000000
00000000
00000000
00001000
00010000
00000000
00000000
00000100
00001000
00000000
00000000
00000001
00000100
00000000
00000000
00000010
,
00001000
00000000
00000000
00000100
00010000
00000000
00000000
00000000
00001000
00000000
00000000
00100000
01000000
00000000
00000000
00000000
,
10000000
00000000
00000000
00000000
10000000
00000000
00000000
00010000
01000000
00000000
00000000
00001000
00010000
00000000
00000000
00000000
,
00000100
00000000
00000000
00001000
00000001
00000000
00000000
00000000
00000010
00000000
00000000
00000000
00000010
00000000
00000000
00000100
,
00010000
00000000
00000000
00001000
00100000
00000000
00000000
00010000
10000000
00000000
00000000
01000000
00100000
00000000
00000000
00001000
,
00010000
00000000
00000000
00000100
00000010
00000000
00000000
00000000
00000001
00000100
00000001
00000100
00000001
00000000
00001000
00000100
,
00001000
00000100
00001000
00000000
00010000
00001000
00010000
00001000
00010000
00001000
00010000
00000000
00011000
00000000
00000000
00000000
,
00000000
00000000
00000000
00000000
;

//---------------dance-couple - ----------------
#NOTES:
     dance-couple:
     :
     Medium:
     9:
     0.272321,0.393359,0.010417,0.000000,0.343750,183.000000,182.000000,1.000000,0.000000,0.000000,0.000000,0.272321,0.393359,0.010417,0.000000,0.343750,183.000000,182.000000,1.000000,0.000000,0.000000,0.000000:
00000000
00000000
00000000
00000000
,
00000000
00000000
00000000
00000000
,
00000000
00000000
00000000
00000000
,
00000000
00000000
00000000
00000000
,
10001000
00000000
00000000
00100010
01000100
00000000
00000000
00100010
01000100
00000000
00000000
00100010
10001000
00000000
00000000
00010001
,
01000100
00000000
00000000
00010001
01000100
00000000
00000000
00010001
00100010
00000000
00000000
01000100
10001000
00000000
00000000
01000100
,
10001000
00000000
00000000
01000100
00100010
00000000
00000000
00010001
10001000
00000000
00000000
00010001
10001000
00000000
00000000
00010001
,
01000000
01000000
01000000
00000100
,
00000100
00000100
00100000
00100000
,
00100000
00000010
00000010
00000010
,
10000000
10000000
10000000
00001000
,
00001000
00001000
00010000
00010000
,
00010000
00000001
00000001
00000001
,
01000100
00000000
00000000
00100010
10001000
00000000
00000000
01000100
00100010
00000000
00000000
00010001
01000100
00000000
00000000
00100010
,
10001000
00000000
00000000
01000100
00100010
00000000
00000000
00010001
01000100
00000000
00000000
00100010
10001000
00000000
00000000
00010001
,
01000100
00000000
00000000
00100010
10001000
00000000
00000000
01000100
00100010
00000000
00000000
00010001
01000100
00000000
00000000
00100010
,
10001000
00000000
00000000
01000100
00100010
00000000
00000000
01000100
00100010
00000000
00000000
01000100
00100010
00000000
00000000
00000000
,
00010000
00000000
00010000
00000000
10000000
01000000
00100000
00000000
,
00000001
00000000
00000001
00000000
00001000
00000100
00000010
00000000
,
00010000
00000000
10000000
00000000
00100000
01000000
00010000
00000000
,
00000001
00000000
00001000
00000000
00000010
00000100
00000001
00000000
,
10001000
00000000
00000000
00000000
10001000
00000000
00000000
00010001
01000100
00000000
00000000
00100010
10001000
00000000
00000000
00000000
,
01000100
00000000
00000000
01000100
00100010
00000000
00000000
00000000
00010001
00000000
00000000
00000000
00010001
00000000
00000000
10001000
,
00100010
00000000
00000000
10001000
01000100
00000000
00000000
00100010
00010001
00000000
00000000
01000100
00100010
00000000
00000000
10001000
,
01000100
00000000
00000000
00100010
00010001
00000000
00000000
10001000
00100010
00000000
00000000
01000100
00010001
00000000
00000000
00000000
,
10000000
10000000
10000000
00001000
,
00001000
00001000
00100000
00100000
,
00100000
00000010
00000010
00000010
,
01000000
01000000
01000000
00000100
,
00000100
00000100
00010000
00010000
,
00010000
00000001
00000001
00000001
,
10001000
00000000
00000000
01000100
00100010
00000000
00000000
00010001
01000100
00000000
00000000
00100010
10001000
00000000
00000000
01000100
,
00100010
00000000
00000000
00010001
10001000
00000000
00000000
00100010
01000100
00000000
00000000
00010001
00100010
00000000
00000000
01000100
,
10001000
00000000
00000000
00010001
01000100
00000000
00000000
00100010
10001000
00000000
00000000
01000100
00100010
00000000
00000000
00010001
,
10001000
00000000
00000000
00100010
01000100
00000000
00000000
00000000
00010001
00000000
00000000
10001000
00010001
00000000
00000000
00000000
,
10001000
00000000
00000000
00000000
10001000
00000000
00000000
00010001
01000100
00000000
00000000
00100010
10001000
00000000
00000000
00000000
,
01000100
00000000
00000000
01000100
00100010
00000000
00000000
00000000
00010001
00000000
00000000
00000000
00010001
00000000
00000000
10001000
,
00100010
00000000
00000000
10001000
01000100
00000000
00000000
00100010
00010001
00000000
00000000
01000100
00100010
00000000
00000000
10001000
,
01000100
00000000
00000000
00100010
00010001
00000000
00000000
00000000
01000000
00100000
01000000
00100000
01000000
00000000
00000100
00000010
,
00000100
00000010
00000100
00000000
10000001
01000100
10000001
01000100
10000001
01000100
10000001
00000000
10011001
00000000
00000000
00000000
;

//---------------dance-solo - ----------------
#NOTES:
     dance-solo:
     :
     Easy:
     3:
     0.156250,0.186328,0.010417,0.000000,0.000000,105.000000,104.000000,1.000000,0.000000,0.000000,0.000000,0.156250,0.186328,0.010417,0.000000,0.000000,105.000000,104.000000,1.000000,0.000000,0.000000,0.000000:
000000
000000
000000
000000
,
000000
000000
000000
000000
,
000000
000000
000000
000000
,
000000
000000
000000
000000
,
100000
100000
100000
001000
,
001000
001000
010000
000100
,
010000
000001
000010
000001
,
100000
100000
000100
000100
,
001000
001000
000010
000010
,
100000
100000
000001
000001
,
010000
010000
000010
000010
,
000100
000100
001000
001000
,
100000
100000
000001
000001
,
000100
000000
001000
000000
,
010000
000000
000001
000000
,
100000
000000
000010
000000
,
001000
000000
000000
000000
,
000100
000100
100000
100000
,
000010
000010
010000
000000
,
000001
000001
000100
000100
,
001000
001000
010000
000000
,
000001
000000
100000
000000
,
000010
000000
010000
000000
,
000100
000000
001000
000000
,
000010
000000
100000
000000
,
000001
000000
001000
000100
,
000000
100000
001000
000000
,
010000
000001
000000
000100
,
000010
000000
010000
001000
,
000000
100000
000001
000000
,
001000
000100
000000
100000
,
001000
000000
010000
000000
,
000001
000000
001000
000000
,
000010
000000
100000
000000
,
000100
000000
010000
000000
,
001000
001000
001000
000000
,
000100
000100
000100
000000
,
000001
000001
000001
000000
,
010000
000000
000000
000000
000010
000000
000000
100000
,
000000
000001
000001
010010
;

//---------------dance-solo - ----------------
#NOTES:
     dance-solo:
     :
     Medium:
     5:
     0.281250,0.331250,0.302083,0.000000,0.000000,189.000000,160.000000,29.000000,0.000000,0.000000,0.000000,0.281250,0.331250,0.302083,0.000000,0.000000,189.000000,160.000000,29.000000,0.000000,0.000000,0.000000:
000000
000000
000000
000000
,
000000
000000
000000
000000
,
000000
000000
000000
000000
,
000000
000000
000000
000000
,
000000
000000
000000
000000
,
000000
000000
000000
000000
,
000000
000000
000000
000000
,
010000
000100
100000
000000
001000
000000
000100
000001
,
001000
000000
000010
000000
000100
001000
010000
000000
,
000001
000000
100000
000100
001000
000000
000010
000000
,
000100
000001
001000
000000
000010
000000
000100
001000
,
010000
000000
000001
000000
100000
000010
001000
000000
,
000100
000000
100000
001000
010000
000000
000100
000000
,
000000
000000
100001
000000
000000
011000
000000
001100
,
000000
000000
100001
000000
000000
001010
000000
001100
,
000000
000000
100001
000000
000000
010100
000000
000110
,
000000
000001
010000
001000
,
100001
000000
011000
000000
000001
001000
000010
000000
,
100001
000000
000110
000000
000001
010000
001000
000000
,
100001
000000
001010
000000
100000
000001
010000
000000
,
001100
000000
100001
000000
001000
000100
001000
000000
,
010000
000000
000001
000000
100000
000010
001000
000000
,
000100
100000
001000
000000
000100
000001
001000
000000
,
000010
000000
100000
000000
000001
010000
001000
000000
,
100001
001010
100001
011000
,
000001
000001
000001
000000
100000
100000
100000
000000
,
000010
000010
000010
000000
001000
001000
001000
000000
,
000100
000100
000100
000000
100000
100000
100000
000000
,
001000
001000
001000
000000
000000
010000
010000
000000
,
000000
000001
000001
000000
000000
000000
100010
000000
,
010001
000110
100001
011000
,
000001
000000
000001
000000
100000
000010
001000
000000
,
000100
100000
001000
000000
010001
000000
000110
000000
,
000001
000000
000001
000000
010000
000100
100000
000000
,
001000
000000
000100
000001
010000
000000
000010
000000
,
100000
000000
100000
000000
000001
001000
000100
000000
,
100000
000000
100000
000000
000010
010000
000100
000000
,
100000
001000
000100
000000
,
000001
000000
100000
000000
000010
000010
000010
010000
,
010000
010000
000100
000100
000100
000100
100001
000000
;

//---------------dance-solo - ----------------
#NOTES:
     dance-solo:
     :
     Hard:
     8:
     0.425595,0.496875,0.135417,0.000000,0.458333,286.000000,273.000000,13.000000,0.000000,0.000000,0.000000,0.425595,0.496875,0.135417,0.000000,0.458333,286.000000,273.000000,13.000000,0.000000,0.000000,0.000000:
000000
000000
000000
000000
,
000000
000000
000000
000000
,
000000
000000
000000
000000
,
000000
000000
000000
000000
,
010000
000000
000000
000010
000100
000000
000000
000001
010000
000000
000000
000010
100000
000000
000000
000100
,
001000
000000
000000
000010
100000
000000
000000
000001
010000
000000
000000
001000
000100
000000
000000
000001
,
010000
000000
000000
000010
100000
000000
000000
000100
001000
000000
000000
000001
100000
000000
000000
001000
,
000100
000000
000100
000000
000001
001000
000010
000000
100000
000000
000000
000000
001000
000000
001000
000000
,
000100
000001
010000
000000
000010
000000
000000
000000
100000
000000
100000
000000
000100
010000
000010
000000
,
001000
000000
000000
000000
000001
000000
000001
000000
000100
000010
010000
000000
001000
000000
000000
000000
,
100000
000000
100000
000000
000001
001000
000010
000000
100000
000000
000000
000000
000100
000000
000100
000000
,
001000
000010
100000
000000
000001
000000
000000
000000
010000
000000
010000
000000
001000
000100
000001
000000
,
100000
000000
000000
000000
000010
000000
000010
000000
001000
000100
100000
000000
000001
000000
000000
000000
,
010000
000000
000000
001000
000100
000000
000000
000001
001000
000000
000000
000010
100000
000000
000000
000100
,
010000
000000
000000
001000
000100
000000
000000
000001
100000
000000
000000
000010
010000
000000
000000
000100
,
100000
000000
000000
001000
010000
000000
000000
000001
000100
000000
000000
000010
010000
000000
000000
000100
,
100000
000000
000000
001000
000100
000000
000000
001000
000100
000000
000000
001000
000100
000000
000000
000000
,
010001
000000
000000
000000
100010
000000
000000
000000
000100
001000
000100
000000
100001
000000
000000
000000
,
011000
000000
000000
000000
001010
000000
000000
000000
000100
000001
010000
000000
100010
000000
000000
000000
,
010100
000000
000000
000000
000110
000000
000000
000000
001000
000100
001000
000000
100001
000000
000000
000000
,
001100
000000
000000
000000
100010
000000
000000
000000
010000
000001
000100
000000
010010
000000
000000
000000
,
100000
000000
000000
000000
100000
000000
000000
000100
001000
000000
000000
000010
100000
000000
000000
000000
,
000001
000000
000000
010000
001000
000000
000000
000000
000100
000000
000000
000000
000001
000000
000000
010000
,
000010
000000
000000
100000
000100
000000
000000
001000
000010
000000
000000
100000
000001
000000
000000
010000
,
001000
000000
000000
000100
000001
000000
000000
010000
000010
000000
000000
100000
000100
000000
000000
000000
,
001000
000000
001000
000000
000010
100000
000001
000000
010000
000000
000000
000000
001000
000000
001000
000000
,
000100
000001
001000
000000
000010
000000
000000
000000
100000
000000
100000
000000
000100
001000
000010
000000
,
100000
000000
000000
000000
001000
000000
001000
000000
010000
000001
000100
000000
000010
000000
000000
000000
,
001000
000000
001000
000000
000100
100000
000010
000000
010000
000000
000000
000000
000001
000000
000001
000000
,
000100
001000
010000
000000
000001
000000
000000
000000
000100
000000
000100
000000
000010
010000
000100
000000
,
100000
000000
000000
000000
000010
000000
000010
000000
010000
000001
000100
000000
001000
000000
000000
000000
,
010000
000000
000000
000001
100000
000000
000000
000010
001000
000000
000000
000100
100000
000000
000000
001000
,
010000
000000
000000
000001
000100
000000
000000
000010
010000
000000
000000
000100
100000
000000
000000
001000
,
000100
000000
000000
000001
100000
000000
000000
000010
010000
000000
000000
000100
100000
000000
000000
000001
,
001000
000000
000000
000010
100000
000000
000000
000000
000001
000000
000000
010000
001000
000000
000000
000000
,
000100
000000
000000
000000
000100
000000
000000
000001
010000
000000
000000
000010
100000
000000
000000
000000
,
000100
000000
000000
010000
000010
000000
000000
000000
000100
000000
000000
000000
000001
000000
000000
010000
,
000010
000000
000000
100000
000100
000000
000000
001000
000010
000000
000000
100000
000001
000000
000000
010000
,
001000
000000
000000
000100
000001
000000
000000
000000
010000
000010
010000
000010
010000
000000
000100
100000
,
000100
100000
000100
000000
010000
000010
010000
000010
010000
000010
010000
000000
100001
000000
000000
000000
;

//---------------dance-single - ----------------
#NOTES:
     dance-single:
     :
     Challenge:
     13:
     0.680059,0.670833,0.562500,0.010417,0.718750,457.000000,403.000000,54.000000,1.000000,0.000000,0.000000,0.680059,0.670833,0.562500,0.010417,0.718750,457.000000,403.000000,54.000000,1.000000,0.000000,0.000000:
// measure 0
0000
0000
0000
0000
,  // measure 1
0000
0000
0000
0000
,  // measure 2
0000
0000
0000
0000
,  // measure 3
0000
0000
0000
0000
,  // measure 4
0001
0000
0001
0000
1000
0100
1000
0000
0010
0000
0010
0000
0100
0001
0100
0000
,  // measure 5
0001
0000
0001
0000
1000
0010
0100
0000
0100
0010
1000
0000
0001
0100
0010
0000
,  // measure 6
0100
0001
0010
0000
0100
0010
1000
0000
0001
0000
0001
0000
0010
0100
0010
0000
,  // measure 7
0100
1000
0100
0010
0001
0100
0010
0000
1000
0010
0001
0010
0000
0000
1100
0000
,  // measure 8
0100
0000
0101
0000
0100
1000
0010
0001
0010
0000
1010
0000
1001
0000
0101
0000
,  // measure 9
0100
0010
1000
0010
0100
0100
0001
0000
1000
1000
0010
0000
0010
0010
0100
0000
,  // measure 10
1001
0000
1010
0000
0101
0000
0010
1000
0010
0100
0010
0000
1001
0000
1100
0000
,  // measure 11
0110
0000
0010
0001
0010
0100
1000
0000
1001
0000
0101
0000
0110
0000
1100
0000
,  // measure 12
1000
0100
0010
0100
1000
0000
0100
0001
0100
1000
0010
1000
0010
0100
0001
0100
,  // measure 13
0001
0000
0000
0001
0010
0000
0000
0010
0100
0000
0000
0100
1000
0000
0000
1000
,  // measure 14
0001
0000
0000
0001
0010
0000
0000
0010
0001
0000
0000
0001
0100
0000
0000
0100
,  // measure 15
1000
0000
0000
1000
0100
0000
0000
0100
0001
0000
0000
0001
0010
0000
0000
0010
,  // measure 16
0100
1000
0000
1000
0100
0010
0000
0001
0100
0000
0000
0100
0010
0000
0100
0010
,  // measure 17
1000
0100
1000
0100
0010
0000
0011
0000
0101
0000
0110
0000
1010
0000
1100
0000
,  // measure 18
0100
0010
0001
0010
0100
0000
0110
0000
0100
1000
0100
0000
0101
0000
0011
0000
,  // measure 19
0010
0000
1000
0010
1000
0000
0010
0001
0100
0000
0010
1000
0100
0000
0011
0000
,  // measure 20
0100
0010
1000
0010
0100
0000
0101
0000
0001
0010
0100
1000
0010
0000
0110
0000
,  // measure 21
0100
0000
0101
0000
0001
0010
0100
1000
0001
0010
0100
1000
0001
0100
0010
1000
,  // measure 22
0001
0000
0000
0100
0001
0010
0001
0000
1000
0100
1000
0000
0010
0100
0010
0000
,  // measure 23
0100
0001
0010
0100
0010
0001
1000
0010
1000
0000
1010
0000
0010
0100
0001
0100
,  // measure 24
0010
0000
1000
0000
0100
0010
0100
0010
0001
1000
0001
1000
0010
1000
0010
1000
,  // measure 25
0001
0000
0101
0000
0100
0010
1000
0010
0100
0001
0010
0100
1000
0000
1000
0000
,  // measure 26
0010
0100
0010
0100
0010
0100
0010
0100
0010
0000
1010
0000
1000
0100
1000
0100
,  // measure 27
1000
0100
1000
0100
1000
0100
0010
0000
0001
0010
0100
0000
1000
0100
0001
0000
,  // measure 28
0101
0000
1000
0000
1010
0000
0010
0100
0001
0000
0011
0000
0110
0000
0100
1000
,  // measure 29
0010
0000
0110
0000
0101
0000
0001
1000
0001
0000
1000
0000
1100
0000
0100
0000
,  // measure 30
0110
0010
0011
1001
1100
0110
0011
1001
,  // measure 31
1010
0000
0100
0000
0010
0001
1000
0000
0100
0000
1000
0000
0010
0100
0001
0000
,  // measure 32
0100
0010
1000
0000
0001
1000
0001
0000
0100
0010
1000
0000
0010
0100
0001
0000
,  // measure 33
1000
0010
1000
0010
0100
0000
0000
0100
0001
0000
0000
0001
0010
0000
0000
0010
,  // measure 34
0100
0000
0000
0100
1000
0001
1000
0000
1010
0000
0000
0010
0100
0001
0100
0001
,  // measure 35
0100
0000
0110
0000
0010
1000
0100
0000
0010
0001
0100
0000
0100
0010
1000
0000
,  // measure 36
1100
0000
0100
0000
0010
0001
0010
0000
0100
1000
0100
0010
0100
0010
0001
0000
,  // measure 37
0101
0000
0110
0000
1010
0000
1100
0000
0101
0000
1000
0100
0010
0001
0100
0010
,  // measure 38
0100
0001
0010
0001
1000
0100
0011
0000
0001
0010
0001
0010
0100
0000
1000
0100
,  // measure 39
1000
0100
0010
0000
0001
0010
0100
0010
0001
0010
0100
0010
0002
0000
0000
0000
,  // measure 40
0000
0003
0000
0000
;
