#TITLE:脳漿炸裂ガール;
#SUBTITLE:;
#ARTIST:れるりり;
#TITLETRANSLIT:Nou shou sakuretsu girl;
#SUBTITLETRANSLIT:;
#ARTISTTRANSLIT:Rerulili;
#GENRE:;
#CREDIT:;
#BANNER:Nou shou sakuretsu girl.png;
#BACKGROUND:Nou shou sakuretsu girl-bg.png;
#LYRICSPATH:;
#CDTITLE:;
#MUSIC:Nou shou sakuretsu girl.ogg;
#OFFSET:0.000000;
#SAMPLESTART:107.610130;
#SAMPLELENGTH:15.000000;
#SELECTABLE:YES;
#BPMS:0.000000=155.000000
;
#STOPS:
;
#BGCHANGES:0.000=Nou shou sakuretsu girl.avi=1.000=0=0=0=StretchNoLoop====,
99999=-nosongbg-=1.000=0=0=0 // don't automatically add -songbackground-
;
#KEYSOUNDS:;
#ATTACKS:;

//---------------dance-single - ----------------
#NOTES:
     dance-single:
     :
     Beginner:
     3:
     0.192212,0.221921,0.060547,0.141276,0.000000,170.000000,9.000000,21.000000,0.000000,0.000000,0.000000,0.192212,0.221921,0.060547,0.141276,0.000000,170.000000,9.000000,21.000000,0.000000,0.000000,0.000000:
// measure 0
0000
0000
0000
0000
,  // measure 1
0000
0000
0000
0000
,  // measure 2
0000
0000
0000
0000
,  // measure 3
0000
0000
0000
0000
,  // measure 4
0000
0000
0000
0000
,  // measure 5
1000
1000
0010
0000
,  // measure 6
1000
0000
0001
0000
,  // measure 7
0001
0001
0010
0000
,  // measure 8
0001
0000
1000
0000
,  // measure 9
1000
1000
1000
0000
,  // measure 10
0010
0000
0010
0000
,  // measure 11
0001
0001
0001
0000
,  // measure 12
0010
0000
0010
0000
,  // measure 13
2000
3000
0000
0000
,  // measure 14
0020
0030
0000
0000
,  // measure 15
0002
0003
0000
0000
,  // measure 16
1001
0000
0000
0000
,  // measure 17
1000
0000
1000
0000
,  // measure 18
0010
0000
0000
0000
,  // measure 19
0001
0000
0001
0000
,  // measure 20
0010
0000
0000
0000
,  // measure 21
1000
1000
1000
0000
,  // measure 22
0010
0000
0010
0000
,  // measure 23
0001
0001
0001
0000
,  // measure 24
0010
0000
0010
0000
,  // measure 25
2000
3000
0000
0000
,  // measure 26
0020
0030
0000
0000
,  // measure 27
0002
0003
0000
0000
,  // measure 28
1001
0000
0000
0000
,  // measure 29
1000
0000
1000
0000
,  // measure 30
0010
0000
0010
0000
,  // measure 31
2000
3000
0000
0000
,  // measure 32
0002
0003
0000
0000
,  // measure 33
0001
0000
0001
0000
,  // measure 34
0010
0000
0010
0000
,  // measure 35
1001
0000
0000
0000
,  // measure 36
1001
0000
0000
0000
,  // measure 37
0001
0001
0001
0000
,  // measure 38
0010
0000
0100
0000
,  // measure 39
1000
1000
1000
0000
,  // measure 40
0100
0000
0010
0010
,  // measure 41
1000
1000
1000
0000
,  // measure 42
0010
0000
0100
0000
,  // measure 43
0001
0001
0001
0000
,  // measure 44
0100
0000
0010
0000
,  // measure 45
1001
0000
0000
0000
,  // measure 46
0000
0000
0000
0000
,  // measure 47
0000
0000
0000
0000
,  // measure 48
0000
0000
0000
0000
,  // measure 49
2000
3000
0000
2000
,  // measure 50
3000
0000
0020
0030
,  // measure 51
0000
0020
0030
0000
,  // measure 52
0002
0003
0000
0002
,  // measure 53
0003
0000
0020
0030
,  // measure 54
0000
0020
0030
0000
,  // measure 55
0000
1000
1000
1000
,  // measure 56
0000
0000
0000
0001
,  // measure 57
0001
0001
0000
0000
,  // measure 58
0010
0010
0000
0001
,  // measure 59
0001
0000
0010
0010
,  // measure 60
0000
2000
3000
0000
,  // measure 61
1000
0000
1000
0000
,  // measure 62
0100
0000
0100
0000
,  // measure 63
2000
3000
0000
0000
,  // measure 64
0002
0003
0000
0000
,  // measure 65
0001
0000
0001
0000
,  // measure 66
0100
0000
0100
0000
,  // measure 67
1001
0000
0000
0000
,  // measure 68
1001
0000
0000
0000
,  // measure 69
0000
0000
0001
0001
,  // measure 70
0001
0000
0010
0000
,  // measure 71
0100
0000
1000
1000
,  // measure 72
1000
0000
0100
0000
,  // measure 73
0010
0010
1000
1000
,  // measure 74
1000
0000
0010
0000
,  // measure 75
0100
0000
0001
0001
,  // measure 76
0001
0000
0100
0000
,  // measure 77
0010
0000
0001
0001
,  // measure 78
0001
0000
0010
0000
,  // measure 79
0100
0000
1000
1000
,  // measure 80
1000
0000
0100
0000
,  // measure 81
0010
0010
1000
1000
,  // measure 82
1000
0000
0010
0000
,  // measure 83
0100
0000
0001
0001
,  // measure 84
0001
0000
0100
0000
,  // measure 85
0010
0000
1001
0000
,  // measure 86
0000
0000
0000
0000
,  // measure 87
0000
0000
0001
0001
,  // measure 88
0010
0000
0001
0000
,  // measure 89
1000
0000
1000
1000
,  // measure 90
0010
0000
1000
0000
,  // measure 91
0001
0000
0001
0001
,  // measure 92
0010
0000
0001
0000
,  // measure 93
1000
0000
2002
0000
,  // measure 94
0000
3003
0000
0000
;

//---------------dance-single - ----------------
#NOTES:
     dance-single:
     :
     Easy:
     7:
     0.302735,0.317871,0.114366,0.188368,0.000000,270.000000,17.000000,28.000000,0.000000,0.000000,0.000000,0.302735,0.317871,0.114366,0.188368,0.000000,270.000000,17.000000,28.000000,0.000000,0.000000,0.000000:
// measure 0
0000
0000
0000
0000
,  // measure 1
0000
0000
0000
0000
,  // measure 2
0000
0000
0000
0000
,  // measure 3
0000
0000
0000
0000
,  // measure 4
0000
0000
0000
0000
,  // measure 5
0001
1000
0100
0010
,  // measure 6
0001
0100
0010
0000
,  // measure 7
1000
0001
0100
0010
,  // measure 8
1000
0010
0100
0000
,  // measure 9
0002
0103
2000
3100
,  // measure 10
0001
1000
0010
0000
,  // measure 11
2000
3010
0002
0013
,  // measure 12
0100
0010
0100
0000
,  // measure 13
0002
0103
2000
3100
,  // measure 14
0001
1000
0100
0000
,  // measure 15
1000
0100
0010
0001
,  // measure 16
2000
0000
3001
0000
,  // measure 17
1000
0100
1000
0100
,  // measure 18
0010
0001
0010
0000
,  // measure 19
0001
0100
0001
0100
,  // measure 20
0010
0010
1001
0000
,  // measure 21
0002
0103
2000
3100
,  // measure 22
0001
1000
0010
0000
,  // measure 23
2000
3010
0002
0013
,  // measure 24
0100
0010
0100
0000
,  // measure 25
0002
0103
2000
3100
,  // measure 26
0001
1000
0100
0000
,  // measure 27
1000
0100
0010
0001
,  // measure 28
2000
0000
3001
0000
,  // measure 29
2000
0000
3000
0100
,  // measure 30
0010
0001
1000
0000
,  // measure 31
0020
0000
0230
0000
,  // measure 32
0302
0000
1003
0000
,  // measure 33
0002
0000
0003
0010
,  // measure 34
0100
1000
0010
0000
,  // measure 35
1001
0000
0110
0000
,  // measure 36
1001
0000
0000
0000
,  // measure 37
0001
1000
0010
0100
,  // measure 38
0010
1000
0001
0000
,  // measure 39
1000
0100
0001
0100
,  // measure 40
1000
0001
0110
0110
,  // measure 41
1000
0001
0100
0010
,  // measure 42
1000
0001
0010
0000
,  // measure 43
0001
0010
1000
0010
,  // measure 44
0001
0100
1000
0000
,  // measure 45
2002
0000
0000
3003
,  // measure 46
0000
0000
0000
0000
,  // measure 47
0000
0000
0000
0000
,  // measure 48
0000
0000
0000
0000
,  // measure 49
1000
0000
1000
0100
,  // measure 50
0000
0100
0010
0000
,  // measure 51
0010
0001
0000
0001
,  // measure 52
1000
0010
0100
0001
,  // measure 53
0000
0001
0010
0100
,  // measure 54
1000
0001
0000
0000
,  // measure 55
0000
1000
1000
1000
,  // measure 56
0100
0010
0000
0001
,  // measure 57
0001
0001
0010
0100
,  // measure 58
1000
0001
1000
0100
,  // measure 59
0010
0100
1000
0001
,  // measure 60
1000
0010
0100
0010
,  // measure 61
2000
0000
3000
0100
,  // measure 62
0010
0001
1000
0000
,  // measure 63
0020
0000
0230
0000
,  // measure 64
0302
0000
1003
0000
,  // measure 65
0002
0000
0003
0010
,  // measure 66
0100
1000
0010
0000
,  // measure 67
1001
0000
0110
0000
,  // measure 68
1001
0000
0000
0000
,  // measure 69
0000
0000
0001
1000
,  // measure 70
0010
0100
0010
1000
,  // measure 71
0001
0000
1000
0100
,  // measure 72
0001
0100
1000
0001
,  // measure 73
0110
0110
1000
0001
,  // measure 74
0100
0010
1000
0001
,  // measure 75
0010
0000
0001
0010
,  // measure 76
1000
0010
0001
0100
,  // measure 77
1000
0000
0001
1000
,  // measure 78
0010
0100
0010
1000
,  // measure 79
0001
0000
1000
0100
,  // measure 80
0001
0100
1000
0001
,  // measure 81
0110
0110
1000
0001
,  // measure 82
0100
0010
1000
0001
,  // measure 83
0010
0000
0001
0010
,  // measure 84
1000
0010
0001
0100
,  // measure 85
1000
0000
2002
0000
,  // measure 86
0000
0000
3003
0000
,  // measure 87
0000
0000
1000
0001
,  // measure 88
0100
0010
1000
0010
,  // measure 89
0100
0000
0001
1000
,  // measure 90
0100
0010
0001
0100
,  // measure 91
0010
0000
1000
0001
,  // measure 92
0100
0010
1000
0010
,  // measure 93
0100
0000
0001
1000
,  // measure 94
0001
1001
1001
0000
;

//---------------dance-single - ----------------
#NOTES:
     dance-single:
     :
     Medium:
     10:
     0.436322,0.412686,0.100912,0.275825,0.000000,398.000000,15.000000,41.000000,0.000000,0.000000,0.000000,0.436322,0.412686,0.100912,0.275825,0.000000,398.000000,15.000000,41.000000,0.000000,0.000000,0.000000:
// measure 0
0000
0000
0000
0000
,  // measure 1
0000
0000
0000
0000
,  // measure 2
0000
0000
0000
0000
,  // measure 3
0000
0000
0000
0000
,  // measure 4
0000
0000
0000
0000
,  // measure 5
1000
0001
0100
0000
0010
0000
0010
0000
,  // measure 6
1000
0100
0010
0000
0001
0100
0010
0000
,  // measure 7
1000
0001
0010
0000
0100
0000
0100
0000
,  // measure 8
1000
0010
0100
0000
0001
0010
0100
0000
,  // measure 9
1000
0010
0100
0000
0001
0000
0100
0000
,  // measure 10
0002
1000
1003
0000
0200
0000
0310
0000
,  // measure 11
0001
0001
0010
0010
,  // measure 12
0001
1000
0100
0000
0010
0001
1000
0000
,  // measure 13
0002
0103
2000
3100
,  // measure 14
0002
0013
2000
3010
,  // measure 15
0100
1000
0100
0000
0010
0001
0010
0000
,  // measure 16
2002
0000
3003
0000
,  // measure 17
1000
0100
1000
0000
1000
0100
0010
0000
,  // measure 18
0001
0100
0001
0100
0010
0000
0010
0000
,  // measure 19
1000
0001
1000
0000
0001
1000
0001
0000
,  // measure 20
0010
0100
0110
1001
,  // measure 21
0001
0010
0100
0000
1000
0000
0100
0000
,  // measure 22
2000
0001
3001
0000
0200
0000
0310
0000
,  // measure 23
1000
1000
0010
0010
,  // measure 24
1000
0001
0100
0000
0010
1000
0001
0000
,  // measure 25
2000
3100
0002
0103
,  // measure 26
2000
3010
0002
0013
,  // measure 27
0100
0001
0100
0000
0010
1000
0010
0000
,  // measure 28
2002
0000
3003
0000
,  // measure 29
0002
0000
0100
0000
0103
0000
0010
1000
,  // measure 30
0010
0100
0001
1000
,  // measure 31
0001
0010
0001
0000
1000
0100
1000
0000
,  // measure 32
0001
0100
0001
0100
0010
0000
0010
0000
,  // measure 33
2000
0100
3100
0010
,  // measure 34
0001
1000
0001
1000
0001
0000
0100
0000
,  // measure 35
1001
0000
0110
0000
,  // measure 36
2002
0000
0000
3003
,  // measure 37
0001
0000
1000
0000
0010
0100
0010
0000
,  // measure 38
1000
0001
0100
0000
0020
0000
1030
0000
,  // measure 39
1000
0001
0010
0000
0001
1000
0100
0000
,  // measure 40
0010
0001
1000
0000
0002
0000
1003
0000
,  // measure 41
0010
0000
0100
0000
0001
1000
0001
0000
,  // measure 42
0010
0100
1000
0000
0002
0000
1003
0000
,  // measure 43
0001
0001
0010
0010
,  // measure 44
0100
0010
0100
0010
0001
1000
0001
0000
,  // measure 45
2002
0000
0000
3003
,  // measure 46
0000
0000
0000
0000
,  // measure 47
0000
0000
0000
0000
,  // measure 48
0000
0000
1000
1000
,  // measure 49
1000
0100
0010
0001
,  // measure 50
0010
0100
1000
0010
,  // measure 51
0100
0001
0100
0010
,  // measure 52
2000
0001
3001
1001
,  // measure 53
0000
0002
0103
0010
,  // measure 54
0100
2002
3003
0000
,  // measure 55
0000
0010
0010
0010
,  // measure 56
0001
1000
0001
0000
0100
0000
0010
0000
,  // measure 57
0010
0000
0010
0000
1000
0001
1000
0000
,  // measure 58
1000
0100
0010
0100
,  // measure 59
0010
0001
1000
0010
,  // measure 60
0100
0001
0100
0010
,  // measure 61
2000
0000
0100
0000
3100
0000
0010
0001
,  // measure 62
0010
0100
1000
0001
,  // measure 63
1000
0010
1000
0000
0001
0100
0001
0000
,  // measure 64
1000
0100
1000
0100
0010
0000
0010
0000
,  // measure 65
0002
0100
0103
0010
,  // measure 66
1000
0001
1000
0001
1000
0000
0100
0000
,  // measure 67
1001
0000
0110
0000
,  // measure 68
2002
0000
0000
3003
,  // measure 69
0000
0000
1000
0001
,  // measure 70
0010
0100
0010
0000
0001
1000
0100
0000
,  // measure 71
0020
0000
0031
0000
0001
1000
0010
0000
,  // measure 72
1000
0001
0100
0000
0010
1000
0001
0000
,  // measure 73
2000
3001
0010
0100
,  // measure 74
1000
0001
1000
0000
0010
0100
0001
0000
,  // measure 75
2000
3001
1000
1000
,  // measure 76
0010
0000
0010
0000
0100
0010
0100
0010
,  // measure 77
1000
0001
1000
0000
0001
0000
1000
0000
,  // measure 78
0010
0100
0010
0000
1000
0001
0100
0000
,  // measure 79
0020
0000
1030
0000
1000
0001
0010
0000
,  // measure 80
0001
1000
0100
0000
0010
0001
1000
0000
,  // measure 81
0002
1003
0010
0100
,  // measure 82
0001
1000
0001
0000
0010
0100
1000
0000
,  // measure 83
0002
1003
0001
0001
,  // measure 84
0010
0000
0010
0000
0100
0010
0100
0010
,  // measure 85
0001
1000
0001
0000
2002
0000
0000
0000
,  // measure 86
0000
0000
3003
0000
,  // measure 87
0000
0000
0000
0000
0001
1000
0010
0000
,  // measure 88
0100
0000
0100
0000
0001
0010
0100
0000
,  // measure 89
1000
0010
0100
0000
0001
1000
0100
0000
,  // measure 90
0010
0000
0010
0000
0001
0100
0010
0000
,  // measure 91
1000
0100
0010
0000
0001
1000
0010
0000
,  // measure 92
0100
0000
0100
0000
0001
0010
0100
0000
,  // measure 93
1000
0010
0100
0000
0001
0100
0010
1000
,  // measure 94
0100
0010
0000
1001
0000
0000
0000
0000
;

//---------------dance-single - ----------------
#NOTES:
     dance-single:
     :
     Hard:
     12:
     0.535312,0.507922,0.114366,0.222005,0.047092,507.000000,17.000000,33.000000,0.000000,0.000000,0.000000,0.535312,0.507922,0.114366,0.222005,0.047092,507.000000,17.000000,33.000000,0.000000,0.000000,0.000000:
// measure 0
0000
0000
0000
0000
,  // measure 1
0000
0000
0000
0000
,  // measure 2
0000
0000
0000
0000
,  // measure 3
0000
0000
0000
0000
,  // measure 4
0000
0000
0000
0000
,  // measure 5
0001
1000
0010
0100
0001
1000
0010
0000
,  // measure 6
1000
0100
0010
0000
0001
1000
0010
0000
,  // measure 7
1000
0001
0100
0010
1000
0001
0010
0000
,  // measure 8
0001
0010
0100
1000
0010
0100
0001
0000
,  // measure 9
1000
0000
0000
1000
0000
0000
0001
0000
0000
0001
0000
0000
0010
0000
0010
0000
,  // measure 10
0100
1000
0001
0100
0010
2000
0000
3001
,  // measure 11
0010
0100
1000
0100
0001
0100
1000
0000
,  // measure 12
0001
0100
0010
1000
0001
0010
0100
0000
,  // measure 13
2000
0100
3100
0000
0200
0010
0310
0000
,  // measure 14
0010
0001
1000
0001
0100
0010
0100
0000
,  // measure 15
0001
1000
0010
0100
0001
1000
0100
0010
,  // measure 16
0002
0000
0000
0003
,  // measure 17
0001
0000
0000
0001
0100
0000
0000
0100
0010
0000
0000
0010
1000
0000
0001
0000
,  // measure 18
1000
0000
0000
1000
0100
0000
0000
0100
0010
0000
0001
0000
1000
0000
0000
0000
,  // measure 19
0010
0000
0000
0010
0100
0000
0000
0100
0001
0000
0000
0001
1000
0000
0001
0000
,  // measure 20
1000
0000
0000
1000
0100
0000
0000
0100
0020
0000
0001
0000
0031
0000
0000
0000
,  // measure 21
0001
0100
1000
0100
0001
0100
0010
1000
,  // measure 22
0001
0100
0010
0000
1000
0001
0100
0000
,  // measure 23
0010
1000
0010
1000
0001
0100
0010
0000
,  // measure 24
1000
0100
0001
0100
1000
0010
0001
0000
,  // measure 25
0010
0100
0001
1000
0100
0010
0001
0000
,  // measure 26
1000
0100
0001
0000
1000
0010
0001
0000
,  // measure 27
1000
0100
1000
0100
0010
0001
0010
0002
,  // measure 28
2000
0000
0000
3003
,  // measure 29
0002
0000
0000
0000
0000
0103
0010
1000
,  // measure 30
0001
0010
0100
0000
1000
0001
0100
0000
,  // measure 31
0010
1000
0001
0100
0010
0001
0010
1000
,  // measure 32
0001
0001
0010
0010
0100
1000
0001
0000
,  // measure 33
2000
0000
0000
0000
0000
3100
0010
0001
,  // measure 34
0010
0100
1000
0001
0100
0010
1000
0000
,  // measure 35
1001
0000
0110
0000
,  // measure 36
0001
1000
0010
0100
0001
1000
0001
0000
,  // measure 37
2000
0000
3002
0000
0013
0100
1000
0001
,  // measure 38
0100
0010
1000
0001
0100
0000
1001
0000
,  // measure 39
1000
0100
0001
0100
1000
0100
0001
0100
,  // measure 40
1000
0010
0100
0000
1001
0000
0110
0000
,  // measure 41
0002
0000
2003
0000
3010
0100
0001
1000
,  // measure 42
0100
0010
0001
0100
0010
0000
1001
0000
,  // measure 43
0001
0010
0100
1000
0001
0100
0010
1000
,  // measure 44
0001
0010
1000
0010
0001
0100
1000
0200
,  // measure 45
0000
0000
0000
0300
,  // measure 46
0000
0000
0000
0000
,  // measure 47
0000
0000
0000
0000
,  // measure 48
0000
0000
0000
0000
0001
0100
0010
0000
,  // measure 49
2000
0100
3100
0200
,  // measure 50
0010
0310
0020
0001
,  // measure 51
0031
0002
1000
1003
,  // measure 52
0001
0100
0010
2002
,  // measure 53
3003
0001
0010
0100
,  // measure 54
1000
2002
3003
0000
,  // measure 55
0000
1000
0100
0001
,  // measure 56
1000
0010
0001
0001
,  // measure 57
0100
1000
0001
0010
,  // measure 58
1000
0001
0100
0000
0010
0000
1000
0001
,  // measure 59
0010
0000
0100
0000
1000
0100
1000
0100
,  // measure 60
0010
0000
0001
0100
0001
0100
0010
0000
,  // measure 61
2000
0000
0000
0000
0000
3010
0100
0001
,  // measure 62
1000
0100
0010
0000
0001
1000
0010
0000
,  // measure 63
0100
0001
1000
0010
0100
1000
0100
0001
,  // measure 64
1000
1000
0100
0100
0010
0001
1000
0000
,  // measure 65
0002
0000
0000
0000
0000
0013
0100
1000
,  // measure 66
0100
0010
0001
1000
0010
0100
0001
0000
,  // measure 67
1001
0000
0110
0000
,  // measure 68
1000
0001
0100
0010
1000
0001
1000
0000
,  // measure 69
0000
0000
0002
2003
,  // measure 70
3010
0100
0001
1000
0100
0010
0001
1000
,  // measure 71
0100
0000
1001
0000
0001
0100
1000
0100
,  // measure 72
0001
0100
1000
0100
0001
0010
0100
0000
,  // measure 73
1001
0110
2000
3002
,  // measure 74
0013
0100
1000
0001
0100
0010
1000
0100
,  // measure 75
0010
0000
1001
0000
1000
0010
0100
0001
,  // measure 76
1000
0100
0010
0001
1000
0010
0001
0010
,  // measure 77
1000
0100
0001
0100
2000
0000
3002
0000
,  // measure 78
0103
0010
1000
0001
0010
0100
1000
0001
,  // measure 79
0010
0000
1001
0000
1000
0010
0001
0010
,  // measure 80
1000
0010
0001
0010
1000
0100
0001
0100
,  // measure 81
1000
0100
0010
0000
0002
0000
2003
0000
,  // measure 82
3100
0010
0001
1000
0010
0100
0001
0010
,  // measure 83
0100
0000
1001
0000
0001
0100
0010
1000
,  // measure 84
0001
0010
0100
1000
0001
0100
1000
0100
,  // measure 85
0001
0010
1000
0020
0000
0000
0000
0000
,  // measure 86
0000
0000
0000
0000
,  // measure 87
0000
0000
0030
0000
0001
1000
0010
0100
,  // measure 88
0001
1000
0100
0000
1000
0100
0010
0001
,  // measure 89
0100
0010
1000
0000
0001
1000
0100
0010
,  // measure 90
0001
1000
0100
0000
1000
0010
0100
0000
,  // measure 91
0001
1000
0100
0000
1000
0001
0010
0100
,  // measure 92
1000
0001
0100
0000
0001
0100
0010
1000
,  // measure 93
0100
0000
0010
0000
0001
0000
0000
0000
1000
0000
0001
0000
0000
0100
0000
0000
,  // measure 94
0010
0000
0000
0100
0000
0000
1001
0000
0000
0000
0000
0000
0000
0000
0000
0000
;

//---------------dance-single - ----------------
#NOTES:
     dance-single:
     :
     Challenge:
     14:
     0.669861,0.666647,0.262370,0.087457,0.423829,645.000000,39.000000,13.000000,0.000000,0.000000,0.000000,0.669861,0.666647,0.262370,0.087457,0.423829,645.000000,39.000000,13.000000,0.000000,0.000000,0.000000:
// measure 0
0000
0000
0000
0000
,  // measure 1
0000
0000
0000
0000
,  // measure 2
0000
0000
0000
0000
,  // measure 3
0000
0000
0000
0000
,  // measure 4
0000
0000
0000
0000
,  // measure 5
1000
0000
0001
0000
1000
0100
0000
0010
0001
0000
1000
0010
0000
0100
0001
0000
,  // measure 6
1000
0000
0100
0000
0010
0001
0010
0000
0001
0000
0100
0000
0010
0000
1000
0000
,  // measure 7
0001
0000
1000
0000
0001
0010
0000
0100
1000
0000
0001
0100
0000
0010
1000
0000
,  // measure 8
0001
0000
0010
0000
0100
1000
0100
0000
0010
0000
0001
0000
1001
0000
0000
0000
,  // measure 9
1000
0001
0000
1000
0001
0000
0100
0010
0000
0100
0010
0000
0001
0000
0010
0000
,  // measure 10
1000
0010
0100
0001
0010
0002
0000
1003
,  // measure 11
0100
0100
0010
0001
0010
0010
0001
0100
,  // measure 12
1000
0100
0001
0100
0010
1000
0001
0100
,  // measure 13
0001
1000
0001
0000
0100
0000
0010
0000
1000
0000
0010
0000
0001
0000
0010
0000
,  // measure 14
1000
0001
1000
0000
0100
0000
0010
0000
0001
0000
0100
0000
0001
0000
1000
0000
,  // measure 15
0100
0010
0100
0010
0100
0000
0010
0000
0001
1000
0001
1000
0001
0000
1000
0000
,  // measure 16
0001
0100
0010
1000
0100
0010
0001
0000
,  // measure 17
0000
0011
0000
0110
0000
0011
0000
1001
,  // measure 18
0000
1010
0000
0110
0000
0101
1001
0000
,  // measure 19
0000
1100
0000
0110
0000
0011
0000
1001
,  // measure 20
1000
0010
0100
0001
0010
0010
0010
0000
,  // measure 21
0001
0010
0000
0010
0100
0000
0100
1000
0000
1000
0001
0000
0100
0000
0010
0000
,  // measure 22
1000
0100
0001
0100
0010
0001
1000
0001
,  // measure 23
0100
0010
0100
0000
0001
0000
0100
0000
0010
1000
0010
0000
0100
0000
0001
0000
,  // measure 24
1000
0100
0001
0100
1000
0010
0001
0010
,  // measure 25
1000
0010
1000
0000
0001
0000
0100
0000
0010
1000
0010
0000
0100
0000
0001
0000
,  // measure 26
0010
0010
0100
1000
0100
0100
0010
0001
,  // measure 27
0100
0010
1000
0001
0100
1000
0100
0002
,  // measure 28
2000
0000
0000
3003
,  // measure 29
2000
0000
0000
0000
0000
3100
0010
0001
,  // measure 30
0100
0000
0000
0000
0010
0000
0000
0000
1000
0000
0000
0000
0001
0000
0000
0000
0010
0000
0000
0000
0100
0000
0000
0000
1000
0000
0000
0001
1000
0000
0000
0000
,  // measure 31
0001
0100
1000
0100
0001
0010
1000
0010
,  // measure 32
0001
0100
0010
1000
0001
0010
0100
1000
,  // measure 33
0002
0000
0000
0000
0000
0103
0010
0100
,  // measure 34
0001
1000
0100
0001
1000
0010
0001
0000
,  // measure 35
0110
0000
1001
0000
,  // measure 36
1000
0100
0010
0001
0100
0000
0010
0000
1000
0010
0100
0001
1000
0000
0000
0000
,  // measure 37
1001
0000
0000
0000
0110
0000
0000
0000
1001
0000
0000
0001
0010
0000
0100
0000
,  // measure 38
1000
0000
0001
0000
0100
0010
0000
1000
0000
0000
0000
0000
0100
0001
0000
0000
,  // measure 39
1000
0100
1000
0100
1000
0000
0100
0000
0010
0001
0010
0001
0010
0000
0100
0000
,  // measure 40
1000
0001
0100
0001
1000
0000
0010
0000
0001
0000
0010
0000
1000
0000
0010
0000
,  // measure 41
1001
0000
0000
0000
0110
0000
0000
0000
0001
0010
0100
0000
1000
0001
0100
0000
,  // measure 42
0001
0000
1000
0000
0010
0100
0000
0010
0000
0000
0000
0000
0010
1000
0000
0000
,  // measure 43
0001
0100
0001
0100
0001
0000
0010
0000
0100
1000
0100
1000
0100
0000
0010
0000
,  // measure 44
0001
0010
0001
0000
0100
1000
0100
0000
0010
0000
0001
0000
0010
0000
0200
0000
,  // measure 45
0000
0000
0000
0300
,  // measure 46
0000
0000
0000
0000
,  // measure 47
0000
0000
0000
0000
,  // measure 48
0000
0000
0000
0000
0001
1000
0100
0010
,  // measure 49
0001
0100
0101
1010
,  // measure 50
0000
2000
3001
0000
,  // measure 51
0002
1003
0000
0000
,  // measure 52
0110
1001
0110
1001
,  // measure 53
0000
0000
1000
0100
0001
1000
0010
0001
,  // measure 54
0100
1001
0000
0000
,  // measure 55
0000
0001
0001
0002
,  // measure 56
0013
0100
1000
0001
0100
0000
1000
0000
,  // measure 57
1000
0000
2000
0000
3010
0100
0001
1000
,  // measure 58
0100
0010
0001
1000
0010
0100
0001
1000
,  // measure 59
0100
0010
0001
0100
0010
1000
0001
0010
,  // measure 60
0100
1000
0010
0100
0001
1000
0100
0010
,  // measure 61
0002
0000
0000
0000
0000
0013
0100
1000
,  // measure 62
0010
0000
0000
0000
0100
0000
0000
0000
0001
0000
0000
0000
1000
0000
0000
0000
0100
0000
0000
0000
0010
0000
0000
0000
0001
0000
0000
1000
0001
0000
0000
0000
,  // measure 63
1000
0010
0001
0010
1000
0100
0001
0100
,  // measure 64
1000
0010
0100
0001
1000
0100
0010
0001
,  // measure 65
2000
0000
0000
0000
0000
3010
0100
0010
,  // measure 66
1000
0001
0010
1000
0001
0100
1000
0000
,  // measure 67
0110
0000
1001
0000
,  // measure 68
0001
0010
0100
1000
0010
0000
0100
0000
0001
0100
0010
1000
0001
0000
0000
0000
,  // measure 69
0000
0000
1001
0110
,  // measure 70
1001
0000
0000
1000
0100
0000
0010
0000
0001
0000
1000
0000
0010
0100
0000
0001
,  // measure 71
0000
0000
0000
0000
0010
1000
0000
0000
0001
0010
0001
0010
0001
0000
0010
0000
,  // measure 72
0100
1000
0100
1000
0100
0000
0010
0000
0001
1000
0010
1000
0001
0000
0100
0000
,  // measure 73
1000
0100
0001
0100
1001
0000
0110
0000
,  // measure 74
1000
0100
0010
0000
0001
1000
0010
0000
1000
0000
0001
0000
0100
0010
0000
0100
,  // measure 75
0000
0000
0000
0000
0100
0001
0000
0000
1000
0010
1000
0010
1000
0000
0100
0000
,  // measure 76
0010
0001
0010
0001
0010
0000
0100
0000
1000
0100
1000
0000
0010
0001
0010
0000
,  // measure 77
0100
1000
0100
0010
1001
0000
0110
0000
,  // measure 78
1001
0000
0000
0001
0010
0000
0100
0000
1000
0000
0001
0000
0100
0010
0000
1000
,  // measure 79
0000
0000
0000
0000
0100
0001
0000
0000
1000
0100
0010
0001
0100
0000
0010
0000
,  // measure 80
1000
0010
0100
0001
0010
0000
0100
0000
1000
0001
0100
0001
1000
0000
0010
0000
,  // measure 81
0001
0010
1000
0010
1001
0000
0110
0000
,  // measure 82
0001
0010
0100
1000
0001
0100
0010
0000
1000
0000
0001
0000
0010
0100
0000
0010
,  // measure 83
0000
0000
0000
0000
0100
1000
0000
0000
0001
0100
0010
1000
0100
0000
0010
0000
,  // measure 84
0001
0010
0100
1000
0010
0000
0100
0000
0001
0100
0010
1000
0001
0010
0100
0000
,  // measure 85
0010
0001
1000
0200
0000
0000
0000
0000
,  // measure 86
0000
0000
0000
0000
,  // measure 87
0000
0000
0000
0000
0300
0000
0000
0000
1000
0000
0001
0000
1000
0100
0000
0010
,  // measure 88
0001
0000
1000
0010
0000
0100
0001
0000
1000
0000
0100
0000
0010
0001
0010
0000
,  // measure 89
0100
0000
1000
0000
0001
0000
0100
0000
0001
0000
1000
0000
0001
0010
0000
0100
,  // measure 90
1000
0000
0001
0100
0000
0010
1000
0000
0001
0000
0010
0000
0100
1000
0100
0000
,  // measure 91
1000
0000
0010
0000
0100
0000
0001
0000
1000
0000
0001
0000
1000
0100
0000
0010
,  // measure 92
0001
0000
1000
0010
0000
0100
0001
0000
1000
0000
0100
0000
0010
0001
0000
1000
,  // measure 93
0010
0100
0001
1000
0000
0010
0100
0000
0001
0000
1000
0000
0001
0010
0000
0100
,  // measure 94
1000
0000
0010
0100
0000
0001
1000
0000
0000
0000
0000
0000
0000
0000
0000
0000
;

//---------------dance-double - ----------------
#NOTES:
     dance-double:
     :
     Easy:
     7:
     0.315228,0.317871,0.087457,0.161459,0.000000,291.000000,13.000000,24.000000,0.000000,0.000000,0.000000,0.315228,0.317871,0.087457,0.161459,0.000000,291.000000,13.000000,24.000000,0.000000,0.000000,0.000000:
00000000
00000000
00000000
00000000
,
00000000
00000000
00000000
00000000
,
00000000
00000000
00000000
00000000
,
00000000
00000000
00000000
00000000
,
00000000
00000000
00000000
00000000
,
00010000
10000000
01000000
00010000
,
00001000
00010000
00011000
00000000
,
00000010
00000001
00000010
00000100
,
00001000
00000001
00001000
00000000
,
00000002
00001003
00002000
00003001
,
00001000
00000001
00000100
00001000
,
00020000
00031000
00002000
00013000
,
00200000
00000000
01300000
00000000
,
00020000
10030000
20000000
30010000
,
10000000
00010000
01000000
00100000
,
10000000
10000000
01000000
00010000
,
00002000
00000000
00013000
00000000
,
00001000
00001000
00001000
00001000
,
00000010
00000010
00000010
00000010
,
00000001
00000001
00000001
00000001
,
00001000
00000001
00001001
00000000
,
00000002
00001003
00002000
00003001
,
00001000
00000001
00000100
00001000
,
00020000
00031000
00002000
00013000
,
00200000
00000000
01300000
00000000
,
00020000
10030000
20000000
30010000
,
10000000
00010000
01000000
00100000
,
10000000
10000000
01000000
00010000
,
00002000
00000000
00013000
00000000
,
00002000
00000000
00003010
00000010
,
00000001
00001000
00000010
00000100
,
00000001
00000001
00000100
00000100
,
00001000
00010000
00001000
00000000
,
00020000
00000000
00130000
00100000
,
10000000
00010000
01000000
00100000
,
10010000
00000000
00100000
00000000
,
10010000
00000000
00000000
00000000
,
00010000
10000000
01000000
01000000
,
00100000
00001000
00010000
00000000
,
00001000
00001000
00000010
00000010
,
00000001
00001000
00000010
00000010
,
00001000
00000001
00000100
00000100
,
00000010
00010000
00001000
00000000
,
00010000
00010000
00100000
00100000
,
10000000
10000000
00010000
00010000
,
20020000
00000000
00000000
30030000
,
00000000
00000000
00000000
00000000
,
00000000
00000000
00000000
00000000
,
00000000
00000000
00000000
00000000
,
10000000
00000000
10000000
01000000
,
00000000
01000000
00010000
00000000
,
00010000
00001000
00000000
00001000
,
00000010
00000001
00000010
00000100
,
00000000
00000100
00001000
00000001
,
00001000
00001001
00000000
00000000
,
00000000
00000001
00000001
00000001
,
00000100
00001000
00010000
00001000
,
00001000
00001000
00010000
00100000
,
10000000
10000000
10000000
01000000
,
01000000
01000000
00010000
00010000
,
00010000
00001000
00001000
00001000
,
00002000
00000000
00003010
00000010
,
00000001
00001000
00000010
00000100
,
00000001
00000001
00000100
00000100
,
00001000
00010000
00001000
00000000
,
00020000
00000000
00130000
00100000
,
10000000
00010000
01000000
00100000
,
10010000
00000000
00100000
00000000
,
10010000
00000000
00000000
00000000
,
00000000
00000000
00010000
10000000
,
01000000
01000000
00100000
00001000
,
00010000
00000000
00001000
00001000
,
00000010
00000010
00000001
00001000
,
00000010
00000010
00001000
00000001
,
00000100
00000100
00000010
00010000
,
00001000
00000000
00010000
00010000
,
00100000
00100000
10000000
10000000
,
00010000
00010000
00010000
10000000
,
01000000
01000000
00100000
00001000
,
00010000
00000000
00001000
00001000
,
00000010
00000010
00000001
00001000
,
00000010
00000010
00001000
00000001
,
00000100
00000100
00000010
00010000
,
00001000
00000000
00010000
00010000
,
00100000
00100000
10000000
10000000
,
00010000
00010000
20020000
00000000
,
00000000
00000000
30030000
00000000
,
00000000
00000000
00010000
10000000
,
01000000
00010000
00001000
00010000
,
00011000
00000000
00000010
00000001
,
00000010
00000100
00001000
00000001
,
00001000
00000000
00001000
00000001
,
00000100
00001000
00010000
00001000
,
00011000
00000000
00010000
00001000
,
00010000
00011000
00011000
00000000
;

//---------------dance-double - ----------------
#NOTES:
     dance-double:
     :
     Medium:
     10:
     0.428634,0.412686,0.107639,0.201823,0.000000,400.000000,16.000000,30.000000,0.000000,0.000000,0.000000,0.428634,0.412686,0.107639,0.201823,0.000000,400.000000,16.000000,30.000000,0.000000,0.000000,0.000000:
00000000
00000000
00000000
00000000
,
00000000
00000000
00000000
00000000
,
00000000
00000000
00000000
00000000
,
00000000
00000000
00000000
00000000
,
00000000
00000000
00000000
00000000
,
10000000
00010000
01000000
00000000
00100000
00000000
00100000
00000000
,
10000000
01000000
00010000
00000000
01000000
00010000
00001000
00000000
,
00000010
00000001
00001000
00000000
00000010
00000000
00000010
00000000
,
00000100
00001000
00010000
00000000
00001000
00010000
00100000
00000000
,
10000000
00100000
01000000
00000000
00010000
00000000
01000000
00000000
,
00100000
10000000
01000000
00000000
00010000
00001000
00010000
00000000
,
00001000
00001000
00000010
00000010
,
00000001
00001000
00000100
00000000
00000010
00000001
00001000
00000000
,
00000002
00000103
00000200
00001300
,
00010000
00001000
00010000
00000000
00100000
01000000
00100000
00000000
,
10000000
00010000
10000000
00000000
01000000
00100000
01000000
00000000
,
20020000
00000000
30030000
00000000
,
10000000
00000000
10000000
00000000
10000000
00000000
10000000
01000000
,
00010000
00010000
00001000
00010000
,
00001000
00000000
00001000
00000000
00001000
00000000
00001000
00000010
,
00000001
00000001
00000110
00001001
,
00000001
00000010
00000100
00000000
00001000
00000000
00000001
00000000
,
00000010
00000001
00000100
00000000
00001000
00010000
00001000
00000000
,
00010000
00010000
00100000
00100000
,
10000000
00010000
01000000
00000000
00100000
10000000
00010000
00000000
,
20000000
31000000
02000000
03010000
,
00001000
00010000
00001000
00000000
00000010
00000100
00000010
00000000
,
00000001
00001000
00000001
00000000
00000100
00000010
00000100
00000000
,
00002002
00000000
00003003
00000000
,
00000002
00000100
00000103
00001000
,
00010000
00001000
00010000
00000000
00001000
00000000
00010000
00000000
,
00100000
10000000
00100000
00000000
01000000
00010000
01000000
00000000
,
00010000
10000000
00010000
10000000
01000000
00000000
01000000
00000000
,
20000000
01000000
31000000
00010000
,
00001000
00010000
00001000
00010000
00001000
00000000
00011000
00000000
,
00000010
00000000
00000100
00000000
,
00002002
00000000
00000000
00003003
,
00000001
00000000
00001000
00000000
00000010
00000100
00000010
00000000
,
00001000
00000001
00000100
00000000
00002000
00000000
00013000
00000000
,
00001000
00010000
00100000
00000000
10000000
00010000
01000000
00000000
,
00010000
10000000
01000000
00000000
00010000
00000000
00011000
00000000
,
00010000
00000000
00001000
00000000
00000010
00000001
00001000
00000000
,
00000001
00000100
00001000
00000000
00020000
00000000
00031000
00000000
,
00010000
00010000
00100000
00100000
,
01000000
00100000
01000000
00100000
10000000
00010000
10000000
00000000
,
20020000
00000000
00000000
30030000
,
00000000
00000000
00000000
00000000
,
00000000
00000000
00000000
00000000
,
00000000
00000000
10000000
10000000
,
10000000
01000000
00010000
01000000
,
00010000
00001000
00010000
00001000
,
00000010
00001000
00000010
00000001
,
00002000
00000001
00003001
00001001
,
00000000
00000002
00000103
00001000
,
00010000
00022000
00033000
00000000
,
00000000
00100000
00100000
00100000
,
10000000
00010000
10000000
00000000
01000000
00000000
00100000
00000000
,
00100000
00000000
00100000
00000000
00010000
10000000
00010000
00000000
,
10000000
01000000
00010000
00001000
,
00000010
00000001
00000001
00000100
,
00001000
00010000
00100000
10000000
,
20000000
01000000
31000000
00010000
,
00001000
00010000
00001000
00000000
00010000
00000000
00001000
00000000
,
00000010
00000001
00000010
00000000
00000100
00001000
00000100
00000000
,
00001000
00000001
00001000
00000001
00000100
00000000
00000100
00000000
,
00000002
00000100
00000103
00001000
,
00010000
00001000
00010000
00001000
00010000
00000000
00011000
00000000
,
00100000
00000000
01000000
00000000
,
20020000
00000000
00000000
30030000
,
00000000
00000000
10000000
00010000
,
00100000
01000000
00100000
00000000
00010000
10000000
01000000
00000000
,
00020000
00000000
00031000
00000000
00010000
00001000
00000010
00000000
,
00000001
00001000
00000100
00000000
00001000
00000001
00000100
00000000
,
00001000
00011000
00001000
00010000
,
00100000
10000000
00010000
00000000
10000000
01000000
00010000
00000000
,
00002000
00013000
00001000
00001000
,
00000010
00000000
00000010
00000000
00000100
00000010
00000100
00000010
,
00000001
00001000
00000001
00000000
00000001
00000000
00001000
00000000
,
00000010
00000100
00000010
00000000
00001000
00000001
00000100
00000000
,
00002000
00000000
00013000
00000000
00001000
00010000
00100000
00000000
,
10000000
00010000
01000000
00000000
00010000
10000000
01000000
00000000
,
00010000
00011000
00010000
00001000
,
00000010
00000001
00001000
00000000
00000001
00000100
00001000
00000000
,
00020000
00031000
00010000
00010000
,
00100000
00000000
00100000
00000000
01000000
00100000
01000000
00100000
,
10000000
00010000
10000000
00000000
20020000
00000000
00000000
00000000
,
00000000
00000000
30030000
00000000
,
00000000
00000000
00000000
00000000
00100000
10000000
00010000
00000000
,
00100000
00000000
00100000
00000000
01000000
00010000
00001000
00000000
,
00010000
00001000
00000010
00000000
00000001
00001000
00000100
00000000
,
00000010
00000000
00000010
00000000
00000001
00000100
00001000
00000000
,
00000100
00001000
00010000
00000000
00100000
10000000
00010000
00000000
,
00100000
00000000
00100000
00000000
01000000
00010000
00001000
00000000
,
00010000
00001000
00000010
00000000
00000001
00000100
00000010
00001000
,
00000100
00010000
00000000
00011000
00000000
00000000
00000000
00000000
;

//---------------dance-double - ----------------
#NOTES:
     dance-double:
     :
     Hard:
     12:
     0.531468,0.507922,0.121094,0.228733,0.047092,501.000000,18.000000,34.000000,0.000000,0.000000,0.000000,0.531468,0.507922,0.121094,0.228733,0.047092,501.000000,18.000000,34.000000,0.000000,0.000000,0.000000:
00000000
00000000
00000000
00000000
,
00000000
00000000
00000000
00000000
,
00000000
00000000
00000000
00000000
,
00000000
00000000
00000000
00000000
,
00000000
00000000
00000000
00000000
,
00010000
10000000
00100000
01000000
00010000
10000000
00100000
00000000
,
10000000
01000000
00010000
00000000
00001000
00000010
00000001
00000000
,
00001000
00000001
00000100
00000010
00001000
00000001
00000010
00000000
,
00000001
00000100
00001000
00000000
00010000
00100000
10000000
00000000
,
10000000
00000000
00000000
10000000
00000000
00000000
00010000
00000000
00000000
00010000
00000000
00000000
01000000
00000000
01000000
00000000
,
00100000
10000000
01000000
00010000
00001000
00020000
00000000
00031000
,
00000010
00000100
00001000
00000100
00000001
00000100
00001000
00000000
,
00000001
00000010
00001000
00010000
00001000
00010000
01000000
00000000
,
20000000
01000000
31000000
00000000
02000000
00100000
03100000
00000000
,
00100000
00001000
00010000
00001000
00000100
00000010
00000100
00000000
,
00000001
00001000
00000010
00000100
00000001
00001000
00000001
00000200
,
00000020
00000000
00000000
00000330
,
00000001
00000000
00000000
00000001
00000100
00000000
00000000
00000100
00001000
00000000
00000000
00001000
00010000
00000000
00001000
00000000
,
00010000
00000000
00000000
00010000
00100000
00000000
00000000
00100000
10000000
00000000
00010000
00000000
10000000
00000000
00000000
00000000
,
01000000
00000000
00000000
01000000
00010000
00000000
00000000
00010000
00001000
00000000
00000000
00001000
00010000
00000000
00001000
00000000
,
00010000
00000000
00000000
00010000
00001000
00000000
00000000
00001000
00000020
00000000
00000001
00000000
00000031
00000000
00000000
00000000
,
00000001
00000100
00001000
00000100
00000001
00000100
00000010
00001000
,
00000001
00000100
00000010
00000000
00001000
00000100
00010000
00000000
,
00001000
00010000
00001000
00010000
01000000
10000000
00100000
00000000
,
10000000
01000000
00010000
01000000
10000000
01000000
00010000
00000000
,
01000000
00010000
00001000
00000000
00010000
00001000
00000010
00000000
,
00001000
00000010
00000001
00000000
00001000
00000100
00000001
00000000
,
00000100
00001000
00000100
00001000
00000001
00000010
00000001
00002000
,
00000002
00000000
00000000
00003003
,
00000002
00000000
00000000
00000000
00000000
00000103
00000010
00010000
,
00001000
00010000
00100000
00000000
01000000
00010000
10000000
00000000
,
01000000
00010000
01000000
10000000
00100000
00010000
00100000
10000000
,
00010000
00010000
01000000
01000000
00100000
10000000
00010000
00000000
,
20000000
00000000
00000000
00000000
00000000
31000000
00010000
00001000
,
00000010
00001000
00010000
00100000
00010000
00001000
00010000
00000000
,
00011000
00000000
00000110
00000000
,
00000001
00001000
00000010
00000100
00000001
00001000
00000001
00000000
,
00002000
00000000
00003002
00000000
00001003
00000010
00000100
00000001
,
00000100
00001000
00010000
00100000
10000000
00000000
10010000
00000000
,
10000000
01000000
00010000
01000000
10000000
01000000
00010000
00001000
,
00000100
00000001
00000100
00000000
00000110
00000000
00001001
00000000
,
00000002
00000000
00002003
00000000
00003001
00000010
00001000
00010000
,
00000010
00001000
00010000
01000000
00100000
00000000
10010000
00000000
,
00010000
10000000
01000000
00010000
00001000
00000010
00000001
00001000
,
00000001
00000100
00001000
00010000
00100000
10000000
00010000
20000000
,
00000000
00000000
00000000
30000000
,
00000000
00000000
00000000
00000000
,
00000000
00000000
00000000
00000000
,
00000000
00000000
00000000
00000000
01000000
00100000
01000000
00000000
,
20000000
01000000
31000000
02000000
,
00010000
03010000
00020000
00001000
,
00031000
00002000
00000010
00003010
,
00000001
00000100
00001000
00022000
,
00033000
00010000
00100000
10000000
,
00010000
20020000
30030000
00000000
,
00000000
10000000
01000000
00010000
,
00001000
00000010
00000001
00000001
,
00000100
00001000
00010000
00100000
,
10000000
01000000
00010000
00000000
00001000
00000000
00010000
00001000
,
00000010
00000000
00000001
00000000
00000001
00000100
00001000
00000000
,
00010000
00000000
00001000
00010000
00100000
10000000
00010000
00000000
,
20000000
00000000
00000000
00000000
00000000
31000000
00100000
00001000
,
00010000
00001000
00000010
00000000
00000100
00001000
00000001
00000000
,
00000010
00000001
00000010
00000001
00001000
00000100
00001000
00000100
,
00000010
00000010
00000001
00000001
00001000
00000100
00001000
00000000
,
00000002
00000000
00000000
00000000
00000000
00000103
00001000
00010000
,
00100000
00010000
00001000
00000010
00001000
00010000
00001000
00000000
,
00011000
00000000
01100000
00000000
,
10000000
00010000
00100000
01000000
10000000
00010000
10000000
00000000
,
00000000
00000000
00020000
20030000
,
30010000
00100000
01000000
10000000
01000000
00010000
00001000
00000010
,
00000001
00000000
00001001
00000000
00000001
00000100
00001000
00000100
,
00000001
00000100
00001000
00010000
01000000
10000000
01000000
00000000
,
01100000
10010000
20000000
30020000
,
10030000
00100000
00010000
00001000
00100000
00010000
00001000
00000100
,
00000010
00000000
00001001
00000000
00001000
00000001
00000100
00001000
,
00010000
00100000
10000000
00010000
10000000
01000000
00010000
00001000
,
00000010
00000001
00001000
00000001
00002000
00000000
00003002
00000000
,
00001003
00000100
00000010
00000001
00000010
00001000
00010000
01000000
,
10000000
00000000
10010000
00000000
10000000
00100000
00010000
00100000
,
10000000
00100000
00010000
00001000
00000010
00000001
00000010
00001000
,
00000010
00001001
00000002
00002003
,
00003001
00000100
00001000
00010000
00000100
00001000
00010000
00100000
,
01000000
00000000
10010000
00000000
00010000
10000000
00100000
00010000
,
00001000
00000100
00000001
00001000
00000001
00000010
00001000
00010000
,
01000000
10000000
00010000
20000000
00000000
00000000
00000000
00000000
,
00000000
00000000
00000000
00000000
,
00000000
00000000
30000000
00000000
00010000
10000000
00100000
01000000
,
00010000
10000000
00100000
00000000
10000000
01000000
00010000
00000000
,
00001000
00000010
00000001
00000000
00001000
00000001
00000100
00000010
,
00001000
00000001
00000010
00000000
00000001
00000100
00001000
00000000
,
00010000
00100000
10000000
00000000
00010000
10000000
00100000
01000000
,
00010000
10000000
00100000
00000000
10000000
01000000
00010000
00000000
,
00001000
00000000
00000010
00000000
00000001
00000000
00000000
00000000
00000100
00000000
00001000
00000000
00000000
00010000
00000000
00000000
,
00001000
00000000
00000000
00010000
00000000
00000000
00011000
00000000
00000000
00000000
00000000
00000000
00000000
00000000
00000000
00000000
;

//---------------dance-double - ----------------
#NOTES:
     dance-double:
     :
     Challenge:
     14:
     0.644873,0.666647,0.188368,0.100912,0.363282,628.000000,28.000000,15.000000,0.000000,0.000000,0.000000,0.644873,0.666647,0.188368,0.100912,0.363282,628.000000,28.000000,15.000000,0.000000,0.000000,0.000000:
00000000
00000000
00000000
00000000
,
00000000
00000000
00000000
00000000
,
00000000
00000000
00000000
00000000
,
00000000
00000000
00000000
00000000
,
00000000
00000000
00000000
00000000
,
10000000
00000000
00010000
00000000
10000000
01000000
00000000
00100000
00010000
00000000
10000000
00100000
00000000
01000000
00010000
00000000
,
10000000
00000000
01000000
00000000
00010000
00001000
00010000
00000000
00001000
00000000
00000010
00000000
00000001
00000000
00000100
00000000
,
00000001
00000000
00001000
00000000
00000001
00000010
00000000
00000100
00001000
00000000
00000001
00000100
00000000
00000010
00001000
00000000
,
00000001
00000000
00000010
00000000
00001000
00010000
00001000
00000000
00010000
00000000
00100000
00000000
10100000
00000000
00000000
00000000
,
10000000
00010000
00000000
10000000
00010000
00000000
00100000
01000000
00000000
00100000
01000000
00000000
00010000
00000000
01000000
00000000
,
10000000
00100000
01000000
00010000
00100000
00020000
00000000
00031000
,
00000100
00000100
00000010
00001000
00000010
00000010
00000001
00000100
,
00001000
00000100
00000001
00000100
00000010
00001000
00000001
00000100
,
00000001
00001000
00000001
00000000
00000100
00000000
00001000
00000000
00010000
00000000
00100000
00000000
00010000
00000000
00001000
00000000
,
00010000
00001000
00010000
00000000
00001000
00000000
00000010
00000000
00001000
00000000
00010000
00000000
00100000
00000000
10000000
00000000
,
01000000
00100000
01000000
00100000
00010000
10000000
00010000
10000000
,
01000000
00100000
00010000
00100000
00001000
00010000
00001000
00000000
,
00000020
00000001
00000000
00000100
00000000
00000001
00000030
00000001
,
00000200
00001000
00000000
00000010
00000000
00001000
00001300
00000000
,
00002000
00010000
00000000
00000100
00000000
00010000
00003000
00010000
,
00200000
01000000
00000000
00010000
00000000
01000000
01300000
00000000
,
10000000
00100000
00000000
00100000
01000000
00000000
01000000
00010000
00000000
00010000
10000000
00000000
00100000
00000000
00010000
00000000
,
10000000
01000000
00010000
00100000
00010000
00001000
00000100
00000001
,
00000100
00000100
00000010
00000001
00001000
00001000
00000100
00000010
,
00000001
00000100
00001000
00000100
00000001
00000010
00001000
00000010
,
00000001
00000100
00000001
00000000
00000100
00000000
00001000
00000000
00010000
00001000
00010000
00000000
00100000
00000000
10000000
00000000
,
00100000
00100000
01000000
10000000
01000000
01000000
00010000
00100000
,
00010000
01000000
10000000
01000000
00010000
00100000
00001000
00020000
,
00002000
00000000
00000000
00033000
,
00002000
00000000
00000000
00000000
00000000
00003010
00000001
00000100
,
00000001
00000010
00001000
00010000
00100000
10000000
01000000
00100000
,
00010000
01000000
10000000
01000000
00010000
00100000
10000000
00100000
,
00010000
00001000
00000100
00000010
00000001
00000010
00000100
00001000
,
00020000
00000000
00000000
00000000
00000000
00130000
01000000
10000000
,
00100000
00010000
00001000
00000100
00010000
00001000
00000010
00000000
,
00001001
00000000
10010000
00000000
,
10000000
01000000
00100000
00000000
00010000
00000000
00001000
00000000
00000100
00000010
00000001
00000000
00001000
00000000
00000000
00000000
,
00000101
00000000
00000000
00000000
00000110
00000000
00000000
00000000
00001001
00000000
00000000
00000001
00000010
00000000
00001000
00000000
,
00010000
00000000
00001000
00000000
00000100
00000010
00000000
00001000
00000000
00000000
00000000
00000000
00000100
00000001
00000000
00000000
,
00001000
00000100
00001000
00000100
00001000
00000000
00000010
00000000
00010000
00001000
00010000
00001000
00010000
00000000
00100000
00000000
,
10000000
00010000
01000000
00010000
10000000
00000000
00100000
00000000
00010000
00000000
00001000
00000000
00010000
00000000
00100000
00000000
,
10100000
00000000
00000000
00000000
10010000
00000000
00000000
00000000
00010000
00100000
01000000
00010000
10000000
00010000
01000000
00000000
,
00010000
00000000
00001000
00000000
00010000
01000000
00000000
00100000
00000000
00000000
00000000
00000000
00100000
10000000
00000000
00000000
,
00010000
01000000
00010000
01000000
00010000
00000000
00100000
00000000
00001000
00010000
00001000
00010000
00001000
00000000
00000100
00000000
,
00000001
00000010
00000100
00001000
00010000
00100000
01000000
20000000
,
00000000
00000000
00000000
30000000
,
00000000
00000000
00000000
00000000
,
00000000
00000000
00000000
00000000
,
00000000
00000000
00000000
00000000
00010000
10000000
01000000
00010000
,
00001000
00000100
00000101
00001010
,
00000000
00001001
00011000
00000000
,
00011000
10010000
00000000
00000000
,
00010000
10000000
00100000
01100000
,
00000000
00000000
10000000
00100000
00010000
00001000
00000010
00000001
,
00000100
00000101
00000000
00000000
,
00000000
00000001
00000001
00000002
,
00000013
00000100
00001000
00000001
00000100
00000000
00001000
00000000
,
00001000
00000000
00002000
00000000
00013000
00001000
00010000
00100000
,
01000000
00010000
10000000
00100000
01000000
00010000
10000000
01000000
,
00100000
00010000
00001000
00000100
00000010
00000001
00001000
00000010
,
00000100
00000001
00000010
00000100
00001000
00000001
00000100
00001000
,
00020000
00000000
00000000
00000000
00000000
01030000
10000000
00100000
,
10000000
01000000
00010000
00001000
00000100
00000001
00000010
00000100
,
00001000
00000010
00000001
00000010
00001000
00000100
00000001
00000100
,
00001000
00010000
00100000
01000000
10000000
01000000
00100000
00010000
,
00002000
00000000
00000000
00000000
00000000
00003100
00000010
00000001
,
00000100
00001000
00010000
00100000
00001000
00010000
01000000
00000000
,
10010000
00000000
00001001
00000000
,
00000001
00000010
00000100
00000000
00001000
00000000
00010000
00000000
00100000
01000000
10000000
00000000
00010000
00000000
00000000
00000000
,
00000000
00000000
10100000
01100000
,
10010000
00000000
00000000
10000000
01000000
00000000
00010000
00000000
00001000
00000000
00010000
00000000
00100000
01000000
00000000
00010000
,
00000000
00000000
00000000
00000000
00100000
10000000
00000000
00000000
00010000
00100000
00010000
00100000
00010000
00000000
01000000
00000000
,
00001000
00010000
00001000
00010000
00001000
00000000
00000100
00000000
00000001
00001000
00000010
00001000
00000001
00000000
00000100
00000000
,
00001000
00010000
00001000
00000100
00000101
00000000
00001001
00000000
,
00001000
00000100
00000010
00000000
00000001
00001000
00000010
00000000
00001000
00000000
00010000
00000000
00001000
00000010
00000000
00000100
,
00000000
00000000
00000000
00000000
00000100
00000001
00000000
00000000
00001000
00000010
00001000
00000010
00001000
00000000
00000100
00000000
,
00010000
00001000
00010000
00001000
00010000
00000000
00100000
00000000
10000000
00000000
01000000
00000000
00100000
00000000
00010000
00000000
,
00001000
00000100
00000010
00000001
00000101
00000000
00000110
00000000
,
00001001
00000000
00000000
00000001
00000010
00000000
00001000
00000000
00010000
00000000
00001000
00000000
00000100
00000010
00000000
00001000
,
00000000
00000000
00000000
00000000
00001000
00000001
00000000
00000000
00000100
00000010
00001000
00000100
00001000
00000000
00000010
00000000
,
00010000
00001000
00100000
00001000
00010000
00000000
01000000
00000000
10000000
00010000
01000000
00100000
10000000
00000000
00100000
00000000
,
00010000
00001000
00010000
00100000
10100000
00000000
10010000
00000000
,
00010000
00100000
01000000
10000000
00010000
01000000
00100000
00000000
00010000
00000000
00001000
00000000
00010000
00100000
00000000
10000000
,
00000000
00000000
00000000
00000000
00010000
01000000
00000000
00000000
00100000
10000000
00010000
01000000
00010000
00000000
00100000
00000000
,
00001000
00010000
00000100
00010000
00001000
00000000
00000010
00000000
00000001
00000000
00000010
00000000
00000100
00000000
00001000
00000000
,
00010000
00100000
01000000
20000000
00000000
00000000
00000000
00000000
,
00000000
00000000
00000000
00000000
,
00000000
00000000
00000000
00000000
00000000
30000000
00000000
00000000
10000000
00000000
00010000
00000000
10000000
01000000
00000000
00100000
,
00010000
00000000
10000000
00100000
00000000
01000000
00010000
00000000
10000000
00000000
01000000
00000000
00010000
00001000
00010000
00000000
,
00001000
00000000
00000100
00000000
00000001
00000000
00000010
00000000
00000001
00000000
00001000
00000000
00000001
00000010
00000000
00000100
,
00001000
00000000
00000001
00000100
00000000
00000010
00001000
00000000
00000001
00000000
00000010
00000000
00001000
00010000
00001000
00000000
,
00010000
00000000
00100000
00000000
10000000
00000000
01000000
00000000
10000000
00000000
00010000
00000000
10000000
00100000
00000000
01000000
,
00010000
00000000
10000000
01000000
00000000
00100000
00010000
00000000
00001000
00000000
00000100
00000000
00000010
00000001
00000000
00001000
,
00000010
00000100
00000001
00001000
00000000
00000010
00000100
00000000
00000001
00000000
00001000
00000000
00000001
00000010
00000000
00000100
,
00001000
00000000
00000010
00000100
00000000
00001000
00010000
00000000
00000000
00000000
00000000
00000000
00000000
00000000
00000000
00000000
;

//---------------dance-single - Extreme----------------
#NOTES:
     dance-single:
     :
     Edit:
     16:
     0.987011,0.924266,0.343099,0.100912,1.000000,961.000000,51.000000,15.000000,0.000000,0.000000,0.000000,0.987011,0.924266,0.343099,0.100912,1.000000,961.000000,51.000000,15.000000,0.000000,0.000000,0.000000:
// measure 0
0000
0000
0000
0000
,  // measure 1
0000
0000
0000
0000
,  // measure 2
0000
0000
0000
0000
,  // measure 3
0000
0000
0000
0000
,  // measure 4
0000
0000
0000
0000
,  // measure 5
0001
0000
1000
0000
0010
0100
0000
0001
0100
0000
0010
1000
0000
0100
1000
0000
,  // measure 6
0001
0000
0010
0000
0001
0100
0010
0000
1000
0100
1000
0100
0010
0001
0010
0001
,  // measure 7
0100
0000
0010
1000
0000
1000
0000
0001
0100
0000
0010
1000
0000
0100
1000
0000
,  // measure 8
0001
0000
0010
0000
0001
1000
0010
0000
0100
0001
0100
0001
1000
0010
1000
0010
,  // measure 9
0100
0001
0100
0001
0100
0000
0010
1000
0000
1000
0010
0000
0100
0001
0000
0001
,  // measure 10
0010
0100
0000
1000
0010
0000
0100
0001
0010
0001
1000
0001
0100
0000
0010
1000
,  // measure 11
0100
0000
0110
0000
0011
0000
0001
0100
0000
1000
0100
0001
0100
1000
0010
0000
,  // measure 12
0100
0000
0001
0000
0010
0100
1000
0100
0010
0000
0011
0000
0001
0100
1000
0100
,  // measure 13
0001
0010
0100
1000
0100
0010
0001
0100
0010
1000
0010
0100
0001
0010
0100
1000
,  // measure 14
0001
0010
0100
1000
0001
0010
0001
0100
0010
0000
1000
0000
0010
0100
0001
1000
,  // measure 15
0010
0000
0100
0000
0001
0010
0001
0000
1000
0000
0100
0000
0001
0100
0001
0000
,  // measure 16
0100
0000
1000
0010
1000
0000
0010
0001
0010
1000
0010
0000
0001
0010
0000
1000
,  // measure 17
0001
0000
0010
0000
0100
1000
0100
1000
0100
1000
0001
1000
0001
0000
0010
0000
,  // measure 18
0100
0010
0001
0000
1000
0010
0100
0000
0001
0010
0001
0000
0100
0010
1000
0010
,  // measure 19
0100
0001
0010
0100
1000
0000
0001
0000
0010
0001
1000
0100
0010
0001
1000
0100
,  // measure 20
0010
0000
0001
0000
0100
0010
0100
0000
0001
0010
1000
0010
0001
0100
0001
0000
,  // measure 21
1000
0010
0000
0010
0100
0000
0001
1000
0000
1000
0010
0100
0010
1000
0001
0010
,  // measure 22
0100
0000
0100
0000
1001
0000
1000
0100
0010
0001
0100
0000
0010
1000
0100
1000
,  // measure 23
0001
0010
0001
0100
0010
0000
1000
0001
0100
0000
0001
0100
0010
0100
0000
0001
,  // measure 24
1000
0000
0010
1000
0010
0000
0100
0001
0100
0000
0001
0010
0001
1000
0010
0000
,  // measure 25
0110
0000
0100
0001
0010
0100
1000
0000
0001
0100
0010
0000
1000
0010
0100
0001
,  // measure 26
0010
0000
0001
1000
0010
1000
0100
0000
0010
0000
0001
0000
0100
0010
1000
0010
,  // measure 27
0100
0000
0001
0000
0010
0000
0100
1000
0001
0000
1000
0000
0010
0100
0001
0100
,  // measure 28
0020
1000
0000
0000
1000
0001
0000
0000
0001
1000
0000
0000
1000
0000
0000
0000
,  // measure 29
0230
0000
0000
0000
0000
0000
0000
0000
0000
0000
0301
0000
0010
0000
1000
0010
,  // measure 30
0000
0000
0000
0000
0001
0000
0000
0000
0100
0000
0000
0000
0010
0000
1000
0000
0000
0000
0001
0000
1000
0000
0001
0000
0100
0000
0000
0001
1000
0000
0000
0000
,  // measure 31
0010
0000
0100
0000
0100
0000
0001
1000
0001
0000
1000
0010
1000
0010
0100
0001
,  // measure 32
0010
0100
1000
0001
0100
0001
0010
0100
2000
0000
0001
0000
3100
0010
0100
0010
,  // measure 33
0002
0000
0000
0000
0000
0000
0000
0000
1003
0000
0010
0100
0001
0000
0100
0010
,  // measure 34
1000
0010
0100
0001
0010
0100
1000
0001
0010
0000
0001
0000
1000
0000
0000
0000
,  // measure 35
0001
0010
1000
0010
0001
0100
1000
1000
0100
0001
0001
0010
,  // measure 36
0100
1000
0001
1000
0010
0100
0001
0010
0001
1000
0010
0100
0002
0000
0003
0000
,  // measure 37
1001
0000
0000
0000
1010
0000
0000
0010
0100
0000
0001
0100
0001
0000
1000
0000
,  // measure 38
0010
1000
0010
0000
1000
0001
0010
0001
0100
0000
0010
0000
1000
0000
0010
0000
,  // measure 39
0100
0001
0100
0001
0010
0100
0000
1000
0010
1000
0010
0100
0001
0000
0010
1000
,  // measure 40
0010
0001
0000
0100
0000
0010
1000
0010
0100
0000
0100
0000
1001
0000
1001
0000
,  // measure 41
0110
0000
0000
0000
0110
0000
0000
0010
1000
0100
0010
0001
1000
0001
1000
0010
,  // measure 42
0100
0000
0001
0000
0010
0001
0000
2002
0000
0000
3003
0000
0010
0100
0001
0100
,  // measure 43
0010
1000
0100
0010
0001
0000
1000
0010
1000
0000
0100
0010
0100
0010
0001
0010
,  // measure 44
0001
1000
0001
1000
0010
0000
1000
0100
0010
0000
0100
0000
0010
0000
0001
0000
,  // measure 45
2002
0000
0000
0000
0000
0000
0000
0000
3003
0000
1000
0010
1000
0010
0100
0000
,  // measure 46
0101
0011
1010
0011
,  // measure 47
0101
0110
1010
1100
,  // measure 48
0110
0000
0011
0000
0001
0010
0100
1000
,  // measure 49
0001
1001
1001
1010
,  // measure 50
1010
0120
0230
0301
,  // measure 51
0011
0000
1001
0000
1000
0100
0010
0001
,  // measure 52
1000
1010
0110
0101
,  // measure 53
0011
0000
0010
0100
1000
0001
0010
0100
,  // measure 54
1000
0000
0000
0000
0001
0100
0001
0000
1000
0010
1000
0000
0010
0100
0010
0000
,  // measure 55
0100
0000
0001
0000
0010
0000
0100
0000
1000
0000
0001
0010
0002
0000
0000
0000
,  // measure 56
0103
0000
0010
0000
1000
0000
0010
0000
0100
0000
0001
0000
0010
0100
0010
0000
,  // measure 57
0100
1000
0100
0000
1000
0001
1000
0000
0001
0000
0010
0000
1000
0010
1000
0010
,  // measure 58
0001
0101
0110
1010
1001
0000
0011
0010
,  // measure 59
0110
0000
0100
0000
1000
0001
1000
0001
1000
0000
0100
0010
0100
0010
0100
0000
,  // measure 60
0001
0000
0010
1000
0010
1000
0010
0000
0001
0000
0100
0000
1000
0000
0001
0000
,  // measure 61
0010
1000
0000
0000
0001
0100
0010
0000
1000
0000
0010
0000
0100
0000
0001
0000
,  // measure 62
0010
0000
0001
0000
0010
0000
0000
0000
0100
0000
0000
0000
1000
0000
0000
0000
0010
0000
0000
0000
1000
0000
0000
0000
0001
0000
0000
1000
0001
0000
0000
0000
,  // measure 63
0100
0000
0000
0010
0100
0000
0000
0010
1000
0000
0000
0000
0001
0000
1000
0000
0001
0000
0000
0000
0100
0000
0010
0000
0100
0000
0001
0000
0010
0000
0100
0000
,  // measure 64
1000
0001
0010
0001
0100
0010
1000
0000
0010
0000
0100
0000
0001
0000
0010
0100
,  // measure 65
0020
0000
0000
0000
0001
1000
0000
0000
1000
0000
0130
0010
0100
1000
0001
0010
,  // measure 66
0001
0100
0010
0100
0001
1000
0010
1000
0100
0000
0010
0000
0001
0010
0001
0010
,  // measure 67
0100
0100
0100
0100
0100
0100
0010
0010
0010
0010
0010
0010
,  // measure 68
1000
0100
1000
0001
0010
0001
0100
0010
0100
0001
0010
0100
2000
0000
0000
0000
,  // measure 69
3001
0010
0001
0100
0010
0100
1000
0000
0101
0000
0000
0000
0011
0000
0000
0010
,  // measure 70
0100
0000
1000
0100
1000
0000
0001
0000
0010
0000
0001
0000
0100
0010
0100
0010
,  // measure 71
1000
0100
1000
0000
0001
0000
0010
0000
0100
0010
0100
0010
0100
0010
0100
0000
,  // measure 72
1000
0001
1000
0001
1000
0000
0001
0100
0001
0100
0000
0010
0000
1000
0100
0010
,  // measure 73
0100
0010
0001
1000
1010
0000
0110
0000
,  // measure 74
0100
0001
0010
0001
1000
0010
1000
0000
0100
0000
0010
0000
0001
1000
0001
1000
,  // measure 75
0010
0000
0100
0000
0001
0010
0001
0000
1000
0100
0010
0100
1000
0001
1000
0000
,  // measure 76
0001
0010
0100
0010
0001
1000
0001
0100
0010
1000
0010
0100
0001
0010
1000
0010
,  // measure 77
0001
0100
1000
0100
0001
0010
0100
0000
1100
0000
0000
0000
1010
0000
0000
0010
,  // measure 78
0100
0000
0001
0100
0010
0000
1000
0000
0100
0010
0001
0000
1000
0001
0010
0001
,  // measure 79
0100
0010
0000
0000
0100
0001
0000
1000
0001
0100
0001
0010
0100
1000
0000
0010
,  // measure 80
0100
0001
0100
0010
1000
0100
0010
0000
0001
0100
0010
0100
0001
1000
0010
1000
,  // measure 81
0100
0110
1001
1001
0011
0000
1100
0000
,  // measure 82
0001
0100
0010
1000
0001
0100
0010
1000
0001
0000
0010
0000
0100
0010
0100
1000
,  // measure 83
0001
0010
0001
0010
0001
0000
1000
0000
0100
0010
0100
0010
0001
0000
1000
0100
,  // measure 84
1000
0100
0010
0001
0010
0001
0100
0000
0010
1000
0010
1000
0010
0000
0100
0001
,  // measure 85
0100
0001
0010
0000
0100
0000
1000
0000
0001
0000
0010
0000
0001
1000
0000
0010
,  // measure 86
1000
0000
0001
0100
0000
0010
0100
0000
0001
0000
1000
0000
0010
1000
0000
0100
,  // measure 87
1000
0001
0010
0001
0100
0010
0100
0000
0001
0000
0010
0000
0100
1000
0000
0001
,  // measure 88
1000
0000
0010
0100
0000
0001
0100
0000
0010
0000
1000
0000
0100
0010
0100
0000
,  // measure 89
0010
0001
0010
0001
1000
0001
1000
0000
0001
0000
0100
0000
0010
1000
0000
0100
,  // measure 90
0010
0000
0001
0100
0000
1000
0100
0000
0001
0000
0010
0000
0100
1000
0100
0000
,  // measure 91
0010
0001
0010
0001
0100
0010
0100
0000
0010
0000
1000
0000
0001
1000
0000
0001
,  // measure 92
0100
0000
0010
1000
0000
0001
1000
0000
0010
0000
0100
0000
0001
0010
0000
0100
,  // measure 93
1000
0010
1000
0100
0000
1000
0001
0000
0100
0000
0010
0000
0100
0001
0000
0010
,  // measure 94
0001
1000
0001
1000
0000
0100
0020
0000
0000
0000
0000
0000
0030
0000
0000
0000
;
