#TITLE:Nostalgia Is Lost;
#SUBTITLE:;
#ARTIST:U1 overground;
#TITLETRANSLIT:;
#SUBTITLETRANSLIT:;
#ARTISTTRANSLIT:;
#GENRE:;
#CREDIT:;
#BANNER:Nostalgia Is Lost.png;
#BACKGROUND:Nostalgia Is Lost-bg.png;
#LYRICSPATH:;
#CDTITLE:;
#MUSIC:Nostalgia Is Lost.ogg;
#OFFSET:0.000000;
#SAMPLESTART:47.376957;
#SAMPLELENGTH:15.000000;
#SELECTABLE:YES;
#BPMS:0.000000=172.298996
;
#STOPS:
;
#BGCHANGES:;
#KEYSOUNDS:;
#ATTACKS:;

//---------------dance-single - ----------------
#NOTES:
     dance-single:
     :
     Beginner:
     3:
     0.144250,0.274526,0.007889,0.047332,0.000000,128.000000,127.000000,1.000000,6.000000,0.000000,0.000000,0.144250,0.274526,0.007889,0.047332,0.000000,128.000000,127.000000,1.000000,6.000000,0.000000,0.000000:
0000
0000
0000
0000
,
0000
0000
0000
0000
,
0000
0000
0000
0000
,
0000
0000
0000
0000
,
0000
0000
0000
0000
,
1000
0000
0000
0000
,
0001
0000
0000
0000
,
0100
0100
0100
0000
,
0100
0000
0000
0000
,
0001
0000
0001
0000
,
0001
0000
0000
0000
,
1000
0000
1000
0000
,
1000
0000
0000
0000
,
0100
0000
0100
0000
,
0100
0000
0000
0000
,
0010
0000
0010
0000
,
0010
0000
0000
0000
,
0001
0000
0002
0000
,
0000
0000
0003
0000
,
1000
0000
2000
0000
,
0000
0000
3000
0000
,
0010
0000
0020
0000
,
0000
0000
0030
0000
,
0100
0000
0100
0000
,
0100
0000
0000
0000
,
1000
0000
0000
0000
,
1000
0000
1000
0000
,
0001
0000
0000
0000
,
0001
0000
0001
0000
,
0100
0000
0000
0000
,
0100
0000
0100
0000
,
0001
0000
0000
0000
,
1000
0000
0000
0000
,
0000
0000
0000
0000
,
0001
0000
0001
0000
,
0001
0000
0000
0000
,
0100
0100
0100
0000
,
0100
0100
0100
0000
,
1000
0000
1000
0000
,
1000
0000
0000
0000
,
0100
0100
0100
0000
,
0100
0100
0100
0000
,
0001
0000
0000
0000
,
0000
0000
0000
0000
,
1000
0000
0000
0000
,
0000
0000
0000
0000
,
0100
0000
0000
0000
,
0100
0000
0000
0000
,
0010
0000
0000
0000
,
0010
0000
0000
0000
,
0001
0000
0000
0000
,
1000
0000
0000
0000
,
0001
0001
0001
0000
,
0000
0000
1000
1000
,
1000
0000
0000
0000
,
0100
0000
0100
0000
,
0001
0001
0001
0000
,
0000
0000
1000
1000
,
1000
0000
0000
0000
,
0100
0000
0100
0000
,
0010
0000
0010
0000
,
0100
0000
0100
0000
,
0000
0000
0000
0000
,
0001
0000
0001
0000
,
0001
0000
0000
0000
,
0100
0000
0100
0000
,
0100
0000
0000
0000
,
1000
0000
1000
0000
,
1000
0000
0000
0000
,
0100
0000
0100
0000
,
0100
0000
0000
0000
,
0010
0000
0020
0000
,
0000
0000
0030
0000
,
0001
0000
0002
0000
,
0000
0000
0003
0000
,
1000
0000
2000
0000
,
0000
0000
3000
0000
,
0100
0000
0100
0000
,
0100
0000
0000
0000
,
0001
0000
0001
0000
,
0001
0001
0001
0000
,
0010
0000
0010
0000
,
0010
0010
0010
0000
,
0100
0000
0100
0000
,
0100
0100
0100
0000
,
1000
1000
1000
0000
,
1000
1000
1000
0000
,
1001
0000
0000
0000
,
0000
0000
0000
0000
;

//---------------dance-single - ----------------
#NOTES:
     dance-single:
     :
     Easy:
     7:
     0.295262,0.411789,0.173551,0.157773,0.000000,262.000000,240.000000,22.000000,20.000000,0.000000,0.000000,0.295262,0.411789,0.173551,0.157773,0.000000,262.000000,240.000000,22.000000,20.000000,0.000000,0.000000:
0000
0000
0000
0000
,
0000
0000
0000
0000
,
0000
0000
0000
0000
,
0000
0000
0000
0000
,
0000
0000
0000
0000
,
0020
0000
0000
0030
,
2000
0000
0000
3000
,
0001
0001
1000
0010
,
0100
0000
0000
0000
,
0011
0001
0010
0100
,
1100
1000
0100
0010
,
0011
0001
0010
0100
,
1100
1000
0100
0010
,
0110
1000
0001
0010
,
1000
0001
0100
0010
,
0001
0100
1000
0001
,
0010
1000
0001
0000
,
0001
0001
2000
0000
,
0000
0000
0000
3000
,
0100
0100
0002
0000
,
0000
0000
0000
0003
,
0100
0100
0020
0000
,
0000
0000
0100
0030
,
0002
0003
2000
3000
,
0200
0000
0000
0300
,
0001
1001
0000
0100
,
0010
0000
1000
0000
0001
0100
0001
0000
,
1000
1001
0000
0010
,
0100
0000
0001
0000
1000
0100
1000
0000
,
0001
0010
0110
0001
,
0010
0110
0001
0010
,
0100
0100
0100
0100
,
0000
1000
0000
1000
0000
1000
0000
1000
,
0000
0000
0000
0000
,
0001
0100
0010
1000
,
0100
0001
0010
0100
,
1000
1000
2002
3003
,
0001
0001
2002
3003
,
0100
1000
0001
0100
,
1000
0001
0010
0100
,
1000
1000
0020
0030
,
0100
0100
0100
0000
,
0000
0000
0000
0000
,
0000
0000
0000
0000
,
0000
0000
0000
0000
,
0000
0000
0000
0000
,
0000
0010
0000
0010
,
0000
1000
0000
1000
,
0000
0001
0000
0001
,
0000
0100
0000
0100
,
0000
0001
0000
0010
,
0000
0100
0000
1000
,
1000
0100
0010
1000
,
0100
0010
1000
0100
,
0010
1000
0100
0010
,
1000
0001
0100
0000
,
0001
0010
0100
0001
,
0010
0100
0001
0010
,
0100
0001
0010
0100
,
0001
0100
0010
1000
,
0001
1000
0100
0010
,
0001
1000
0010
0100
,
0000
0000
0000
0000
,
0011
0001
0010
0100
,
1100
1000
0100
0010
,
0011
0001
0010
0100
,
1100
1000
0100
0010
,
0010
0001
0010
0010
,
0100
1000
0100
0100
,
0000
0010
0001
0010
,
0000
0010
1000
0100
,
1000
1000
2002
0000
,
0000
0000
0000
3003
,
0010
0010
0220
0000
,
0000
0000
0000
0330
,
0010
0010
2002
0000
,
0000
0000
0000
3003
,
1000
1000
0001
0100
,
0020
0000
0000
0030
,
1000
0100
1001
0000
,
0100
0000
0001
0000
1000
0010
1000
0000
,
0001
1000
1001
0000
,
0010
0000
1000
0000
0001
0010
0001
0000
,
1000
0010
0110
0000
,
1000
0000
0010
0000
1000
0001
1000
0000
,
0100
0100
0100
0100
,
0010
0000
0010
0000
0010
0010
0010
0000
,
1001
0000
0000
0000
,
0000
0000
0000
0000
;

//---------------dance-single - ----------------
#NOTES:
     dance-single:
     :
     Medium:
     11:
     0.462051,0.617683,0.189328,0.157773,0.031555,410.000000,386.000000,24.000000,20.000000,0.000000,0.000000,0.462051,0.617683,0.189328,0.157773,0.031555,410.000000,386.000000,24.000000,20.000000,0.000000,0.000000:
0000
0000
0000
0000
,
0000
0000
0000
0000
,
0000
0000
0000
0000
,
0000
0000
0000
0000
,
0000
0000
0000
0000
,
2100
0000
3010
0000
,
0102
0000
0013
0000
,
0001
0100
1000
0010
,
0110
0000
0000
0010
,
0011
1001
0010
0100
,
1100
1001
0100
0010
,
0011
1001
0010
0100
,
1100
1001
0100
0010
,
1000
0100
1000
0000
1000
0010
1000
0000
,
1000
0001
1000
0100
0010
0100
1000
0000
,
0001
0100
0001
0000
0001
0100
0010
0000
,
0000
0100
0000
0100
0000
0100
0000
0100
,
0001
0010
0100
1000
0002
0000
0010
0000
,
0000
0010
0000
0013
,
0100
0010
1000
0100
0020
0000
0001
0000
,
0000
0001
0000
0031
,
0100
1000
0010
0100
0020
0000
0100
0000
,
0000
0100
0000
0130
,
1000
0000
1000
0100
0001
0000
0200
0000
,
0000
0010
0000
0310
,
1000
0000
1000
0001
0000
0001
0100
0000
,
0100
0001
0000
0001
1000
0100
0010
0000
,
0001
0000
0001
0100
0000
0100
0010
0000
,
0010
1000
0000
1000
0100
0010
0001
0000
,
1001
0000
0010
0100
1000
0000
0100
0000
,
0010
0100
1000
0000
0100
0000
0010
0100
,
1000
0001
1000
0001
1000
0001
1000
0001
,
0000
0101
0000
0101
0000
0101
0000
0101
,
0000
0000
0000
0000
,
1000
0010
0001
0100
,
1000
0000
0010
0000
0100
0001
1000
0000
,
0100
0000
0010
0000
1000
1000
1000
0000
,
0100
0000
0010
0000
0001
0001
0001
0001
,
0100
0010
1000
0100
,
0001
0010
0100
0000
1000
0100
0010
0000
,
0100
0000
0000
0000
0010
0000
0000
0000
1000
0020
0000
0000
0030
0000
0000
0000
,
0100
0000
0000
0000
0010
0000
0000
0000
1000
0001
1000
0000
0001
0000
0000
0000
,
0200
0000
0300
2000
,
0000
3000
0020
0000
,
0030
0002
0000
0003
,
0200
0000
0010
0310
,
1000
0100
0000
0001
0000
0100
0000
1000
,
0000
0100
0000
0001
0000
0100
0000
1000
,
0000
0010
0000
0001
0000
0010
0000
0100
,
0010
0000
0000
1000
0000
0000
0100
0000
0000
0010
0000
0000
0001
0000
0000
0000
,
0001
0000
0000
0010
0000
0000
0100
0000
0000
1000
0000
0000
0010
0000
0000
0000
,
0010
0000
0000
1000
0000
0000
0100
0000
0000
0010
0000
0000
0001
0000
0000
0000
,
0100
0100
0110
1000
,
1000
1100
0001
0001
,
0101
0010
0010
0110
,
1000
1010
0001
0011
,
0010
0000
0100
0010
0001
0000
0010
0000
,
0100
0010
0001
0000
0010
0000
0100
0010
,
0001
0000
0010
0000
0100
1000
0001
0100
,
0020
0130
0210
1300
,
2000
3010
0002
0013
,
1000
0000
0001
0000
1000
0100
0010
0001
,
0000
0000
0000
0000
,
0010
0001
0100
0000
0010
1000
0100
0000
,
1000
0100
0010
0000
0001
0100
1000
0000
,
0010
0001
0100
0000
0010
1000
0100
0000
,
1000
0100
0010
0000
0001
0100
1000
0000
,
0010
0000
0001
0000
0010
0001
0010
0000
,
0100
0000
1000
0000
0100
1000
0100
0000
,
0010
0000
0010
1000
0100
1000
0100
0000
,
0010
0000
0010
0001
0100
0001
0100
0000
,
0100
0010
1000
0001
2000
0000
0100
0000
,
0001
0010
0001
0100
,
3010
0100
0001
0010
0200
0000
1000
0000
,
0010
0001
0010
1000
,
0310
0001
0100
0010
0200
0000
1000
0000
,
0010
0001
0010
1000
,
0301
0000
0001
0010
1000
0000
0020
0000
,
0001
0100
1000
0130
,
0001
0000
0010
0000
1000
0100
0001
0000
,
0100
1000
0001
1000
0001
0010
0100
0000
,
1000
0000
0010
0000
1000
0010
0001
0000
,
0010
0100
0001
0100
0010
0100
0001
0000
,
1000
0000
0001
0000
0001
0100
1000
0000
,
0100
0001
1000
0100
1000
0100
0010
0001
,
1000
0001
1000
0001
0100
0010
0100
0001
,
0010
0100
1000
0100
0001
0100
1000
0001
,
1001
0000
0000
0000
,
0000
0000
0000
0000
;

//---------------dance-single - ----------------
#NOTES:
     dance-single:
     :
     Hard:
     15:
     0.728012,0.892209,0.370768,0.268215,0.402322,646.000000,599.000000,47.000000,34.000000,0.000000,0.000000,0.728012,0.892209,0.370768,0.268215,0.402322,646.000000,599.000000,47.000000,34.000000,0.000000,0.000000:
// measure 0
0000
0000
0000
0000
,  // measure 1
0000
0000
0000
0000
,  // measure 2
0000
0000
0000
0000
,  // measure 3
0000
0000
0000
0000
,  // measure 4
0000
0000
0000
0000
,  // measure 5
0011
0000
1000
0000
0010
0100
0000
0100
0020
0000
0000
0000
0030
0000
0000
0000
,  // measure 6
1010
0000
0001
0000
0010
0100
0000
0100
0020
0000
0000
0000
0030
0000
0000
0000
,  // measure 7
0001
0000
1000
0000
0100
0000
0000
1000
0001
0000
0000
0000
0011
0000
0000
0000
,  // measure 8
0100
0100
0010
0000
1000
0000
1010
0000
,  // measure 9
0100
0010
0100
0001
0010
0100
0010
0001
,  // measure 10
0100
0000
0010
0000
0100
0000
0001
0000
0010
0100
0001
0100
0010
0000
0001
0000
,  // measure 11
0100
0000
0001
0000
0010
0000
0100
0010
0001
0010
0100
0000
0010
0000
0001
0000
,  // measure 12
0100
0000
0010
0000
0001
0000
0010
0000
0100
0001
0010
0001
0100
0000
0010
0000
,  // measure 13
1000
0100
0010
0100
1000
0010
0100
0010
,  // measure 14
1000
0000
0100
0000
0010
0000
1000
0000
0010
0100
1000
0100
0010
0000
0100
0000
,  // measure 15
1000
0000
0010
0000
0100
0000
1000
0100
0010
0100
1000
0000
0100
0000
0010
0000
,  // measure 16
0000
0110
0000
1010
0000
1100
1000
0100
,  // measure 17
0001
1000
0010
0001
0201
0000
0310
0000
,  // measure 18
1200
0310
0201
0010
,  // measure 19
1300
0001
0010
1000
1200
0000
0310
0000
,  // measure 20
0201
0310
1200
0010
,  // measure 21
0301
1000
0010
0100
2100
0000
3010
0000
,  // measure 22
0102
0013
0110
1100
,  // measure 23
2001
0000
3100
2000
0010
3000
2001
0000
,  // measure 24
0100
0010
0100
3010
,  // measure 25
1000
0000
0100
0000
0010
0000
0200
0000
0000
0000
0310
0100
1000
0000
0100
0000
,  // measure 26
0010
0000
0200
0000
0000
0000
0310
0000
0100
0000
1000
0100
0010
0000
0001
0000
,  // measure 27
0100
0010
0001
0020
0000
0000
0130
0010
,  // measure 28
0001
0000
0010
0100
0010
0000
0100
0000
0001
0010
0100
0010
0001
0000
0010
0000
,  // measure 29
0001
0100
1000
0100
0001
0000
0001
0100
,  // measure 30
1000
0000
0100
0000
0001
1000
0001
1000
0001
0000
0100
0000
1000
0000
0100
0000
,  // measure 31
0001
0100
0001
0000
0100
0010
0100
0000
0010
1000
0010
0000
1000
0001
1000
0000
,  // measure 32
0000
1100
0000
0011
0000
0101
0000
1010
,  // measure 33
0000
0000
0000
0000
,  // measure 34
0010
0001
0100
0000
0010
1000
0100
0000
,  // measure 35
1000
0100
0010
0000
0001
0100
1000
0000
,  // measure 36
1000
0000
0000
0000
0010
0000
0000
0000
1000
0001
0100
0001
0100
0001
0100
0000
,  // measure 37
0001
0000
0000
0000
0010
0000
0000
0000
0001
1000
0100
1000
0100
1000
0100
0000
,  // measure 38
1000
1000
0001
0000
0100
0100
1000
0100
,  // measure 39
0010
0010
0001
0000
0000
0100
1000
0000
,  // measure 40
1000
0000
0000
0000
0001
0000
0000
0000
1000
0010
0100
0010
0100
0000
0000
0000
,  // measure 41
0001
0000
0000
0000
0010
0000
0000
0000
0100
1000
0100
0000
0010
0000
0000
0000
,  // measure 42
0022
0000
0033
2200
,  // measure 43
0000
0000
3300
0000
0110
1000
0100
0010
,  // measure 44
0001
0202
0000
0303
,  // measure 45
2010
0001
0001
3001
,  // measure 46
0001
0100
1000
0100
0001
1000
0001
0100
,  // measure 47
1000
0100
0001
1000
0001
0100
1000
0100
,  // measure 48
0001
1000
0001
0100
1000
0100
0001
1000
,  // measure 49
0001
0000
0000
0110
0000
0000
1000
0000
0000
0001
0000
0000
0110
0000
0000
0100
,  // measure 50
1000
0000
0000
0110
0000
0000
0001
0000
0000
1000
0000
0000
0110
0000
0000
0100
,  // measure 51
0001
0000
0000
0110
0000
0000
1000
0000
0000
0001
0000
0000
0110
0000
0000
1000
,  // measure 52
0001
0010
1000
0010
0001
0000
0001
0010
,  // measure 53
1000
0010
0001
0000
0001
0010
1000
0010
,  // measure 54
0001
0000
0000
0000
0001
0000
0010
0000
1000
0000
0010
0000
0001
1000
0100
0010
,  // measure 55
0001
0100
1000
0100
0001
0010
1000
0010
,  // measure 56
0001
0100
1000
0100
0001
0000
0001
0100
,  // measure 57
1000
0100
0001
0000
0001
0100
1000
0100
,  // measure 58
0001
0000
0001
0010
0001
0100
0010
1000
,  // measure 59
0001
0010
0100
0000
1000
0000
0001
0000
0010
0100
1000
0000
0001
0000
1000
0000
,  // measure 60
1000
0000
0010
0000
0100
0000
0001
0000
1000
0100
0010
0000
0001
0000
1000
0000
,  // measure 61
0001
0000
0010
0100
1000
0000
0001
0000
1000
0100
0010
0000
0001
0000
1000
0000
,  // measure 62
0000
0000
0000
0000
,  // measure 63
1100
0010
0100
1000
0010
0100
0010
1000
,  // measure 64
0100
0000
0010
0000
0100
0000
1000
0000
0010
0100
1000
0100
0010
0000
1000
0000
,  // measure 65
0100
0000
1000
0000
0010
0000
0100
0010
1000
0010
0100
0000
0010
0000
1000
0000
,  // measure 66
0100
0000
0010
0000
1000
0000
0010
0000
0100
1000
0010
1000
0100
0000
0010
0000
,  // measure 67
0001
0000
0100
0000
0010
0000
0100
0000
0001
0010
0100
0010
0001
0000
0100
0000
,  // measure 68
0010
0000
0001
0000
0010
0000
0100
0000
0001
0100
0010
0100
0001
0000
0100
0000
,  // measure 69
0010
0000
0100
0000
0100
0000
0010
0100
0001
0100
0000
0001
0000
0010
0000
0100
,  // measure 70
0010
0000
0100
0000
0001
0000
0100
0000
1000
0100
0010
0001
1000
0100
0010
0000
,  // measure 71
0001
0001
0010
1000
1020
0000
0031
0000
,  // measure 72
0021
1030
1020
0100
,  // measure 73
0031
1000
0010
0001
0021
0000
1030
0000
,  // measure 74
1020
0031
0021
0100
,  // measure 75
1030
0001
0010
1000
1020
0000
0130
0000
,  // measure 76
0021
0130
0110
1001
,  // measure 77
1002
0000
0103
0002
0010
0003
1002
0000
,  // measure 78
0103
0010
1000
0100
0010
0001
0100
0000
,  // measure 79
0010
1000
0010
0000
1000
0100
0000
0010
0100
0000
1000
0010
0000
1000
0100
0000
,  // measure 80
1000
0000
0010
0100
0000
0010
1000
0000
0100
1000
0100
0000
0010
0100
0000
0010
,  // measure 81
0001
0000
0100
0000
0010
0100
0001
0000
0100
0000
0001
0010
0000
0100
0010
0000
,  // measure 82
0001
0100
0010
0000
0100
0000
0001
0010
0001
0000
0100
0000
0010
0000
0100
0001
,  // measure 83
1000
0000
0001
0000
0100
0001
0000
1000
0100
0000
1000
0001
0000
0100
0001
0000
,  // measure 84
1000
0000
0001
0100
0001
0000
1000
0000
0001
0100
0000
1000
0100
0000
0001
0000
,  // measure 85
1000
0100
1000
0000
0100
0010
0100
0000
0010
0001
0010
0000
0001
1000
0001
0000
,  // measure 86
1000
0000
0010
0100
0000
0100
0010
0000
1000
0010
1000
0010
0100
0001
0100
0001
,  // measure 87
1000
0000
0000
0000
;

//---------------dance-double - ----------------
#NOTES:
     dance-double:
     :
     Easy:
     7:
     0.305404,0.411789,0.205106,0.197217,0.000000,271.000000,245.000000,26.000000,25.000000,0.000000,0.000000,0.305404,0.411789,0.205106,0.197217,0.000000,271.000000,245.000000,26.000000,25.000000,0.000000,0.000000:
00000000
00000000
00000000
00000000
,
00000000
00000000
00000000
00000000
,
00000000
00000000
00000000
00000000
,
00000000
00000000
00000000
00000000
,
00000000
00000000
00000000
00000000
,
00000200
00000000
00000000
00000300
,
00002000
00000000
00000000
00003000
,
00010000
00001000
01000000
00010000
,
10000000
00000000
00000000
00000000
,
00110000
00100000
10000000
01000000
,
00010000
00010000
00010000
00010000
,
00001010
00000010
00000001
00000100
,
00001000
00001000
00001000
00001000
,
00011000
00000000
00110000
00000000
,
10000000
01000000
10000000
01000000
,
01010000
00000000
00011000
00000000
,
00000010
00000001
00000010
00000001
,
00000100
00000100
00002000
00000000
,
00000000
00000000
00000000
00003000
,
00100000
00100000
02000000
00000000
,
00000000
00000000
00000000
03000000
,
10000000
10000000
00020000
00000000
,
00000000
00000000
01030000
01000000
,
00100000
00000000
00010000
00000000
,
00002000
00000000
00000000
00003000
,
00010000
00011000
00000000
00000100
,
00001100
00000000
00000010
00000001
,
00000100
00000101
00000000
00001000
,
00011000
00000000
00000000
00000000
00010000
00001000
00010000
00000000
,
01000000
11000000
10000000
01000000
,
00010000
00001000
00000010
00000001
,
00000011
00000001
00000001
00000001
,
00000000
00000100
00000000
00000100
00000000
00000100
00000000
00000100
,
00000000
00000000
00000000
00000000
,
00010000
01000000
00100000
10000000
,
01000000
00100000
00001000
00010000
,
00001000
00001000
00022000
00033000
,
00000100
00000100
00000220
00000330
,
00000001
00001000
00000010
00000100
,
00000001
00000001
00000001
00000001
,
00000100
00000010
00002000
00003000
,
00010000
00010000
00011000
00000000
,
00020000
00000000
00000000
00000000
,
00000000
00000000
00000000
00030000
,
02000000
00000000
00000000
00000000
,
00000000
00000000
00000000
03000000
,
00000000
10000000
00000000
10000000
,
00000000
10000000
00000000
10000000
,
00000000
10000000
00000000
10000000
,
11000000
10000000
10000000
10000000
,
01000000
00010000
00001000
00000100
,
00000001
00000001
00000001
00000001
,
00002000
00000001
00003001
00000200
,
00000010
00000310
00002000
00000100
,
00003100
00020000
00001000
00031000
,
00100000
00010000
01000000
00000000
,
00020000
10000000
10030000
02000000
,
00100000
03100000
00002000
00100000
,
00103000
00002000
00010000
00013000
,
00000100
00000100
00000010
00000010
,
00000001
00000001
00000100
00000100
,
00001000
00010000
00100000
10000000
,
00000000
00000000
00000000
00000000
,
01010000
01000000
10000000
00100000
,
00010000
00010000
00010000
00010000
,
00001100
00000100
00000001
00000010
,
00001000
00001000
00001000
00001000
,
00011000
00010000
00001000
00100000
,
10000000
00100000
10000000
00100000
,
00110000
00000000
00011000
00000000
,
00000100
00000001
00000100
00000001
,
00000010
00000010
00002000
00000000
,
00000000
00000000
00000000
00003000
,
01000000
01000000
00200000
00000000
,
00000000
00000000
00000000
00300000
,
10000000
10000000
00020000
00000000
,
00000000
00000000
00130000
00100000
,
00001000
00000000
00000100
00000000
,
00000002
00000000
00000000
00000003
,
00001000
00000000
00000001
00000000
00000010
00000010
00000010
00000000
,
00000001
00000100
00001000
00010000
,
00011000
00100000
10000000
11000000
,
01000000
00000000
10000000
00000000
00010000
00010000
00010000
00000000
,
00100000
01000000
00010000
00001000
,
00011000
00000100
00000001
00000101
,
00000001
00000000
00000001
00000000
00000001
00000001
00000001
00000000
,
00000001
00000100
00001000
00010000
,
00011000
00000000
00000000
00000000
,
00000000
00000000
00000000
00000000
;

//---------------dance-double - ----------------
#NOTES:
     dance-double:
     :
     Medium:
     11:
     0.458670,0.583367,0.283992,0.276104,0.027610,407.000000,371.000000,36.000000,35.000000,0.000000,0.000000,0.458670,0.583367,0.283992,0.276104,0.027610,407.000000,371.000000,36.000000,35.000000,0.000000,0.000000:
00000000
00000000
00000000
00000000
,
00000000
00000000
00000000
00000000
,
00000000
00000000
00000000
00000000
,
00000000
00000000
00000000
00000000
,
00000000
00000000
00000000
00000000
,
00200000
00000000
00310000
00000000
,
00000200
00000000
00001300
00000000
,
00010000
00001000
00000100
00000010
,
00000100
00000100
00000100
00000000
00000001
00000100
00001000
00000000
,
00021000
01030000
00021000
00130000
,
00021000
00000000
01030000
00000000
10000000
00100000
00010000
00000000
,
00001000
00010000
00000010
00001000
00000100
00000010
00000001
00000000
,
00000101
00000100
00001100
00001000
,
00012000
00003100
00012000
00003010
,
00012000
00000000
00003100
00000000
00000001
00000010
00001000
00000000
,
00010000
01000000
00010000
00000000
10000000
00100000
10000000
00100000
,
00000000
00010000
00000000
01000000
00000000
10000000
00000000
00100000
,
00010000
00100000
01000000
10000000
00020000
00000000
01000000
00000000
,
00000000
10000000
00000000
00130000
,
00100000
00001000
00010000
00000100
00002000
00000000
00000100
00000000
,
00000000
00000001
00000000
00003010
,
00000010
00010000
00001000
01000000
00020000
00000000
01000000
00000000
,
00000000
10000000
00000000
00130000
,
01000000
00000000
00010000
00001000
00000100
00000000
00002000
00000000
,
00000000
00010000
00000000
00013000
,
00000100
00001000
00000100
00001000
00000000
00000000
00000001
00000100
,
00000001
00000100
00000000
00000000
00000010
00001000
00010000
00000000
,
01000000
00010000
01000000
00010000
00000000
00000000
10000000
01000000
,
10000000
01000000
00000000
00000000
00100000
00010000
00001000
00000000
,
00000010
00000000
00000001
00000010
00000001
00000000
00000010
00000000
,
00001000
00000010
00001000
00000000
00000010
00000000
00000110
00000000
,
00000001
00000010
00000100
00000000
00000100
00001000
00010000
00000000
,
00000000
00011000
00000000
00100000
00000000
01000000
00000000
11000000
,
00000000
00000000
00000000
00000000
,
00010000
00001000
00010000
01000000
,
00010000
00000000
00000100
00000000
00010000
00000100
00001000
00000000
,
00000010
00000000
00000100
00000000
00000001
00000001
00000011
00000000
,
00000100
00000000
00000010
00000000
00000001
00000001
00000101
00000000
,
00001000
00000010
00001000
00010000
,
00100000
10000000
00010000
00001000
,
01000000
00100000
22000000
33000000
,
01000000
00000000
00000000
00000000
00010000
00000000
00000000
00000000
00001000
00010000
00001000
00000000
00010000
00000000
00000000
00000000
,
00000200
00000000
00000300
00000002
,
00000000
00000003
00002000
00000000
,
00003000
00020000
00000000
00030000
,
00200000
00000000
01000000
01300000
,
00020000
01000000
00000000
01000000
00000000
10000000
00000000
10000000
,
00000000
00100000
00000000
00100000
00000000
00001000
00000000
00032000
,
00000000
00000100
00000000
00000001
00000000
00000010
00000000
00013000
,
00001000
00000000
00000000
00000010
00000000
00000000
00000100
00000000
00000000
00000001
00000000
00000000
00001000
00000000
00000000
00000000
,
00000001
00000000
00000000
00000100
00000000
00000000
00000010
00000000
00000000
00010000
00000000
00000000
00001000
00000000
00000000
00000000
,
00100000
00000000
00000000
00010000
00000000
00000000
01000000
00000000
00000000
00100000
00000000
00000000
10000000
00000000
00000000
00000000
,
02000000
00100000
03100000
00020000
,
00001000
00031000
00000020
00000100
,
00000130
00002000
00010000
00013000
,
00100000
10000000
01000000
00010000
,
00001000
00110000
00001000
00110000
,
00000100
00011000
00000100
00011000
,
00000010
00001100
00000010
00001100
,
00000001
00000110
00000010
00001100
,
00000100
00011000
00001000
00110000
,
00010000
01100000
00100000
11000000
,
10000000
01000000
00010000
00000000
01010000
00000000
00011000
00000000
,
00012000
00003010
00012000
00003100
,
00012000
00000000
00003010
00000000
00000001
00000100
00001000
00000000
,
00010000
00001000
01000000
00010000
00100000
01000000
10000000
00000000
,
10100000
00100000
00110000
00010000
,
00021000
00130000
00021000
01030000
,
00021000
00000000
00130000
00000000
10000000
01000000
00010000
00001000
,
00000000
00000010
00001000
00000010
00000001
00000000
00001000
00000001
,
00001000
00000000
00000010
00000000
00010000
00001000
00000100
00000000
,
00000001
00000010
00000100
00001000
00020000
00000000
00100000
00000000
,
00000000
00100000
00000000
00130000
,
10000000
00100000
01000000
00010000
00002000
00000000
00000010
00000000
,
00000000
00000010
00000000
00003010
,
00000100
00000001
00000010
00001000
00020000
00000000
00001000
00000000
,
00000000
00001000
00000000
00031000
,
01000000
00000000
00010000
00100000
01000000
00000000
20000000
00000000
,
00000000
00010000
00000000
30010000
,
00100000
01000000
00010000
00000000
10000000
10000000
01000000
01000000
,
00010000
10000000
00010000
00000000
01000000
01000000
00001000
00001000
,
00000100
00001000
00000001
00000000
00000100
00000100
00001000
00000001
,
00000000
00000010
00000000
00000010
00000000
00000010
00000000
00000010
,
00000010
00000001
00001000
00000100
00010000
00001000
00100000
00000000
,
01000000
10000000
00010000
00100000
01000000
00100000
00010000
00000000
,
10000000
00010000
10000000
00010000
00100000
00001000
00100000
00001000
,
00010000
00000010
00010000
00000010
00001000
00000001
00001000
00000001
,
00000100
00000000
00000000
00000000
,
00000000
00000000
00000000
00000000
;

//---------------dance-double - ----------------
#NOTES:
     dance-double:
     :
     Hard:
     15:
     0.682934,0.789262,0.078887,0.220883,0.374712,606.000000,596.000000,10.000000,28.000000,0.000000,0.000000,0.682934,0.789262,0.078887,0.220883,0.374712,606.000000,596.000000,10.000000,28.000000,0.000000,0.000000:
00000000
00000000
00000000
00000000
,
00000000
00000000
00000000
00000000
,
00000000
00000000
00000000
00000000
,
00000000
00000000
00000000
00000000
,
00000000
00000000
00000000
00000000
,
11000000
00000000
00010000
00000000
00000000
00001000
00000100
00000000
00000020
00000000
00000000
00000000
00000030
00000000
00000000
00000000
,
00000011
00000000
00001000
00000000
00000000
00010000
00100000
00000000
20000000
00000000
00000000
00000000
30000000
00000000
00000000
00000000
,
11000000
00000000
00010000
00000000
00000000
00001000
00000010
00000000
00000002
00000000
00000000
00000000
00000000
00000000
00000000
00000000
,
00000003
00000000
00000000
00000000
,
10000000
00010000
01000000
00001000
00100000
00010000
00001000
00010000
,
01000000
00000000
00001000
00000000
00010000
00000000
01000000
00000000
10000000
01000000
10000000
00000000
01000000
00000000
00010000
00000000
,
00001000
00000000
01000000
00000000
00010000
00000000
10000000
00010000
10000000
00000000
01000000
00000000
00010000
00000000
00001000
00000000
,
01000000
00000000
00010000
00000000
10000000
00000000
01000000
00000000
00010000
00001000
00010000
00001000
00010000
00000000
00000000
00000000
,
00000010
00010000
00000100
00001000
00000001
00000100
00001000
00010000
,
00000100
00000000
00001000
00000000
00010000
00000000
00001000
00000000
00000100
00001000
00000100
00001000
00000001
00000000
00000100
00000000
,
00001000
00000000
00010000
00000000
00000010
00000000
00001000
00000001
00001000
00000001
00000100
00000000
00001000
00000000
00010000
00000000
,
00000100
00000000
00001000
00000000
00000001
00000000
00000100
00000000
00001000
00010000
00001000
00010000
00001000
00000000
00000000
00000000
,
00010000
01000000
10000000
00100000
00020000
00000000
00001000
00000000
,
02030000
00001000
03200000
00001000
,
00301000
00000100
00000001
00000010
00002000
00000000
00010000
00000000
,
00003200
00010000
00000320
00010000
,
00000130
00001000
00010000
01000000
00200000
00000000
00001000
00000000
,
00320000
00001000
02030000
00001000
,
13000000
00000000
00010000
00100000
10000000
00000000
10000000
01000000
,
00020000
00001000
01000000
00001000
,
00030010
00000000
00001000
00000000
00000100
00000000
00000010
00000000
00000100
00000000
00001000
00000010
00000100
00000000
00000001
00000000
,
00000010
00000000
00000100
00000000
00000010
00000000
00000001
00000000
00000100
00000000
00000010
00001000
00000100
00000000
00000010
00000000
,
00001000
00000000
00010000
00000000
00100000
00000000
00010000
00000000
00001000
00010000
00001000
00000000
00000010
00000000
00001000
00000000
,
00010000
00000000
00001000
00010000
00001000
00010000
00001000
00000000
00010000
00000000
01000000
00000000
00100000
00000000
01000000
00000000
,
00010000
00001000
00000100
00001000
00010000
00000000
00001000
00010000
,
01000000
00000000
00010000
00000000
00001000
00010000
00001000
00010000
00001000
00000000
00000100
00000000
00001000
00000000
00010000
00000000
,
00001000
00010000
00001000
00000000
00100000
00010000
00100000
00000000
01000000
00100000
01000000
00000000
10000000
01000000
10000000
00000000
,
00000000
01000000
00010000
00000000
00000000
00010000
00001000
00000000
00000000
00001000
00010000
00000000
00000000
00010000
00100000
00000000
,
00000000
00000000
00000000
00000000
,
00100000
00010000
01000000
00000000
00001000
00010000
00000010
00000000
,
00001000
00000001
00000100
00000000
00000010
00001000
00000100
00000000
,
00010000
00000000
00001000
00000000
00100000
00000000
00000000
00000000
00010000
10000000
00010000
10000000
00010000
10000000
01000000
00000000
,
00100000
00000000
00001000
00000000
00010000
00000000
00000000
00000000
00000010
00001000
00000010
00001000
00000010
00001000
00000001
00000000
,
00000010
00000000
00000000
00000000
00000100
00000000
00000000
00000000
00010000
00001000
00010000
00001000
00100000
00000000
00000000
00000000
,
00010000
00000000
00000000
00000000
10000000
00000000
00000000
00000000
00100000
01000000
00100000
01000000
00010000
00000000
00000000
00000000
,
00100000
00000000
00000000
00000000
00001000
00000000
00010000
00000000
00000010
00001000
00000010
00001000
00000001
00000000
00000000
00000000
,
00000010
00000000
00000000
00000000
00000100
00000000
00010000
00000000
00001000
00100000
00001000
00000000
00010000
00000000
00000000
00000000
,
00022000
00000000
00003000
02000000
,
00000000
03000000
00002000
00000000
,
00030000
00000200
00000000
00000300
,
00020000
00033000
00011000
00011000
,
00001000
00010000
01000000
00100000
01000000
00010000
00001000
00000100
,
00000010
00000100
00001000
00010000
00001000
00100000
01000000
00100000
,
00001000
00000000
00010000
00000000
00000010
00000000
00000100
00000000
00000010
00000000
00010000
00000000
00001000
00010000
00001000
00010000
,
00001000
00010000
01000000
10000000
00010000
00100000
10000000
00100000
,
00010000
00001000
00000100
00000001
00001000
00000010
00000001
00000010
,
00001000
00010000
01000000
10000000
00100000
00010000
00001000
00000100
,
00000001
00000000
00000101
00000010
00001000
00000000
00000100
00000000
,
00010100
00001000
00010000
00000000
01000000
00000000
00101000
00010000
,
01000000
00000000
00100000
00000000
10100000
01000000
00010000
00000000
,
00100000
00010000
00001000
00000000
00000010
00001000
00010000
01000000
,
10000000
01000000
00001000
01000000
10000000
00000000
10000000
01000000
,
00001000
01000000
10000000
00000000
10000000
01000000
00001000
01000000
,
10000000
00000000
10000000
00100000
00010000
00001000
00000100
00000001
,
00000010
00000000
00000001
00000010
00000100
00000000
00001000
00000000
00000010
00000000
00000100
00001000
00010000
00000000
00001000
00000000
,
01000000
00010000
00100000
00001000
00010000
00000100
00001000
00000001
,
00000010
00000000
00000001
00000010
00000100
00000000
00001000
00000000
00000010
00000000
00000100
00001000
00010000
00000000
00100000
00000000
,
00000000
00000000
00000000
00000000
,
10000000
00010000
00100000
00001000
00100000
00010000
01000000
00001000
,
00100000
00000000
00001000
00000000
00010000
00000000
00100000
00000000
10000000
00100000
10000000
00000000
00100000
00000000
00010000
00000000
,
00001000
00000000
00100000
00000000
00010000
00000000
10000000
00010000
10000000
00000000
00100000
00000000
00010000
00000000
00001000
00000000
,
00100000
00000000
00010000
00000000
10000000
00000000
00100000
00000000
00010000
00001000
00010000
00001000
00010000
00000000
00000000
00000000
,
00000100
00000000
00010000
00000000
00000010
00000000
00001000
00000000
00000001
00000010
00000001
00000000
00001000
00000010
00001000
00000000
,
00000010
00000000
00010000
00000000
00001000
00000000
00000010
00000000
00000001
00001000
00000001
00001000
00000010
00000000
00001000
00000000
,
00010000
00000000
00001000
00000000
00000010
00000000
00001000
00000010
00001000
00000010
00000000
00000010
00000000
00010000
00000000
00001000
,
00000010
00000000
00000001
00000000
00001000
00000000
00000010
00000000
00010000
00000000
00001000
00010000
00001000
00010000
00001000
00000000
,
00010000
01000000
10000000
00010000
00002000
00000000
00010000
00000000
,
00003020
00010000
00000230
00010000
,
00001300
00000100
00000001
00001000
00020000
00000000
00001000
00000000
,
02030000
00001000
03200000
00001000
,
00310000
00100000
10000000
01000000
00200000
00000000
00001000
00000000
,
00320000
00001000
00030020
00001000
,
00000031
00000000
00000001
00000100
00001000
00000000
00001000
00000100
,
00000001
00001000
00000001
00001000
00000001
00001000
00000001
00000000
,
00000100
00000001
00000100
00000000
00000010
00001000
00000000
00000100
00010000
00000000
00001000
00010000
00000000
00001000
00100000
00000000
,
00001000
00000000
01000000
00100000
00000000
10000000
01000000
00000000
10000000
00010000
10000000
00000000
00010000
01000000
00000000
00100000
,
01000000
00100000
01000000
00000000
00010000
00100000
00000000
00001000
00010000
00000000
00000100
00001000
00000000
00000010
00000100
00000000
,
00000001
00000010
00000000
00000100
00001000
00000000
00000001
00000000
00001000
00000100
00001000
00000000
00000010
00000000
00001000
00000010
,
00010000
00001000
00010000
00000000
00001000
00100000
00000000
00010000
00100000
00000000
01000000
10000000
00000000
00100000
10000000
00000000
,
00010000
00000000
00100000
01000000
00000000
00000000
00100000
00000000
00001000
00010000
00000000
00000010
00001000
00000000
00000001
00000010
,
00000001
00001000
00000100
00000010
00001000
00010000
00100000
01000000
,
00010000
00000000
10000000
00010000
10000000
00000000
01000000
00000000
00100000
00010000
00100000
00010000
00100000
00001000
00100000
00001000
,
00010000
00000000
00000000
00000000
,
00000000
00000000
00000000
00000000
;

//---------------dance-single - ----------------
#NOTES:
     dance-single:
     :
     Challenge:
     17:
     0.889166,1.000876,0.299770,0.362879,0.713925,789.000000,751.000000,38.000000,46.000000,0.000000,0.000000,0.889166,1.000876,0.299770,0.362879,0.713925,789.000000,751.000000,38.000000,46.000000,0.000000,0.000000:
// measure 0
0000
0000
0000
0000
,  // measure 1
0000
0000
0000
0000
,  // measure 2
0000
0000
0000
0000
,  // measure 3
0000
0000
0000
0000
,  // measure 4
0000
0000
0000
0000
,  // measure 5
1001
0000
1000
0000
0010
0001
0000
0001
0010
0100
0001
0100
0010
1000
0010
0000
,  // measure 6
1010
0000
1000
0000
0001
0100
0000
0100
0010
1000
0010
0100
0001
0100
0010
0000
,  // measure 7
1000
0100
1000
0000
0001
0100
0010
1000
0010
0000
0000
0000
0101
0000
0000
0000
,  // measure 8
0010
0000
0010
0000
1100
0000
1000
0001
0010
0100
1000
0000
1001
0000
0000
0000
,  // measure 9
0101
0000
0010
0000
0100
0000
1000
0000
0010
1000
0100
0000
0010
0001
0100
0000
,  // measure 10
0010
1000
0010
0000
1000
0100
1000
0000
0100
0010
0001
0010
0100
1000
0001
0000
,  // measure 11
0100
0000
0100
0000
0110
0000
0010
1000
0001
0010
0100
0000
1100
0000
1000
0000
,  // measure 12
1001
0000
0001
0000
0010
0000
1000
0000
0010
0001
0100
0010
1000
0000
0010
0000
,  // measure 13
0110
0100
0101
0001
0011
0010
0110
0100
,  // measure 14
1100
0000
0000
0000
1010
0000
0000
0000
0100
0001
0010
0100
1000
0001
1000
0000
,  // measure 15
0010
0000
0010
0000
0110
0000
0001
1000
0100
1000
0001
0000
0011
0000
0010
0000
,  // measure 16
0010
0100
1000
0000
0100
0010
0001
0000
1000
0010
0100
0010
1000
0010
0100
0000
,  // measure 17
0011
0010
0100
1000
0002
0000
0023
0000
,  // measure 18
0230
2300
3002
0100
,  // measure 19
0103
0010
1000
0100
0002
0000
0203
0000
,  // measure 20
2300
3020
0230
0302
,  // measure 21
0013
1000
0010
0001
0020
0000
0230
0000
,  // measure 22
2300
3002
0203
0302
,  // measure 23
0023
0000
0130
2000
0000
3001
0200
0000
,  // measure 24
0001
0010
0001
2300
,  // measure 25
3001
0000
0010
0000
0100
0000
1000
0001
1000
0000
0010
0100
0001
0000
0100
0000
,  // measure 26
0010
0000
1000
0001
0100
0000
0001
0000
0010
0000
0001
1000
0100
0000
1000
0000
,  // measure 27
0010
0100
0001
0021
0000
0000
0130
1000
,  // measure 28
0010
0000
1000
0100
1000
0100
0010
0000
0001
0100
0001
0100
0010
1000
0010
1000
,  // measure 29
0001
0000
0010
0000
0110
0000
0100
0000
1000
0001
0010
0000
0001
0000
0100
0000
,  // measure 30
0110
0000
0010
0000
1000
0001
0100
0000
0010
0000
1000
0000
1100
0000
0100
0000
,  // measure 31
0010
0001
0100
0000
0100
1000
0001
0000
1000
0100
0010
0000
0100
0001
0010
0000
,  // measure 32
0100
1000
0001
0000
0010
0001
0100
0000
0010
1000
0100
0000
0010
0100
1000
0000
,  // measure 33
0000
0000
0000
0000
,  // measure 34
0010
0000
0001
0000
0100
0000
0010
0000
1000
0001
1000
0010
1000
0000
0100
0000
,  // measure 35
0010
0000
0000
0000
0011
0000
0000
0000
0001
1000
0100
1000
0001
0000
0010
0000
,  // measure 36
0100
0000
0100
0000
2002
0000
3003
0000
0010
1000
0010
1000
0001
0100
0001
0100
,  // measure 37
0010
0000
0010
0000
2002
0000
3003
0000
0100
1000
0100
1000
0001
0010
0001
0010
,  // measure 38
0100
0000
0100
0000
1010
0000
0000
0000
1000
0100
0010
0100
1000
0000
0001
0000
,  // measure 39
0100
0010
0001
0010
0100
0000
1000
0000
0001
0010
0100
0010
0001
1000
0001
0000
,  // measure 40
0100
0000
0000
0100
0000
0010
0000
0000
1000
0100
0010
0001
1000
0000
0000
0000
,  // measure 41
0001
0000
0100
0001
0100
0010
0000
0000
1000
0010
1000
0000
0001
0000
0000
0000
,  // measure 42
0100
0010
1000
0010
0200
0000
0301
0010
,  // measure 43
0100
0010
0002
0000
1003
0010
0001
0010
,  // measure 44
2000
0000
0000
0000
3100
0000
0010
0000
1000
0000
0010
0000
0100
0001
0100
1000
,  // measure 45
0100
0000
0010
0000
0001
0000
0100
0000
0010
0000
1000
0000
0010
0100
0001
0000
,  // measure 46
1000
0001
0100
0010
0100
0001
1000
0010
,  // measure 47
0001
0010
1000
0001
1000
0100
0001
0100
,  // measure 48
1000
0000
0010
0000
1000
0000
0100
0000
0001
0000
0100
0000
1000
0000
0001
0010
,  // measure 49
0001
0010
0100
0001
0100
0100
1000
0000
,  // measure 50
0010
0100
0001
0100
0010
0010
1000
0000
,  // measure 51
0001
0000
0010
0000
0100
0000
1000
0000
0010
0100
0010
0100
0001
1000
0001
1000
,  // measure 52
0100
0010
0001
1000
1100
0000
0010
0100
,  // measure 53
0001
0010
0110
0000
0100
1000
0001
0010
,  // measure 54
0011
0000
0000
0000
1000
0000
0010
0000
0100
0000
0010
0000
0001
0010
0100
0000
,  // measure 55
0010
0000
1000
0000
0010
0000
0100
0000
0001
1000
0001
0000
1000
0010
1000
0000
,  // measure 56
0100
0010
0001
1000
1001
0000
0010
0100
,  // measure 57
0001
0000
0100
0000
1100
0000
0000
0000
0100
0000
0001
0000
0010
1000
0010
0000
,  // measure 58
0001
0000
0000
0000
1000
0000
0010
0000
0100
0000
0001
1000
0001
1000
0010
0000
,  // measure 59
0100
0001
0100
0001
0100
0001
0100
0000
0010
1000
0010
1000
0010
1000
0010
0000
,  // measure 60
0100
0000
0001
0000
0010
0000
0100
0000
1000
0001
1000
0100
1000
0001
1000
0100
,  // measure 61
1000
0000
0010
0000
0100
0001
0100
0010
0100
1000
0100
0010
0100
0001
0100
0000
,  // measure 62
0010
0000
1000
0000
1000
0000
0000
0001
0000
0000
0010
0000
0001
0000
0000
0000
,  // measure 63
0011
0000
0100
0000
0010
0000
0001
0000
1000
0000
0100
0000
1000
0001
1000
0000
,  // measure 64
0010
0100
0001
0000
0010
0100
1000
0000
0001
0010
0100
0010
0001
0010
0100
0000
,  // measure 65
1000
0000
0010
0000
0011
0000
0010
0100
0001
0100
0010
0000
1000
0000
0100
0000
,  // measure 66
0010
0000
0001
0000
1000
0000
0010
0000
0100
0001
0010
0001
1000
0000
0010
0000
,  // measure 67
0110
0000
0100
0000
0001
0000
0010
0000
1000
0010
0001
0100
0001
0010
0001
0000
,  // measure 68
1000
0000
0010
0000
0100
0000
0010
0000
1000
0100
0010
0001
0010
0100
1000
0000
,  // measure 69
0001
0000
0100
0000
0010
1000
0001
1000
0010
1000
0001
0010
0000
0100
0000
0010
,  // measure 70
0001
0000
1000
0000
0010
1000
0010
1000
0010
1000
0001
0100
0001
0100
0001
0100
,  // measure 71
0010
1000
0100
0001
0102
0000
0203
0000
,  // measure 72
2300
0100
3200
0000
0302
0010
0023
0000
,  // measure 73
0130
1000
0001
1000
0010
0100
0001
0010
,  // measure 74
0100
1000
0001
1000
0010
0100
0001
0010
,  // measure 75
0001
0100
0010
1000
1020
0000
0230
0000
,  // measure 76
0302
0023
2030
3020
,  // measure 77
0032
0000
0103
0020
0000
1030
0002
0000
,  // measure 78
1003
0010
1000
0100
0010
0001
0100
0000
,  // measure 79
0010
1000
0010
0000
1000
0100
0000
0010
0001
0000
0100
0010
1000
0010
0100
0000
,  // measure 80
0001
0010
0000
0100
1000
0001
1000
0000
0001
0100
1000
0000
0100
0001
0010
0000
,  // measure 81
0100
1000
0010
0000
1000
0100
0010
0001
0100
0000
0010
1000
0010
0100
0001
0000
,  // measure 82
1000
0000
0010
0100
0001
0010
0001
1000
0010
1000
0100
0010
0001
1000
0100
1000
,  // measure 83
0010
0100
0000
0100
0001
0010
0000
0100
1000
0010
1000
0001
1000
0100
1000
0000
,  // measure 84
0010
0000
0100
0001
0010
0000
0100
0000
1100
0000
1000
0010
0100
0000
0001
0010
,  // measure 85
1000
0010
0001
0000
0100
0010
1000
0000
0010
0100
0001
0000
0010
1000
0010
0000
,  // measure 86
0001
1000
0100
1000
0010
0100
0001
0000
1000
0001
0100
0000
0001
1000
0100
0000
,  // measure 87
2002
0000
3003
0000
;
