#TITLE:New York EVOLVED (Type A);
#SUBTITLE:;
#ARTIST:NC underground;
#TITLETRANSLIT:;
#SUBTITLETRANSLIT:;
#ARTISTTRANSLIT:;
#GENRE:;
#CREDIT:;
#BANNER:New York EVOLVED (Type A).png;
#BACKGROUND:;
#LYRICSPATH:;
#CDTITLE:;
#MUSIC:New York EVOLVED (Type A).ogg;
#OFFSET:0.000000;
#SAMPLESTART:17.719999;
#SAMPLELENGTH:15.000000;
#SELECTABLE:YES;
#DISPLAYBPM:48.000000:380.000000;
#BPMS:0.000000=190.475998
,4.000000=189.988007
,39.000000=190.141006
,42.000000=190.018997
,53.000000=190.035995
,117.000000=94.987000
,125.000000=189.873001
,140.000000=189.973999
,204.000000=94.987000
,208.000000=380.109009
,301.000000=379.828003
,330.500000=380.089996
,358.500000=380.282013
,382.500000=189.473999
,386.500000=380.109009
,417.500000=379.747009
,447.500000=94.987000
,451.500000=191.488998
,452.500000=191.667007
;
#STOPS:39.000000=0.320000,
42.000000=0.313000,
53.000000=0.320000,
140.000000=0.313000,
301.000000=0.473000,
330.500000=0.393000,
358.500000=0.633000,
417.500000=0.473000
;
#BGCHANGES:;
#KEYSOUNDS:;
#ATTACKS:;

//---------------dance-single - ----------------
#NOTES:
     dance-single:
     :
     Beginner:
     4:
     0.136660,0.233744,0.057727,0.164935,0.000000,116.000000,109.000000,7.000000,20.000000,0.000000,0.000000,0.136660,0.233744,0.057727,0.164935,0.000000,116.000000,109.000000,7.000000,20.000000,0.000000,0.000000:
0000
0000
0000
0000
,
0000
0000
0000
0000
,
0000
0000
0000
0000
,
0000
0000
0000
0000
,
0000
0000
0000
0000
,
0001
0000
0000
0000
,
1000
0000
0000
0000
,
0001
0000
0000
0000
,
1000
0000
0001
0000
,
1001
0000
0000
0000
,
0000
0110
0000
0000
,
0000
1000
0000
0000
,
0001
0000
0100
0000
,
0100
0000
0000
0001
,
0000
0000
0000
1000
,
0000
0000
0000
0001
,
0000
0010
0010
0010
,
0000
0000
0000
0001
,
0000
0000
0000
1000
,
0000
0000
0000
0001
,
0000
0010
0000
0000
,
0000
1000
0000
1000
,
0000
1000
0000
1000
,
0000
0001
0000
0001
,
0000
0100
0000
0100
,
0000
1000
0000
1000
,
0000
1000
0000
1000
,
0000
0001
0000
0001
,
0000
0100
0000
0010
,
0000
0020
0000
0000
,
0000
0000
0000
0000
,
0030
0110
0000
0000
,
0000
1001
0000
0000
,
0000
0000
1000
0000
,
0001
0000
1000
0000
,
0000
0000
0010
0000
,
1000
0000
1000
0000
,
1000
0000
0010
0000
,
0002
0000
0003
0000
,
1000
0000
0010
0000
,
0001
0000
0001
0000
,
0001
0000
0010
0000
,
0020
0000
0030
0000
,
1000
0000
0010
0000
,
1000
0000
1000
0000
,
1000
0000
0010
0000
,
0002
0000
0003
0000
,
1000
0000
0010
0000
,
0001
0000
0001
0000
,
0001
0000
0010
0000
,
0020
0000
0030
0000
,
0001
0000
0000
0000
,
1000
0000
0000
0000
,
0000
0000
0000
0000
,
0001
0000
0000
0000
,
0000
0000
0000
0000
,
1000
0000
0000
0000
,
0000
0000
0000
0000
,
0001
0000
0000
0000
,
0000
0000
0000
0000
,
1000
0000
0000
0000
,
0000
0000
0000
0000
,
0001
0000
0000
0000
,
0000
0000
0000
0000
,
1000
0000
0000
0000
,
0000
0000
0000
0000
,
0001
0000
0000
0000
,
0000
0000
0000
0000
,
0020
0000
0000
0030
,
0000
0000
0000
0000
,
0200
0000
0000
0300
,
0000
0000
0000
0000
,
0020
0000
0000
0030
,
0000
0000
0000
0000
,
2002
0000
0000
3003
,
0000
0000
0000
0000
,
0000
0000
0000
0000
,
0000
0200
0000
0000
,
0300
0000
0000
0000
,
0000
0020
0000
0000
,
0030
0000
0000
0000
,
0000
2002
0000
0000
,
3003
0000
0000
0000
,
0000
0000
0000
0000
,
0000
0000
0000
0000
0000
2000
0000
0000
,
0000
0000
0000
3000
0000
0000
0000
0000
,
0000
0000
0000
0000
0000
0002
0000
0000
,
0000
0000
0000
0003
0000
0000
0000
0000
,
0000
0000
0000
0000
0000
1000
0000
0000
,
0000
0000
0000
0000
0000
0001
0000
0000
,
0000
0000
0000
0000
,
0000
0000
0000
0000
0000
2000
0000
0000
,
0000
0000
0000
0000
0000
3000
0000
0000
,
0000
0000
0000
0000
0000
0002
0000
0000
,
0000
0000
0000
0000
0000
0003
0000
0000
,
0000
0000
0000
0000
0000
0010
0000
0000
,
0000
0010
0000
0000
0000
0010
0000
0000
,
0000
0000
0000
0000
,
0000
0000
0000
0000
0000
0100
0000
0000
,
0000
0000
0000
0000
,
0000
0000
0000
0000
0000
0010
0000
0000
,
0000
0000
0000
0000
,
0000
0000
0000
0000
0000
0001
0000
0000
,
0000
1000
0000
0000
0000
0001
0000
0000
,
0000
0000
0000
0000
,
0000
0000
0000
0001
0000
0000
0000
0000
,
0000
0000
0000
0000
,
0000
0000
0000
1000
0000
0000
0000
0000
,
0000
0000
0000
0001
0000
0000
0000
0000
,
0000
0000
0000
1000
0000
0000
0000
0000
,
0000
0000
0000
0001
0000
0000
0000
1000
,
0000
0000
0000
0001
0000
0000
0000
1000
,
0000
0000
0000
0000
0000
0000
0000
2002
,
0000
0000
0000
3003
0000
0000
0000
0000
,
;

//---------------dance-single - ----------------
#NOTES:
     dance-single:
     :
     Easy:
     9:
     0.327513,0.467487,0.329870,0.428831,0.000000,278.000000,238.000000,40.000000,52.000000,0.000000,0.000000,0.327513,0.467487,0.329870,0.428831,0.000000,278.000000,238.000000,40.000000,52.000000,0.000000,0.000000:
0000
0000
0000
0000
,
0000
0000
0000
0000
,
0000
0000
0000
0000
,
0000
0000
0000
0000
,
0000
0000
0000
0000
,
1000
1000
0001
0001
,
0010
0010
0100
0000
,
1000
1000
0001
0001
,
1000
0010
0100
0000
,
0000
1001
0000
0000
1001
0000
0000
0000
,
0000
0000
0110
0000
0000
0000
0000
1000
,
0000
0000
0001
0000
0000
1000
0000
0000
,
0001
0100
0100
0220
,
0000
0330
1000
0100
,
0010
0100
0010
0001
,
0100
0000
0001
0100
,
0010
0100
0010
0010
,
0010
0000
1000
0100
,
0010
0100
0010
0001
,
0100
0000
0001
0100
,
0010
1010
0000
0011
,
0000
1000
0010
0001
,
0010
0001
0100
0001
,
0000
0001
0010
1000
,
0010
0001
0100
1000
,
0000
0001
0010
1000
,
0010
1000
0100
1000
,
0000
1000
0010
0001
,
0010
1000
0100
0001
,
0010
0200
0000
0010
,
0000
1000
0000
0001
,
0300
0110
0000
0000
,
0000
1001
0000
0000
,
0000
0000
0101
0000
,
1100
0000
1001
2002
,
3003
0100
0010
1000
,
0100
1000
0001
0010
,
0000
0100
0010
1000
,
0100
0010
0012
0013
,
0000
0100
0010
1000
,
0100
1000
0001
0010
,
0000
0100
0010
1000
,
0100
0010
0100
1100
,
0000
0100
0010
0001
,
0100
0001
1000
0010
,
0000
0100
0010
0001
,
0100
0010
2010
3010
,
0000
0100
0010
0001
,
0100
0001
1000
0010
,
0000
0100
0010
0001
,
0100
0010
0100
0101
,
0020
0000
0000
0030
,
1000
0000
0000
0000
,
1001
0000
0000
0000
,
1000
0000
0010
0000
,
0100
0000
0000
0000
,
0001
0000
0000
0000
,
1001
0000
0000
0000
,
0001
0000
0010
0000
,
0100
0000
0010
0000
,
1000
0000
0000
0000
,
1001
0000
0000
0000
,
1000
0000
0010
0000
,
0100
0000
0000
0000
,
0001
0000
0000
0000
,
1001
0000
0000
0000
,
0001
0000
0010
0000
,
0100
0000
0010
0000
,
0022
0000
0033
0000
,
2002
0000
3003
0000
,
0022
0000
0033
0000
,
2002
0000
3003
0000
,
2020
0000
3030
0000
,
2002
0000
3003
0000
,
1000
0000
0001
0000
,
2002
3003
0000
0000
,
0000
2002
0000
3003
,
0000
0022
0000
0033
,
0000
2002
0000
3003
,
0000
2020
0000
3030
,
0000
2002
0000
3003
,
0000
0001
0000
1000
,
0000
0010
0000
0000
,
0000
0000
0000
0000
0000
2002
0000
0000
,
0000
3003
0000
0000
0000
0220
0000
0000
,
0000
0330
0000
0000
0000
2002
0000
0000
,
0000
3003
0000
0000
0000
0220
0000
0000
,
0000
0330
0000
0000
0000
2002
0000
0000
,
0000
3003
0000
0000
0000
0001
0000
0000
,
0000
1000
0000
0000
0000
0010
0000
0000
,
0000
0000
0000
0000
0000
0002
0000
0000
,
0000
0103
0000
0000
0000
0220
0000
0000
,
0000
0330
0000
0000
0000
2000
0000
0000
,
0000
3100
0000
0000
0000
0220
0000
0000
,
0000
0330
0000
0000
0000
0002
0000
0000
,
0000
0103
0000
0000
0000
0001
0000
0000
,
0000
1000
0000
0000
0000
0010
0000
0000
,
0000
1000
0000
0000
0000
0010
0000
0000
,
0000
1000
0000
0000
0000
0100
0000
0000
,
0000
0001
0000
0000
0000
0100
0000
0000
,
0000
0001
0000
0000
0000
0010
0000
0000
,
0000
0001
0000
0000
0000
0010
0000
0000
,
0000
0001
0000
0000
0000
0100
0000
0000
,
0000
0100
0000
0000
0000
0010
0000
0100
,
0000
0010
0000
0100
0000
0000
0000
0001
,
0000
0000
0000
0010
0000
0000
0000
0010
,
0000
0000
0000
0001
0000
0000
0000
1000
,
0000
0000
0000
0010
0000
0000
0000
0010
,
0000
0000
0000
0100
0000
0000
0000
0100
,
0000
0000
0000
0010
0000
0000
0000
0010
,
0000
0000
0000
1000
0000
0001
0000
1000
,
0000
0000
0001
0000
0000
0000
0000
0020
,
0000
0000
0000
0000
0000
0030
0000
2002
,
0000
0000
0000
3003
0000
0000
0000
0000
,
;

//---------------dance-single - ----------------
#NOTES:
     dance-single:
     :
     Medium:
     14:
     0.571381,0.794728,0.395844,0.387597,0.016493,485.000000,437.000000,48.000000,47.000000,0.000000,0.000000,0.571381,0.794728,0.395844,0.387597,0.016493,485.000000,437.000000,48.000000,47.000000,0.000000,0.000000:
// measure 0
0000
0000
0000
0000
,  // measure 1
0000
0000
0000
0000
,  // measure 2
0000
0000
0000
0000
,  // measure 3
0000
0000
0000
0000
,  // measure 4
0000
0000
0000
0000
,  // measure 5
1000
0010
0100
0001
,  // measure 6
0010
0000
0010
0000
0100
0010
0100
0000
,  // measure 7
0001
0010
0100
1000
,  // measure 8
1100
0000
0000
0011
0000
0000
1010
0000
,  // measure 9
0001
1000
0000
0000
1200
0000
0300
0010
,  // measure 10
0000
0000
0201
0000
0300
0000
0000
1000
,  // measure 11
0100
0000
0001
0010
0000
1000
0010
0000
,  // measure 12
0100
0000
0010
0000
0100
0000
0010
0000
1000
0000
0001
0000
1000
0000
0001
1000
,  // measure 13
0020
0000
0130
0000
0001
0000
0100
0010
,  // measure 14
1000
0010
0100
0000
0010
0000
1000
0100
,  // measure 15
0001
0100
1000
0000
1000
0000
0100
0010
,  // measure 16
0001
0010
0100
1000
0000
0010
0000
1001
,  // measure 17
0000
1001
0000
0000
0001
0000
0100
0010
,  // measure 18
1000
0010
0100
0000
0010
0000
1000
0100
,  // measure 19
0001
0100
1000
0000
1000
0000
0100
0010
,  // measure 20
0001
0010
0100
1000
0010
0000
0110
0000
,  // measure 21
0000
0000
0001
0010
0001
0100
0010
0100
,  // measure 22
0001
0010
0001
0100
0010
1000
0100
0001
,  // measure 23
1000
0000
1000
0010
1000
0100
0010
0100
,  // measure 24
1000
0010
0100
0001
0100
1000
0001
0010
,  // measure 25
1000
0000
0001
0010
0001
0100
0010
0100
,  // measure 26
0001
0010
0001
0100
0010
1000
0100
0001
,  // measure 27
1000
0000
1000
0010
1000
0100
0010
0100
,  // measure 28
1000
0010
0100
0001
0101
0000
0010
1000
,  // measure 29
0100
0010
0002
0000
0000
0000
0200
0000
,  // measure 30
0300
2003
0000
0020
,  // measure 31
3030
1001
0000
0000
,  // measure 32
0000
0110
0000
0000
,  // measure 33
0000
0000
0000
0000
0011
0011
0000
0000
,  // measure 34
1100
1100
0000
0000
1001
0000
0110
0000
,  // measure 35
1001
0000
0100
0000
0010
1000
0010
1000
,  // measure 36
0100
0000
0100
0000
0001
0010
1000
0010
,  // measure 37
0000
0000
0100
0000
0010
0001
0010
0001
,  // measure 38
0100
0000
0100
0010
1000
0000
0001
1000
,  // measure 39
0100
0000
0100
0000
0010
1000
0010
1000
,  // measure 40
0100
0000
0100
0000
0001
0010
1000
0010
,  // measure 41
1000
0000
0100
0000
0010
0001
0010
0001
,  // measure 42
0100
0000
0100
0010
0100
0000
1000
0100
,  // measure 43
0000
0000
0100
0000
0010
0001
0010
0001
,  // measure 44
0100
0000
0100
0000
1000
0010
0001
0010
,  // measure 45
0000
0000
0100
0000
0010
1000
0010
1000
,  // measure 46
0100
0000
0100
0010
0001
0000
1000
0001
,  // measure 47
0100
0000
0100
0000
0010
0001
0010
0001
,  // measure 48
0100
0000
0100
0000
1000
0010
0001
0010
,  // measure 49
0011
0000
0100
0000
0010
1000
0010
1000
,  // measure 50
0100
0000
0010
0000
1001
0000
0000
0000
1000
0000
0001
0000
0010
0000
0100
0010
,  // measure 51
0200
0000
0000
0000
0000
0000
0000
0000
1000
0000
0000
0010
0000
0000
0301
0000
,  // measure 52
2000
0000
0100
3000
,  // measure 53
0010
0100
0010
0100
,  // measure 54
0002
0000
0010
0003
,  // measure 55
1000
0010
0100
0001
,  // measure 56
2000
0000
0100
3000
,  // measure 57
0010
0100
0010
0100
,  // measure 58
0002
0000
0010
0003
,  // measure 59
1000
0010
0100
0100
,  // measure 60
0002
0000
0100
0003
,  // measure 61
0010
0100
0010
0100
,  // measure 62
2000
0000
0010
3000
,  // measure 63
0001
0010
0100
1000
,  // measure 64
0002
0000
0100
0003
,  // measure 65
0010
0100
0010
0100
,  // measure 66
2000
0000
0010
3000
,  // measure 67
0001
0010
0100
0100
,  // measure 68
0120
0000
1030
0000
,  // measure 69
0201
0000
0310
0000
,  // measure 70
2100
0000
3001
0000
,  // measure 71
0102
0000
0013
0000
,  // measure 72
0120
0000
1030
0000
,  // measure 73
0201
0000
0310
0000
,  // measure 74
1000
0000
0100
0000
1000
0000
0100
0010
,  // measure 75
0002
0000
0000
1003
,  // measure 76
0000
0021
0000
0130
,  // measure 77
0000
2010
0000
3001
,  // measure 78
0000
0012
0000
0103
,  // measure 79
0000
0210
0000
1300
,  // measure 80
0000
0021
0000
0130
,  // measure 81
0000
0000
1000
0000
0001
0000
1000
0001
,  // measure 82
1000
0000
0010
0000
0000
0220
0000
0330
,  // measure 83
0000
0001
0000
0000
0000
1200
0000
0000
,  // measure 84
0000
0310
0000
0001
0000
0102
0000
0000
,  // measure 85
0000
1003
0000
0000
0000
2100
0000
0000
,  // measure 86
0000
3010
0000
0100
0000
0120
0000
0000
,  // measure 87
0000
0031
0000
0000
0000
1200
0000
0000
,  // measure 88
0000
0310
0000
1000
0000
0001
0000
0100
,  // measure 89
0000
0001
0100
0010
1000
0002
0000
0000
,  // measure 90
0000
1003
0000
0000
0000
0201
0000
0000
,  // measure 91
0000
0310
0000
1000
0000
2100
0000
0000
,  // measure 92
0000
3001
0000
0000
0000
0102
0000
0000
,  // measure 93
0000
0013
0000
0100
0000
0120
0000
0000
,  // measure 94
0000
1030
0000
0000
0000
0201
0000
0000
,  // measure 95
0000
0310
0000
0001
0000
1000
0000
0001
,  // measure 96
0100
0010
0000
1000
0001
1000
0000
0010
,  // measure 97
0000
1000
0000
0010
0000
1000
0000
0010
,  // measure 98
0000
0001
0000
0010
0000
1000
0000
0100
,  // measure 99
0000
1000
0000
0100
0000
0001
0000
0100
,  // measure 100
0000
1000
0000
0100
0000
1000
0000
0010
,  // measure 101
0000
1000
0000
0010
0000
1000
0000
0010
,  // measure 102
0000
0001
0000
0010
0000
1000
0000
0100
,  // measure 103
0000
0001
0000
0100
0000
1000
0000
0001
,  // measure 104
0000
1000
0000
1001
0000
0000
0000
0001
,  // measure 105
0000
0001
0000
0200
0000
0000
0000
1000
,  // measure 106
0000
1300
0000
0020
0000
0000
0000
0001
,  // measure 107
0000
0031
0000
0200
0000
0000
0000
1000
,  // measure 108
0000
1300
0000
1100
0000
0000
0000
0101
,  // measure 109
0000
0000
0000
1000
0100
1000
0000
0010
,  // measure 110
0000
0100
0000
0001
0010
0001
0000
0010
,  // measure 111
0000
0000
1100
0000
0000
0000
0000
1020
,  // measure 112
0000
0000
0000
0000
0000
0000
0001
0000
0000
0100
0000
0000
1030
0000
2002
0000
,  // measure 113
0000
0000
0000
3003
0000
0000
0000
0000
;

//---------------dance-single - ----------------
#NOTES:
     dance-single:
     :
     Hard:
     16:
     0.749276,1.075221,0.519545,0.725713,0.160811,636.000000,573.000000,63.000000,88.000000,0.000000,0.000000,0.749276,1.075221,0.519545,0.725713,0.160811,636.000000,573.000000,63.000000,88.000000,0.000000,0.000000:
// measure 0
0000
0000
0000
0000
,  // measure 1
0000
0000
0000
0000
,  // measure 2
0000
0000
0000
0000
,  // measure 3
0000
0000
0000
0000
,  // measure 4
0000
0000
0000
0000
,  // measure 5
0010
0001
1000
0010
,  // measure 6
0200
0000
0010
0301
,  // measure 7
0010
1000
0001
0010
,  // measure 8
0110
0000
0000
0101
0000
0000
1010
0000
,  // measure 9
0001
0101
0000
0000
0021
0000
0130
1100
,  // measure 10
0000
0000
0210
0000
1300
0000
0000
0001
,  // measure 11
0110
0000
1000
0110
0000
0001
0110
0000
,  // measure 12
1000
0000
0010
0000
0001
0000
0010
0000
1000
0000
0010
0100
0001
1000
0100
0000
,  // measure 13
0020
0000
0130
1000
0100
0010
0100
0010
,  // measure 14
0100
0000
0010
1000
0001
0100
0010
0001
,  // measure 15
0100
0000
0100
0010
0001
1000
0100
0001
,  // measure 16
0100
0000
1000
0100
0010
0001
0000
0110
,  // measure 17
0000
0110
0000
0001
0100
0010
0100
0010
,  // measure 18
0100
0000
0010
0001
1000
0100
0010
1000
,  // measure 19
0100
0000
0100
0010
1000
0001
0100
1000
,  // measure 20
0100
0000
0000
0000
0001
0000
0100
0000
0010
0000
1000
0000
0001
0100
0000
1000
,  // measure 21
0100
0000
0000
0000
0010
0000
0001
0000
0100
0000
0001
0000
0010
0001
0010
0001
,  // measure 22
0100
0010
1000
0100
0010
0001
0100
1000
,  // measure 23
0100
0010
0100
0000
0010
0000
1000
0000
0100
0000
1000
0000
0010
1000
0010
1000
,  // measure 24
0100
0000
0010
0000
0001
0000
0010
0000
0100
0000
1000
0000
0001
0100
0001
0100
,  // measure 25
0010
1000
0010
1000
0010
0000
1000
0000
0100
0000
1000
0000
0010
1000
0010
1000
,  // measure 26
0100
0010
0001
0100
0010
1000
0100
0001
,  // measure 27
0100
0010
0100
0000
0010
0000
0001
0000
0100
0000
0001
0000
0010
0001
0010
0001
,  // measure 28
0100
0000
0010
0000
1000
0000
0000
0001
0100
0000
0001
1000
0100
0010
0100
0010
,  // measure 29
0001
0000
1000
0100
0020
0000
0000
0000
0000
0000
0000
0000
0032
0000
0000
0000
,  // measure 30
0100
2003
0010
3200
,  // measure 31
0301
0011
0000
0000
,  // measure 32
0000
1010
0000
0000
,  // measure 33
0000
0000
0000
0000
1100
1100
1001
0000
,  // measure 34
0101
0101
0110
0000
1001
0000
0110
0000
,  // measure 35
1001
0000
0100
0010
0000
1000
0100
0001
,  // measure 36
0000
1000
0020
0001
0130
0010
0100
0010
,  // measure 37
0000
1000
0100
0010
0000
0001
0100
1000
,  // measure 38
0000
0001
0020
1000
0230
0000
0010
0310
,  // measure 39
1010
1000
0100
0010
0000
0001
0100
1000
,  // measure 40
0100
0001
0020
1000
0130
0010
0100
0010
,  // measure 41
0000
0001
0100
0010
1010
1000
0100
0001
,  // measure 42
1001
0000
1000
0000
0010
0000
0000
0000
1000
0000
0001
0100
0010
0000
0100
0000
,  // measure 43
0000
0001
0100
0010
0001
1000
0100
0001
,  // measure 44
0100
1000
0020
0001
0130
0010
0100
0010
,  // measure 45
0000
1000
0100
0010
1000
0001
0100
1000
,  // measure 46
0100
0001
0020
1000
0230
0000
0010
0310
,  // measure 47
1010
1000
0100
0010
0100
0001
0100
1000
,  // measure 48
0100
0001
0020
1000
0130
0010
0100
0010
,  // measure 49
0000
0001
0100
0010
1010
1000
0100
0001
,  // measure 50
0100
0000
0001
0000
0010
0100
1000
0000
0001
0100
0001
0100
0010
0100
0010
0100
,  // measure 51
0002
0000
0000
0000
0000
0000
0003
0000
0001
0010
1000
0100
0001
0100
1000
0000
,  // measure 52
0021
0000
0000
0100
0000
0000
0031
0000
,  // measure 53
0100
0001
0010
0100
,  // measure 54
0120
0000
0000
0001
0000
0000
1030
0000
,  // measure 55
0100
0010
0001
0010
,  // measure 56
0021
0000
0000
0100
0000
0000
1030
0000
,  // measure 57
0100
1000
0010
0100
,  // measure 58
0120
0000
0000
1000
0000
0000
0031
0000
,  // measure 59
0100
0010
1000
0010
,  // measure 60
1200
0000
0000
0010
0000
0000
0301
0000
,  // measure 61
0010
0001
0100
0010
,  // measure 62
0210
0000
0000
0001
0000
0000
1300
0000
,  // measure 63
0010
0100
0001
0100
,  // measure 64
0201
0000
0000
0010
0000
0000
1300
0000
,  // measure 65
0010
1000
0100
0010
,  // measure 66
0210
0000
0000
1000
0000
0000
0301
0000
,  // measure 67
0010
0000
0000
1000
0001
0000
1000
0000
,  // measure 68
1020
0000
0030
0100
0002
0000
0003
0000
,  // measure 69
1002
0000
0003
0100
2000
0000
3000
0000
,  // measure 70
0120
0000
0030
1000
0002
0000
0003
0000
,  // measure 71
0201
0000
0300
0010
2000
0000
3000
0000
,  // measure 72
1020
0000
0030
0100
0002
0000
0003
0000
,  // measure 73
1002
0000
0003
0100
2000
0000
3000
0000
,  // measure 74
0001
0000
0001
0000
1000
0010
1000
0010
,  // measure 75
1000
0000
0000
0000
0000
0000
0000
0000
0000
0000
0000
0000
0000
0000
0000
0000
0000
0000
0000
0000
0000
0000
0000
0000
0020
0000
0000
0000
0000
0000
0000
0000
0000
0000
0000
0000
0000
0000
0000
0000
0000
0000
0000
0000
0000
0000
0000
0000
2000
0000
0000
0000
0000
0000
0000
0000
0000
0000
0000
0000
0000
0000
0000
0000
0000
0000
0000
0000
0000
0000
0000
0000
0000
0000
0000
0000
0000
0000
0000
0000
0000
0000
0000
0000
0000
0000
0000
0000
0000
0000
0000
0000
0000
0000
0000
3000
0030
0000
0000
0000
0000
0000
0000
0000
0000
0000
0000
0000
0000
0000
0000
0000
0000
0000
0000
0000
0000
0000
0000
0000
0100
0000
0000
0000
0000
0000
0000
0000
0000
0000
0000
0000
0000
0000
0000
0000
0000
0000
0000
0000
0000
0000
0000
0000
2000
0000
0000
0000
0000
0000
0000
0000
0000
0000
0000
0000
0000
0000
0000
0000
0000
0000
0000
0000
0000
0000
0000
0000
0000
0000
0000
0000
0000
0000
0000
0000
0000
0000
0000
0000
0000
0000
0000
0000
0000
0000
0000
0000
0000
0000
0000
0000
,  // measure 76
3000
0000
2001
0000
3000
0100
0002
0000
,  // measure 77
0003
0000
0120
0000
0030
0001
2000
0000
,  // measure 78
3000
0000
1200
0000
0300
0010
0002
0000
,  // measure 79
0003
0000
0021
0000
0030
0100
2000
0000
,  // measure 80
3000
0000
2001
0000
3000
0100
0002
0000
,  // measure 81
0003
0000
0010
0000
0010
0000
0100
0010
,  // measure 82
1000
0001
0010
0000
0000
0220
0000
0330
,  // measure 83
0020
0001
0000
0031
0000
1002
0000
0003
,  // measure 84
0020
1000
0000
1030
0000
0210
0000
0300
,  // measure 85
2000
0001
0000
3001
0000
0021
0000
0030
,  // measure 86
0200
1000
0000
1300
0000
1200
0000
0300
,  // measure 87
0020
0001
0000
0031
0000
1002
0000
0003
,  // measure 88
0020
1000
0000
1030
0000
0100
0000
0100
,  // measure 89
0000
0001
1000
0100
0010
0002
0000
0003
,  // measure 90
0200
0001
0000
0301
0000
1002
0000
0003
,  // measure 91
0200
1000
0000
1300
0000
0120
0000
0030
,  // measure 92
2000
0001
0000
3001
0000
0201
0000
0300
,  // measure 93
0020
1000
0000
1030
0000
1020
0000
0030
,  // measure 94
0200
0001
0000
0301
0000
1002
0000
0003
,  // measure 95
0200
0000
1000
0000
0000
0000
1300
0000
0000
0000
0010
0000
0100
0000
0001
1000
,  // measure 96
0000
0010
0000
1000
0100
0000
0010
0000
0001
0100
0020
0000
0000
0000
0100
0000
,  // measure 97
0030
0001
0000
1000
0001
0020
0000
0100
,  // measure 98
0030
1000
0000
0001
1000
0020
0000
0100
,  // measure 99
0030
0001
0000
1000
0001
0020
0000
0100
,  // measure 100
0030
1000
0000
0001
1000
0200
0000
0010
,  // measure 101
0300
0001
0000
1000
0001
0200
0000
0010
,  // measure 102
0300
1000
0000
0001
1000
0100
0000
0000
,  // measure 103
0000
0101
0000
0000
0000
0001
0100
1000
,  // measure 104
0010
0000
0000
1001
0000
0000
0000
1000
,  // measure 105
0200
1000
0000
0310
0000
0100
0000
0001
,  // measure 106
0200
0001
0000
0310
0000
0100
0000
1000
,  // measure 107
0200
0001
0000
0310
0000
0100
0000
0001
,  // measure 108
0010
0001
0000
1000
0100
1000
0000
0010
,  // measure 109
0100
0010
0000
0100
0001
0100
0000
0001
,  // measure 110
0000
1000
0010
0100
0001
0100
0010
1000
,  // measure 111
0000
0000
1100
0000
0000
0000
0000
0202
,  // measure 112
0000
0000
0000
0000
0303
0000
0001
0010
1000
0100
0001
0100
1000
0000
2002
0000
,  // measure 113
0000
0000
0000
3003
0000
0000
0000
0000
;

//---------------dance-double - ----------------
#NOTES:
     dance-double:
     :
     Easy:
     8:
     0.309842,0.467487,0.247402,0.437077,0.000000,263.000000,233.000000,30.000000,53.000000,0.000000,0.000000,0.309842,0.467487,0.247402,0.437077,0.000000,263.000000,233.000000,30.000000,53.000000,0.000000,0.000000:
00000000
00000000
00000000
00000000
,
00000000
00000000
00000000
00000000
,
00000000
00000000
00000000
00000000
,
00000000
00000000
00000000
00000000
,
00000000
00000000
00000000
00000000
,
00000010
00000000
00000100
00000000
,
00000001
00000000
00001000
00000000
,
00010000
00000000
00001000
00000000
,
00100000
00000000
01000000
00000000
,
10010000
00000000
10010000
00000000
,
00000000
00000000
01100000
00000000
00000000
00000000
00000000
00010000
,
00000000
00000000
00001000
00000000
00000000
00010000
00000000
00000000
,
00001000
00010000
00022000
00000000
,
00000000
00033000
00010000
00001000
,
00000100
00000010
00000100
00000001
,
00001000
00000000
00000001
00000100
,
00000010
00001000
00000100
00000000
,
00000100
00000000
00010000
00001000
,
01000000
00010000
01000000
10000000
,
01000000
00000000
00010000
10000000
,
01000000
00100000
00000000
00110000
,
00000000
00100000
00100000
00100000
,
00001000
00001000
00001000
00010000
,
00010000
00000100
00000100
00000100
,
00000010
00000010
00000010
00000001
,
00000001
00001000
00001000
00001000
,
00000100
00000100
00000100
00010000
,
00010000
00100000
00100000
00100000
,
10000000
10000000
10000000
01000000
,
01000000
00200000
00000000
01000000
,
00000000
00010000
00000000
00001000
,
00300000
00011000
00000000
00000000
,
00000000
00010010
00000000
00000000
,
00000000
00002000
00003100
00000000
,
00000110
00000000
00001001
00002002
,
00003003
00000010
00000100
00000010
,
00000100
00001000
00010000
00001000
,
00000100
00000010
00000100
00000010
,
00000100
00001000
00020000
00030000
,
01000000
00100000
01000000
00100000
,
01000000
00010000
00001000
00010000
,
01000000
00100000
01000000
00100000
,
01000000
00010000
00001000
00011000
,
00010000
00001000
00000100
00000010
,
00000100
00000001
00001000
00000100
,
00000010
00000001
00000100
00000010
,
00000100
00001000
00020000
00031000
,
00001000
00010000
01000000
00100000
,
01000000
10000000
00010000
01000000
,
00100000
10000000
01000000
00100000
,
01000000
00010000
00002000
00013000
,
00022000
00000000
00000000
00033000
,
00010000
00000000
00000000
00000000
,
00000100
00000000
00000000
00000000
,
00000010
00000000
00000010
00000000
,
00000001
00000000
00000000
00000000
,
00000100
00000000
00000000
00000000
,
00001000
00000000
00000000
00000000
,
00010000
00000000
00010000
00000000
,
00100000
00000000
00000000
00000000
,
10000000
00000000
00000000
00000000
,
10010000
00000000
00000000
00000000
,
01000000
00000000
00010000
00000000
,
00001000
00000000
00000000
00000000
,
00010000
00000000
00000000
00000000
,
00011000
00000000
00000000
00000000
,
00001000
00000000
00000100
00000000
,
00000001
00000000
00000000
00000000
,
00002002
00000000
00003003
00000000
,
00000200
00000000
00000300
00000000
,
00000020
00000000
00000030
00000000
,
00000220
00000000
00000330
00000000
,
00002000
00000000
00003000
00000000
,
00020000
00000000
00030000
00000000
,
00001000
00000000
00010000
00000000
,
00022000
00033000
00000000
00000000
,
00000000
02000000
00000000
03000000
,
00000000
00200000
00000000
00300000
,
00000000
02200000
00000000
03300000
,
00000000
20000000
00000000
30000000
,
00000000
00020000
00000000
00030000
,
00000000
20020000
00000000
00000000
,
00000000
00000000
00000000
00000000
00000000
30030000
00000000
00000000
,
00000000
00000000
00000000
00000000
00000000
22000000
00000000
00000000
,
00000000
33000000
00000000
00000000
00000000
20020000
00000000
00000000
,
00000000
30030000
00000000
00000000
00000000
00220000
00000000
00000000
,
00000000
00330000
00000000
00000000
00000000
00202000
00000000
00000000
,
00000000
00303000
00000000
00000000
00000000
00022000
00000000
00000000
,
00000000
00033000
00000000
00000000
00000000
00010000
00000000
00000000
,
00000000
00001000
00000000
00000000
00000000
00000100
00000000
00000000
,
00000000
00000000
00000000
00000000
00000000
00000220
00000000
00000000
,
00000000
00000330
00000000
00000000
00000000
00002020
00000000
00000000
,
00000000
00003030
00000000
00000000
00000000
00002002
00000000
00000000
,
00000000
00003003
00000000
00000000
00000000
00000202
00000000
00000000
,
00000000
00000303
00000000
00000000
00000000
00000022
00000000
00000000
,
00000000
00000033
00000000
00000000
00000000
00000100
00000000
00000100
,
00000000
00000100
00000000
00000100
00000000
00000100
00000000
00000000
,
00000000
00000010
00000000
00000000
00000000
00000100
00000000
00000000
,
00000000
00000001
00000000
00000000
00000000
00000010
00000000
00000000
,
00000000
00001000
00000000
00000000
00000000
00010000
00000000
00000000
,
00000000
00001000
00000000
00000000
00000000
00100000
00000000
00000000
,
00000000
00010000
00000000
00000000
00000000
01000000
00000000
00000000
,
00000000
10000000
00000000
00000000
00000000
00010000
00000000
00000000
,
00000000
00100000
00000000
00000000
00000000
20000000
00000000
00000000
,
00000000
00000000
00000000
30010000
00000000
00000000
00000000
10000000
,
00000000
00000000
00000000
01000000
00000000
00000000
00000000
00010000
,
00000000
00000000
00000000
00001000
00000000
00000000
00000000
00010000
,
00000000
00000000
00000000
00000100
00000000
00000000
00000000
00000010
,
00000000
00000000
00000000
00000001
00000000
00000000
00000000
00000100
,
00000000
00000000
00000000
00001000
00000000
00000000
00000000
00000100
,
00000000
00000000
00000000
00000010
00000000
00000100
00000000
00000010
,
00000000
00000000
00000010
00000000
00000000
00000000
00000000
00000200
,
00000000
00000000
00000000
00000000
00000000
00000300
00000000
00002002
,
00000000
00000000
00000000
00003003
00000000
00000000
00000000
00000000
,
;

//---------------dance-double - ----------------
#NOTES:
     dance-double:
     :
     Medium:
     13:
     0.514832,0.747980,0.296883,0.395844,0.008247,437.000000,401.000000,36.000000,48.000000,0.000000,0.000000,0.514832,0.747980,0.296883,0.395844,0.008247,437.000000,401.000000,36.000000,48.000000,0.000000,0.000000:
00000000
00000000
00000000
00000000
,
00000000
00000000
00000000
00000000
,
00000000
00000000
00000000
00000000
,
00000000
00000000
00000000
00000000
,
00000000
00000000
00000000
00000000
,
10000000
01000000
10000000
10000000
,
00100000
01000000
00010000
00010000
,
00100000
00001000
00010000
00010000
,
00010100
00000000
00000000
00000011
00000000
00000000
00001100
00000000
,
00000001
00000100
00000000
00000000
00000120
00000000
00000030
00001000
,
00000000
00000000
00010200
00000000
00000300
00000000
00000000
00001000
,
00000000
00000000
00100000
00000000
00000000
00010000
00000000
00000000
,
01010000
00000000
10100000
00000000
10000000
01000000
00010000
00001000
,
00020000
00000000
00031000
00000000
00010000
00000000
00000100
00010000
,
00001000
00000000
00000010
00000000
00000100
00000000
00001000
00000001
,
00001000
00000000
00000001
00000100
00000010
00000000
00001000
00000000
,
00000001
00000000
00000100
00001000
00000000
00010000
00000000
00011000
,
00000000
00011000
00000000
00000000
00010000
00000000
00001000
00100000
,
00010000
00000000
10000000
00000000
00010000
00000000
10000000
01000000
,
10000000
00000000
00100000
00010000
01000000
00000000
00010000
00000000
,
10000000
00000000
00100000
00010000
00001000
00000000
00101000
00000000
,
00010000
00000000
00001000
00001000
00010000
00000000
00000100
00000100
,
00000010
00000000
00000001
00000001
00001000
00000001
00000100
00000100
,
00000010
00000000
00010000
00010000
00001000
00000000
00100000
00100000
,
01000000
00000000
10000000
10000000
01000000
00100000
00010000
00010000
,
10000000
00000000
00100000
00100000
01000000
00000000
00001000
00001000
,
00010000
00000000
00000100
00000100
00000010
00000001
00001000
00001000
,
00000100
00000000
00000010
00000010
00000001
00000000
00000100
00000100
,
00001000
00000000
00010000
00010000
00000100
00010000
00001000
00100000
,
00100000
01200000
00000000
00002000
,
00003000
00320000
00000000
02000000
,
03030000
10010000
00000000
00000000
,
00000000
01100000
00000000
00000000
,
00000000
00000000
00000000
00000000
00011000
00011000
00000000
00000000
,
00010100
00010100
00000000
00000000
00001100
00000000
00000011
00000000
,
00001001
00000000
00000100
00000000
00001000
00000001
00001000
00000100
,
00000000
00000000
00000010
00000000
00000001
00000100
00000010
00001000
,
00000000
00000000
00000100
00000000
00010000
00001000
00100000
00010000
,
00000000
00000000
01000000
00000000
00100000
10000000
00010000
01000000
,
00000000
00000000
00010000
00000000
10000000
01000000
00100000
00010000
,
00000000
00000000
00100000
00000000
00001000
00010000
00000100
00001000
,
00000000
00000000
00000001
00000000
00000100
00000001
00001000
00000010
,
00000000
00000000
00000100
00000000
00000010
00001000
00000100
00010000
,
00000000
00010000
00001000
00000000
00100000
00010000
01000000
00100000
,
00000000
00100000
10000000
00000000
01000000
00100000
00010000
10000000
,
00000000
10000000
01000000
00000000
00100000
00001000
00010000
00000010
,
00000000
00000010
00000100
00000000
00000001
00000010
00000100
00001000
,
00000000
00001000
00000001
00000000
00000100
00000001
00000100
00000010
,
00000000
00000010
00001000
00000000
00000100
00010000
00001000
00100000
,
00000000
00100000
00010000
00000000
10000000
00010000
01000000
00100000
,
00000000
00100000
01000000
00000000
00010000
00100000
00001000
00010000
,
00002000
00000000
00000000
00000000
00000000
00000000
00000000
00000000
00010000
00000000
00000000
00100000
00000000
00000000
00010000
00000000
,
00003200
00000000
00000010
00000300
,
00000010
00000100
00000010
00000100
,
00000002
00000000
00001000
00000003
,
00001000
00000100
00001000
00000100
,
00020000
00000000
00001000
00030000
,
00001000
00100000
00001000
00100000
,
00020000
00000000
10000000
00030000
,
10000000
00100000
01000000
00010000
,
20000000
00000000
01000000
30000000
,
00100000
01000000
00100000
01000000
,
00020000
00000000
00100000
00030000
,
10000000
01000000
00100000
00001000
,
00020000
00000000
00001000
00030000
,
00000100
00010000
00000100
00010000
,
00000020
00000000
00000100
00000030
,
00001000
00000100
00000010
00000001
,
00000020
00000000
00000031
00000000
,
00002000
00000000
00003100
00000000
,
00020000
00000000
00031000
00000000
,
01000000
00010000
00100000
01000000
,
20000000
00000000
31000000
00000000
,
00020000
00000000
00130000
00000000
,
00002000
00000000
00000000
00000000
00013000
00000000
00001000
00010000
,
00001000
00020000
00030000
00000000
00000000
00000000
00010000
00000000
,
00000000
00000020
00000000
00000130
,
00000000
00000002
00000000
00001003
,
00000000
00000200
00000000
00010300
,
00000000
00020000
00000000
00031000
,
00000000
02000000
00000000
03100000
,
00000000
00000000
10000000
00000000
00010000
00000000
10000000
00010000
,
10000000
00000000
00100000
00000000
00000000
02200000
00000000
03300000
,
00000000
00010000
00000000
00000000
00000000
12000000
00000000
00000000
,
00000000
03100000
00000000
00000000
00000000
00102000
00000000
00000000
,
00000000
00013000
00000000
00000000
00000000
00020100
00000000
00000000
,
00000000
00030010
00000000
00000000
00000000
00001020
00000000
00000000
,
00000000
00000130
00000000
00000000
00000000
00000102
00000000
00000000
,
00000000
00001003
00000000
00000000
00000000
00000010
00000000
00000100
,
00000000
00001000
00000000
00010000
00000000
00021000
00000000
00000000
,
00000000
00030100
00000000
00000000
00000000
00012000
00000000
00000000
,
00000000
00103000
00000000
01000000
00000000
20000000
00000000
00000000
,
00000000
30010000
00000000
00000000
00000000
01020000
00000000
00000000
,
00000000
00130000
00000000
00001000
00000000
00020000
00000000
00000000
,
00000000
00030100
00000000
00000000
00000000
00001020
00000000
00000000
,
00000000
00000031
00000000
00000010
00000000
00002000
00000000
00000100
,
00000000
00000001
00000000
00000010
00000000
00013000
00000000
00000100
,
00000000
00000010
00000000
00001000
00000000
00000100
00000000
00010000
,
00000000
00001000
00000000
00000000
00000000
00100000
00000000
00010000
,
00000000
10000000
00000000
01000000
00000000
00010000
00000000
00001000
,
00000000
00100000
00000000
00000000
00000000
00001000
00000000
00010000
,
00000000
00000100
00000000
00000010
00000000
00000001
00000000
00000100
,
00000000
00001000
00000000
00000000
00000000
00010000
00000000
00000100
,
00000000
00010000
00000000
00000010
00000000
00000100
00000000
00001000
,
00000000
00010000
00000000
00011000
00000000
00000000
00000000
00010000
,
00000000
00010000
00000000
02000000
00000000
00000000
00000000
10000000
,
00000000
13000000
00000000
00200000
00000000
00000000
00000000
00010000
,
00000000
00310000
00000000
00002000
00000000
00000000
00000000
00000010
,
00000000
00003010
00000000
00000110
00000000
00000000
00000000
00000011
,
00000000
00000000
00000000
00000001
00000000
00000001
00000000
00000100
,
00000000
00001000
00000000
00010000
00000000
00010000
00000000
00100000
,
00000000
00000000
01100000
00000000
00000000
00000000
00000000
10020000
,
00000000
00000000
00000000
00000000
00000000
00000000
01000000
00000000
00000000
10000000
00000000
00000000
00130000
00000000
00022000
00000000
,
00000000
00000000
00000000
00033000
00000000
00000000
00000000
00000000
,
;

//---------------dance-double - ----------------
#NOTES:
     dance-double:
     :
     Hard:
     16:
     0.755166,1.075221,0.354610,0.272142,0.164935,641.000000,598.000000,43.000000,33.000000,0.000000,0.000000,0.755166,1.075221,0.354610,0.272142,0.164935,641.000000,598.000000,43.000000,33.000000,0.000000,0.000000:
00000000
00000000
00000000
00000000
,
00000000
00000000
00000000
00000000
,
00000000
00000000
00000000
00000000
,
00000000
00000000
00000000
00000000
,
00000000
00000000
00000000
00000000
,
00010000
00000010
00000100
00001000
,
00100000
01000000
00010000
00001000
,
00000010
00000001
00000100
00001000
,
00011000
00000000
00000000
01010000
00000000
00000000
10100000
00000000
,
10000000
11000000
00000000
00000000
01200000
00000000
00310000
00101000
,
00000000
00000000
00012000
00000000
00003010
00000000
00000000
00000001
,
00000101
00000000
00001000
00001010
00000000
00000100
00010100
00000000
,
00010000
00000000
00001000
00000000
00000100
00000000
00000010
00000000
00000100
00000000
00001000
00010000
00001000
00010000
00001000
00000000
,
00200000
00000000
00310000
00010000
10000000
01000000
00100000
00010000
,
00100000
01000000
00000000
01000000
10000000
01000000
00010000
00001000
,
00100000
00001000
00000000
00001000
00010000
00000010
00001000
00000001
,
00000100
00000010
00000100
00001000
00000100
00000001
00000000
00000101
,
00000000
00001010
00000000
00010000
00001000
00000100
00001000
00010000
,
00100000
10000000
00000000
10000000
01000000
00010000
00001000
00010000
,
01000000
00000000
01000000
00100000
00100000
01000000
00100000
00001000
,
00010000
00000000
00001000
00000000
00000000
00000000
00010000
00000000
00000100
00000000
00001000
00000000
00000100
00000010
00000000
00000100
,
00000010
00000000
00000000
00000000
00000001
00000000
00000100
00000000
00000010
00000000
00001000
00000000
00000001
00000100
00000001
00000100
,
00000010
00000000
00000100
00000000
00000001
00000000
00001000
00000000
00000100
00000000
00010000
00000000
00000010
00001000
00000010
00001000
,
00000100
00000000
00010000
00000000
00001000
00000000
00100000
00000000
01000000
00000000
10000000
00000000
00010000
01000000
00010000
01000000
,
00100000
00000000
10000000
00000000
01000000
00000000
00100000
00000000
00001000
00000000
01000000
00000000
00010000
00100000
00010000
00100000
,
00001000
00010000
00001000
00010000
00001000
00000000
00100000
00000000
00001000
00000000
00010000
00000000
00000010
00000100
00000010
00000100
,
00000001
00000000
00001000
00000000
00000100
00000000
00000010
00000000
00000001
00000000
00000100
00000000
00000010
00001000
00000010
00001000
,
00000100
00000000
00010000
00000000
00001000
00000000
01000000
00000000
00100000
00000000
10000000
00000000
00010000
10000000
00010000
10000000
,
00100000
00000000
10000000
00000000
01000000
00000000
00000000
00100000
00010000
00000000
00100000
00010000
00100000
00001000
00010000
00001000
,
00010000
00000000
00001000
00010000
00000200
00000000
00000000
00000000
00000000
00000000
00000000
00000000
00000320
00000000
00000000
00000000
,
00000001
00000230
00000001
00002300
,
00013000
00011000
00000000
00000000
,
00000000
10010000
00000000
00000000
,
00000000
00000000
00000000
00000000
00011000
00011000
00010100
00000000
,
00011000
00011000
01001000
00000000
00101000
00000000
00010010
00000000
,
00011000
00001000
00000100
00000010
00000000
00001000
00000100
00000010
,
00000000
00000001
00000010
00001000
00000010
00000001
00000100
00001000
,
00000000
00100000
00010000
01000000
00000000
00100000
10000000
01000000
,
00000000
10000000
00100000
00010000
00100000
10000000
01000000
00010000
,
00000000
00001000
00010000
01000000
00000000
00001000
00010000
00100000
,
00000000
00001000
00010000
00001000
00000010
00000001
00000100
00001000
,
00000000
00010000
00001000
00000100
00000000
00010000
00001000
00000010
,
00000000
00000000
00010000
00000000
00001000
00000000
00010000
00000000
01000000
00000000
00100000
01000000
00100000
00000000
00010000
00000000
,
00000000
00010000
10000000
00010000
01000000
10000000
00010000
10000000
,
01000000
00010000
00100000
00001000
00010000
00000100
00001000
00000001
,
00000000
00001000
00000001
00001000
00000010
00000001
00001000
00000001
,
00000010
00000100
00001000
00010000
00200000
00000000
01300000
00100000
,
10000000
00100000
00100000
01000000
00010000
00100000
00100000
00010000
,
10000000
00100000
00100000
01000000
00010000
00100000
00001000
00010000
,
00000100
00000010
00000010
00000100
00001000
00000001
00000001
00001000
,
00000100
00000000
00000010
00000000
00000001
00000000
00000100
00000000
00000010
00001000
00000010
00001000
00000100
00010000
00000100
00010000
,
00002000
00000000
00000000
00000000
00000000
00000000
00003000
00000000
00001000
00100000
00100000
00001000
00100000
00100000
00011000
00000000
,
00110000
00000000
00000000
00010000
10000000
00000000
01000000
00000000
,
00010000
00001000
00010000
01000000
,
10000000
00000000
00000000
00010000
10000000
00000000
00100000
00000000
,
01000000
00010000
00100000
00001000
,
00010000
00000000
00000000
00000100
00001000
00000000
00000010
00000000
,
00000100
00000001
00001000
00000010
,
00000100
00000000
00000000
00001000
00000100
00000000
00000001
00000000
,
00000010
00000100
00000010
00000000
00000001
00000000
00001000
00000000
,
00000100
00000000
00000000
00000010
00000100
00000000
00010000
00000000
,
00001000
00100000
00010000
01000000
,
00100000
00000000
00000000
10000000
00010000
00000000
01000000
00000000
,
00100000
10000000
00100000
00000000
01000000
00000000
00001000
00000000
,
00010000
00000000
00000000
00000100
00000010
00000000
00000001
00000000
,
00000100
00000010
00001000
00000100
,
00010000
00000000
00000000
00001000
00100000
00000000
00010000
00000000
,
01000000
00000000
00000000
00100000
10000000
00000000
00010000
00000000
,
00020000
00000000
00000000
10030000
01000000
00000000
00100000
00000000
,
02000000
00000000
00000000
03100000
00001000
00000000
00010000
00000000
,
00002000
00000000
00000000
00013000
00000010
00000000
00000100
00000000
,
00000020
00000000
00000000
00000130
00000001
00000000
00001000
00000000
,
00000002
00000000
00000000
00000103
00001000
00000000
00010000
00000000
,
00002000
00000000
00000000
01003000
00100000
00000000
00100000
00000000
,
10000000
00000000
01000000
00000000
00100000
00010000
00100000
00010000
,
01000000
00000000
00000000
00000000
00000000
00000000
00000000
00000000
00000000
00000000
00000000
00000000
00000000
00000000
00000000
00000000
00000000
00000000
00000000
00000000
00000000
00000000
00000000
00000000
00200000
00000000
00000000
00000000
00000000
00000000
00000000
00000000
00000000
00000000
00000000
00000000
00000000
00000000
00000000
00000000
00000000
00000000
00000000
00000000
00000000
00000000
00000000
00000000
10000000
00000000
00000000
00300000
00000000
00000000
00000000
00000000
00000000
00000000
00000000
00000000
00000000
00000000
00000000
00000000
00000000
00000000
00000000
00000000
00000000
00000000
00000000
00000000
00000000
00000000
00000000
00000000
00000000
00000000
00000000
00000000
00000000
00000000
00000000
00000000
00000000
00000000
00000000
00000000
00000000
00000000
00000000
00000000
00000000
00000000
00000000
00000000
00000000
00000000
00000000
00000000
00000000
00000000
00000000
00000000
00000000
00000000
00000000
00000000
00000000
00000000
00000000
00000000
00000000
00000000
00000000
00000000
00000000
00000000
00000000
00000000
01000000
00000000
00000000
00000000
00000000
00000000
00000000
00000000
00000000
00000000
00000000
00000000
00000000
00000000
00000000
00000000
00000000
00000000
00000000
00000000
00000000
00000000
00000000
00000000
10000000
00000000
00000000
00000000
00000000
00000000
00000000
00000000
00000000
00000000
00000000
00000000
00000000
00000000
00000000
00000000
00000000
00000000
00000000
00000000
00000000
00000000
00000000
00000000
00000000
00000000
00000000
00000000
00000000
00000000
00000000
00000000
00000000
00000000
00000000
00000000
00000000
00000000
00000000
00000000
00000000
00000000
00000000
00000000
00000000
00000000
00000000
00000000
,
00000000
00000000
20010000
00000000
00000000
30010000
01000000
00000000
,
01000000
00000000
01200000
00000000
00000000
01300000
00001000
00000000
,
00000000
00000000
00012000
00000000
00000000
00013000
00000100
00000000
,
00000100
00000000
00000210
00000000
00000000
00000310
00000001
00000000
,
00000000
00000000
00000102
00000000
00000000
00000103
00001000
00000000
,
00001000
00000000
00010000
00000000
00001000
00000000
00100000
00001000
,
01000000
00010000
10000000
00000000
00000000
20020000
00000000
30030000
,
00100000
10000000
00000000
00100000
00000000
00000000
11000000
00000000
,
01000000
00100000
00000000
01000000
00000000
00010000
00000000
00000000
,
00001000
00010000
00000000
00001000
00000000
00000000
00000110
00000000
,
00001000
00000100
00000000
00000100
00000000
00000001
00000000
00000000
,
00001000
00000001
00000000
00000010
00000000
00000100
00000010
00000000
,
00000010
00000100
00000000
00010000
00000000
00001000
00000000
00010000
,
00000000
00000100
00001000
00000001
00000010
00000100
00000000
00000000
,
00000020
00000001
00000000
00000031
00000000
00001001
00000000
00000000
,
00000200
00010000
00000000
00010300
00000000
00011000
00000000
00000000
,
00200000
00010000
00000000
00310000
00000000
01010000
00000000
00000000
,
00200000
10000000
00000000
10300000
00000000
10010000
00000000
00000000
,
00200000
00001000
00000000
00301000
00000000
00011000
00000000
00000000
,
00000200
00000000
00000010
00000000
00000000
00000000
00000310
00000000
00000000
00000000
00000001
00000000
00000100
00000000
00000010
00001000
,
00000000
00000100
00000000
00010000
00001000
00000000
00100000
00000000
00010000
01000000
00100000
00000000
00000000
00000000
10000000
00000000
,
00000000
00010000
00000000
10000000
00010000
10000000
00000000
01000000
,
00000000
00100000
00000000
00001000
00010000
00001000
00000000
00010000
,
00000000
00000100
00000000
00001000
00000001
00001000
00000000
00000100
,
00000000
00000100
00000000
00000100
00000000
00000010
00000000
00000001
,
00000000
00001000
00000000
00000001
00001000
00000001
00000000
00000100
,
00000000
00000010
00000000
00010000
00001000
00010000
00000000
00001000
,
00000000
01000000
00000000
00010000
00000000
10000000
00010000
00100000
,
01000000
10000000
00000000
10010000
00000000
00000000
00000000
10000000
,
00010000
01000000
00000000
00100000
00000000
01000000
00000000
00010000
,
00100000
00001000
00000000
00010000
00000000
00001000
00000000
00010000
,
00000010
00001000
00000000
00000100
00000000
00000010
00000000
00000001
,
00001000
00000010
00000000
00000100
00000001
00000010
00000000
00000100
,
00010000
00001000
00000000
00010000
00001000
00100000
00000000
01000000
,
00000000
10000000
01000000
00100000
00001000
00010000
00000100
00001000
,
00000000
00000000
00010100
00000000
00000000
00000000
00000000
00002002
,
00000000
00000000
00000000
00000000
00003003
00000000
00000010
00000100
00000100
00000010
00000100
00000100
00000110
00000000
00002002
00000000
,
00000000
00000000
00000000
00003003
00000000
00000000
00000000
00000000
,
;

//---------------dance-single - ----------------
#NOTES:
     dance-single:
     :
     Challenge:
     17:
     0.922457,1.262215,0.346363,0.082467,0.420584,783.000000,741.000000,42.000000,10.000000,0.000000,0.000000,0.922457,1.262215,0.346363,0.082467,0.420584,783.000000,741.000000,42.000000,10.000000,0.000000,0.000000:
// measure 0
0000
0000
0000
0000
,  // measure 1
0000
0000
0000
0000
,  // measure 2
0000
0000
0000
0000
,  // measure 3
0000
0000
0000
0000
,  // measure 4
0000
0000
0000
0000
,  // measure 5
1000
0010
1000
0001
0000
0101
0000
0110
,  // measure 6
0000
0010
1010
0000
1001
0000
0101
0000
,  // measure 7
0100
0010
1000
0010
0000
0110
0000
1001
,  // measure 8
0000
0001
0001
1000
0010
0010
0100
0001
,  // measure 9
1000
1001
0000
0000
0220
0000
0330
1001
,  // measure 10
0000
0000
1001
0000
0110
0000
0000
0001
,  // measure 11
0010
0000
0100
1000
0000
0010
1000
0000
,  // measure 12
0100
0000
0010
0000
0001
0000
1000
0000
0010
0000
1000
0000
0001
0100
0001
0100
,  // measure 13
0002
0000
1003
0010
0100
0001
0100
0010
,  // measure 14
0000
1010
0000
1000
0001
0100
0001
0010
,  // measure 15
0100
0000
1000
0010
1000
0001
0100
0010
,  // measure 16
0000
0000
0100
0000
0000
0000
0001
0000
1000
0010
1000
0010
0100
0001
0100
0001
,  // measure 17
0010
0100
0010
0000
0100
0000
1000
0000
0001
1000
0001
0000
0010
0000
0100
0000
,  // measure 18
1000
0000
0001
0100
0010
1000
0100
0010
,  // measure 19
1000
0010
0001
0100
0010
1000
0001
0010
,  // measure 20
0100
0000
0001
0000
0100
0000
1000
0100
0010
0100
1000
0000
0001
0000
0010
0100
,  // measure 21
1000
0100
0010
0000
0001
1000
0010
1000
0100
0000
0010
0001
0000
0001
1000
0000
,  // measure 22
0001
1000
0010
0000
1000
0100
0010
0100
1000
0000
0001
0000
0100
0001
0010
0001
,  // measure 23
0100
0000
0010
0000
1000
0001
0100
0010
0100
0000
0010
0000
0100
0001
0010
0100
,  // measure 24
0010
0001
0100
0000
0010
1000
0100
1000
0001
0000
0001
0000
0100
0010
1000
0010
,  // measure 25
0100
0010
1000
0000
0001
0100
0010
0000
0110
0000
0100
0000
0001
1000
0100
1000
,  // measure 26
0001
1000
0100
0000
0010
0001
0010
0100
1000
0000
0010
0000
1000
0100
0010
0001
,  // measure 27
0010
0000
0100
0000
1000
0001
0010
0000
0001
0100
0000
0001
0010
0000
0100
0000
,  // measure 28
1000
0000
0001
0000
0010
0001
0010
0001
0100
0000
0010
0000
1000
0001
1000
0001
,  // measure 29
0100
0000
0001
0000
0100
0000
0001
0000
1000
0100
1000
0000
0001
0000
0010
0000
0001
0000
1000
0000
0001
0000
0000
0000
0100
0000
0000
0000
0010
0000
0000
0000
,  // measure 30
1000
0001
0200
0000
0000
0000
0320
0000
,  // measure 31
0130
1001
0000
0000
,  // measure 32
0000
0101
0000
0000
,  // measure 33
0000
0000
0000
0000
0000
0000
1000
0010
1000
0000
1001
0000
0000
0000
0001
0100
,  // measure 34
0001
0101
0110
0000
1001
0000
0110
0000
,  // measure 35
1001
0000
1000
0100
0000
0001
0100
1000
,  // measure 36
0000
0000
0010
0000
1000
0000
0100
0000
0010
0001
0100
0000
0100
0010
1000
0000
,  // measure 37
0000
0000
0001
0000
1000
0000
0001
0000
0000
0000
1000
0000
0010
0100
0001
0000
,  // measure 38
0000
0000
1000
0000
0001
0000
0010
0000
0001
1000
0100
0000
1000
0000
0001
0000
,  // measure 39
0100
0000
0100
0000
0010
1000
0001
0000
1000
0000
0010
0100
0001
0100
0010
0000
,  // measure 40
1000
0000
0001
0000
1000
0100
0001
0000
0001
0100
1000
0000
1000
0010
0001
0000
,  // measure 41
0001
0000
0010
0000
1000
0001
0100
0000
0100
0000
0001
1000
0010
1000
0001
0000
,  // measure 42
0100
0000
0001
0000
0010
0001
1000
0000
0010
0000
1000
0001
0100
0001
1000
0000
,  // measure 43
0010
1000
0100
0010
0001
0100
1000
0100
,  // measure 44
0001
0000
0010
0000
0001
0100
1000
0000
1000
0100
0001
0000
1000
0001
0100
0000
,  // measure 45
0100
0000
0001
0000
0010
0001
1000
0000
0010
0000
1000
0000
0001
1000
0010
0000
,  // measure 46
0100
0010
1000
0010
0210
0000
0310
1000
,  // measure 47
0001
0000
0100
0010
1000
0100
0010
0000
0001
0000
1000
0000
0010
0100
0001
0100
,  // measure 48
0010
0000
1000
0000
0001
1000
0010
0000
0010
0100
0001
0000
0001
0100
1000
0000
,  // measure 49
0100
0000
0001
0000
0010
0100
1000
0000
0010
0000
1000
0000
0100
0010
0001
0000
,  // measure 50
1000
0000
0001
0000
1000
0010
1000
0010
0100
0001
0100
0001
1000
0001
1000
0001
,  // measure 51
2000
0000
0000
0000
0000
0000
3000
0000
0001
0010
1000
0010
0001
0100
1000
0100
,  // measure 52
0001
0010
0000
0010
0100
0000
1000
0010
,  // measure 53
0000
0010
0100
0000
0001
0000
0010
0000
,  // measure 54
0001
1000
0000
1000
0010
0000
0010
0100
,  // measure 55
0000
0100
0001
0000
0010
0000
0100
0000
,  // measure 56
1100
0000
0000
1001
0000
0000
0101
0000
,  // measure 57
0000
0110
0000
0000
0010
0000
1000
0000
,  // measure 58
0100
0010
0000
0010
0001
0000
0001
1000
,  // measure 59
0000
1000
0100
0000
0010
0000
0001
0000
,  // measure 60
0100
0010
0000
1000
0010
0000
0100
0010
,  // measure 61
0000
1000
0010
0000
0100
0000
0001
0000
,  // measure 62
1001
0000
0000
1010
0000
0000
0101
0000
,  // measure 63
0000
0011
0000
0000
0010
0000
0100
0000
,  // measure 64
1000
0001
0000
0001
0100
0000
0100
0010
,  // measure 65
0000
0010
1000
0000
0001
0000
1000
0000
,  // measure 66
1010
0000
0000
0010
0100
0000
0001
0000
,  // measure 67
0011
0000
0000
0010
1000
0000
0010
0000
,  // measure 68
0001
0100
0000
0100
0001
0000
0010
0000
,  // measure 69
0100
1000
0000
1000
0001
0000
0010
0000
,  // measure 70
0100
1000
0000
1000
0010
0000
0100
0000
,  // measure 71
0001
0010
0000
0010
0100
0000
1000
0000
,  // measure 72
0001
1000
0000
1000
0010
0000
0100
0000
,  // measure 73
0001
1000
0000
1000
0010
0000
0100
0000
,  // measure 74
0001
0000
1000
0000
0010
0000
0100
0001
,  // measure 75
0100
0001
0010
0000
0100
1000
0000
1000
,  // measure 76
0001
0000
0100
0000
0001
0010
0000
0001
,  // measure 77
0010
0000
0100
0000
1000
0000
0001
1000
,  // measure 78
0000
0001
0100
0000
0010
1000
0000
0001
,  // measure 79
1000
0000
0010
0100
0000
0001
0100
0000
,  // measure 80
0001
0010
0000
0001
0100
0000
0010
1000
,  // measure 81
0000
0100
1000
0000
0001
0000
0100
0010
,  // measure 82
0100
0010
0100
0000
0000
1001
1010
0000
,  // measure 83
1000
0001
0000
0001
0100
0000
0010
0000
,  // measure 84
0100
0001
0010
0001
1000
0100
1000
0000
,  // measure 85
1000
0001
0000
0001
1000
0010
0100
0010
,  // measure 86
0001
0010
0100
0000
0010
1000
0000
1000
,  // measure 87
0001
0000
0100
0001
0000
0010
0100
0000
,  // measure 88
1100
1000
0010
0100
,  // measure 89
0001
0010
0001
0010
0100
1000
0001
0000
,  // measure 90
0100
0001
0000
0001
1000
0100
1000
0010
,  // measure 91
0100
0001
0100
0010
1000
0000
0001
0000
,  // measure 92
0001
0100
0000
0100
0010
0000
0010
1000
,  // measure 93
0000
1000
0100
0010
0001
0000
0100
0000
,  // measure 94
0001
0010
0000
1000
0010
0000
0001
0000
,  // measure 95
0100
0000
1000
0000
0100
0000
0000
0000
0000
0000
0011
0000
0010
0000
0100
1000
,  // measure 96
0000
1001
0000
0001
0100
0000
0010
0000
0100
0001
1000
0000
0010
0000
0100
0000
,  // measure 97
0000
0001
0000
1000
0001
0100
0001
0010
,  // measure 98
0000
0100
0000
1000
0010
0100
0010
0001
,  // measure 99
0000
0010
0000
1000
0001
0100
0001
0010
,  // measure 100
0000
0100
0000
1000
0001
0010
0100
1000
,  // measure 101
0000
0010
0000
0100
0010
1000
0100
1000
,  // measure 102
0000
0001
0000
0010
0001
0100
0010
1000
,  // measure 103
0000
1000
0001
0100
0000
0100
0010
1000
,  // measure 104
0100
0010
0001
0100
0001
1000
0000
0001
,  // measure 105
0100
0001
0000
1010
0000
0100
0001
0010
,  // measure 106
0100
1000
0000
1001
0000
1000
0100
0010
,  // measure 107
0001
0100
0000
0010
1000
0001
1000
0010
,  // measure 108
0100
0001
0000
0010
0001
0100
0000
0100
,  // measure 109
0010
1000
0000
1000
0100
0001
0000
0001
,  // measure 110
0100
1000
0010
0100
0010
0001
0010
1000
,  // measure 111
0000
0000
1001
0000
0001
1000
0001
0200
,  // measure 112
0000
0000
0000
0000
0000
0000
0310
0010
1000
1000
0001
0001
0100
0100
2002
0000
,  // measure 113
0000
0000
0000
3003
0000
0000
0000
0000
;
